Ошибка

До окончания фрилича осталось:


Корона Греха / Guilty Crown [TV][01-22 из 22][2011][Приключения, Фантастика, Меха, Драма][BDRip][720p][Любительский (JAP+SUB)]

Ответить на тему
 
Автор Сообщение

iSenjeru

Пол: Пол:Муж

Стаж: 5 лет 5 месяцев

Сообщений: 390

Казахстан
Рейтинг

post 10-Дек-2012 00:11 2[+]

[Цитировать] 



Guilty Crown || Корона Греха

Год выпуска: 2011
Страна:
Режиссер: Араки Тэцуро
Студия:
Жанр: Приключения, Фантастика, Меха, Драма
Перевод: Озвучка + Субтитры
Продолжительность:
  • Сериал: 22 эпизодов х 25 мин

Озвучка:
  • Сериал: Двухголосая от - [Milirina & Darmen] - [22 из 22]
  • Сериал: Двухголосая от - [Eladiel & Jam] - [22 из 22]
  • Сериал: Двухголосая от - [Ancord & Nika Lenina] - [22 из 22]

Хардсаб: Нет
Описание:
После эпидемии вируса «Апокалипсис» в 2029 году Страна Восходящего солнца оказалась банкротом и попала под внешнее управление. Частная организация GHQ, неизвестно откуда пришедшая к власти, ввела военное положение и безжалостно подавляет любую оппозицию. Тем не менее, даже десять лет спустя Токио регулярно сотрясают крупные и мелкие теракты, а ряды борцов Сопротивления лишь пополняются. Нежданно-негаданно в них попадает 17-летний Сю Ома, тихий парень, любитель видеомонтажа. Как водится, всему виною женщина – в данном случае Инори Юдзуриха, певица и сетевой идол, по совместительству – борец за свободу и член подпольной группировки «Гробовщики»!

Попав в ситуацию словно из «Звездных войн», Сю взял себя в руки и твердо решил помочь «принцессе в беде». Быстро познакомившись с «гробовщиками», Ома втянулся в первые бои среди трущоб и, конечно же, открыл в себе «силу королей» - способность погружаться в Пустоту, что внутри Избранных, и доставать оттуда супероружие, манифестацию духа каждого из них. Теперь отступать некуда – свобода или смерть! При этом парень ухитряется учиться в старшей школе, готовить конкурсные клипы и дружить с Инори, которую отправили к нему «на усиление». Пользуйся Силой, Сю – иначе долго так не протянешь!
© Hollow, World Art

Информационные ссылки: AniDB || World Art
Сериал:
Качество: BDRip (рип от [Yousei-raws])
Формат: MKV
Видео кодек: x264
Аудио кодек: Vorbis, AAC
  • x264 | Hi10p | 1280x720(16:9) | ~5000 kbps | 23.976 fps | 0.217 b\px

  • Vorbis | 48 KHz | 2ch | 256 Kbps - [Original Japanese]
  • AAC | 48 KHz | 2ch | ~192 Kbps - [Milirina & Darmen]
  • AAC | 48 KHz | 2ch | ~192 Kbps - [Eladiel & Jam] (отдельным файлом)
  • AAC | 48 KHz | 2ch | ~256 Kbps - [Ancord & Nika Lenina] (отдельным файлом)
Субтитры:
  • [Advantage] - [22 из 22]

01. Genesis
02. Survival of the Fittest
03. Void-Sampling
04. Flux
05. A Preparation
06. Leukocytes
07. Temptation
08. Courtship Behavior
09. Prey
10. Retraction
11. Resonance
12. The Lost Christmas
13. Isolation
14. Election
15. Sacrifice
16. The Tyrant
17. Exodus
18. Dear...
19. Rebirth
20. A Diary
21. Emergence
22. Convergence

Код:

Общее
Уникальный идентификатор                 : 244055960090798146014647560383969051390 (0xB79B77D9A103AFA6A255EC648DCF42FE)
Полное имя                               : G:\Anime\Guilty Crown [BD] [720p]\[Yousei-raws] Guilty Crown 01 [BDrip 1280x720 x264 Vorbis].mkv
Формат                                   : Matroska
Версия формата                           : Version 2
Размер файла                             : 865 Мбайт
Продолжительность                        : 23 м.
Режим общего битрейта                    : Переменный
Общий поток                              : 5161 Кбит/сек
Дата кодирования                         : UTC 2012-02-01 05:55:07
Программа кодирования                    : mkvmerge v2.9.7 ('Tenderness') built on Jul  1 2009 18:43:35
Библиотека кодирования                   : libebml v0.7.7 + libmatroska v0.8.1

Видео
Идентификатор                            : 1
Формат                                   : AVC
Формат/Информация                        : Advanced Video Codec
Профиль формата                          : High 10@L4.1
Параметр CABAC формата                   : Да
Параметр ReFrames формата                : 9 кадров
Идентификатор кодека                     : V_MPEG4/ISO/AVC
Продолжительность                        : 23 м.
Битрейт                                  : 4802 Кбит/сек
Ширина                                   : 1280 пикселей
Высота                                   : 720 пикселей
Соотношение сторон                       : 16:9
Режим частоты кадров                     : Постоянный
Частота кадров                           : 23,976 кадра/сек
Цветовое пространство                    : YUV
Субдискретизация насыщенности            : 4:2:0
Битовая глубина                          : 10 бит
Тип развёртки                            : Прогрессивная
Бит/(Пиксели*Кадры)                      : 0.217
Размер потока                            : 804 Мбайт (93%)
Библиотека кодирования                   : x264 core 120 r2146+650 183470d
Настройки программы                      : cabac=1 / ref=9 / deblock=1:-2:-2 / analyse=0x3:0x133 / me=umh / subme=9 / psy=1 / fade_compensate=0.00 / psy_rd=0.90:0.00 / mixed_ref=1 / me_range=24 / chroma_me=1 / trellis=2 / 8x8dct=1 / cqm=0 / deadzone=21,11 / fast_pskip=1 / chroma_qp_offset=-2 / threads=6 / sliced_threads=0 / nr=0 / decimate=0 / interlaced=0 / bluray_compat=0 / constrained_intra=0 / fgo=0 / bframes=8 / b_pyramid=2 / b_adapt=2 / b_bias=0 / direct=1 / weightb=1 / open_gop=0 / weightp=2 / keyint=250 / keyint_min=23 / scenecut=40 / intra_refresh=0 / rc=crf / mbtree=0 / crf=15.4 / qcomp=0.70 / qpmin=9 / qpmax=38 / qpstep=4 / ip_ratio=1.40 / pb_ratio=1.30 / aq=1:0.90 / zones=4781,4923,b=1.6
Default                                  : Да
Forced                                   : Нет

Аудио
Идентификатор                            : 2
Формат                                   : Vorbis
Параметр Floor формата                   : 1
Идентификатор кодека                     : A_VORBIS
Продолжительность                        : 23 м.
Вид битрейта                             : Переменный
Битрейт                                  : 256 Кбит/сек
Каналы                                   : 2 канала
Частота                                  : 48,0 КГц
Метод сжатия                             : С потерями
Размер потока                            : 42,9 Мбайт (5%)
Библиотека кодирования                   : libVorbis 1.0 (UTC 2002-07-17)
Язык                                     : Japanese
Default                                  : Да
Forced                                   : Нет
Отличия от раздачи Witcher`a
Дополнительная дорожка[Eladiel & Jam]
Жмякай




info [Профиль]  [ЛС] 
Показать сообщения:    
Ответить на тему

Текущее время: 09-Дек 23:27

Часовой пояс: GMT + 4



Вы не можете начинать темы
Вы не можете отвечать на сообщения
Вы не можете редактировать свои сообщения
Вы не можете удалять свои сообщения
Вы не можете голосовать в опросах
Вы не можете прикреплять файлы к сообщениям
Вы не можете скачивать файлы