Ошибка

(Symphonic metal, alternative metal) Matenrou Opera (摩天楼オペラ) - Дискография, 2008-2012, FLAC (tracks), lossless

Ответить на тему
 
Автор Сообщение

Phen1x

Пол: Пол:Муж

Стаж: 6 лет 2 месяца

Сообщений: 531

Украина
Рейтинг

post 01-Дек-2012 15:21 0[+]

[Цитировать] 

Matenrou Opera (摩天楼オペラ) - Дискография

pic="http://s002.youpic.su/pictures/1354309200/d014a898b16f2c2da70713f7a289d0a7.jpg"

Жанр: Symphonic metal, alternative metal, progressive metal || Страна: Япония || Год издания: 2008-2012
Тип релиза: tracks || Аудио кодек: FLAC || Битрейт аудио: lossless
Продолжительность: 4:09:03 || Полиграфия: отсутствует

Sono (苑) — Вокал
Anzi — Гитара
Ayame (彩雨) — клавишные, аранжировка
You (燿) — бас-гитара
Yuu (悠) — ударные
Группа сформирована Соно (вокалистом Jeniva) в октябре 2006. Их первый сингл, «alkaloid showcase», вышел в 2007 году 4 мая, одновременно с первым официальным концертом группы в Urawa Narciss, что и считается официальным началом группы.

В 2007 году клавишница Karen и гитарист Mika покинули группу, они были заменены Аями (ex-Ry:dia) и Андзи.

В 2008 году они перешли на лейбл Sherow Artist Society и выпустили на нём сингл «Ruri Iro de Egaku Niji», который попал на 11 место в чарте Oricon Indies Chart; EP Gilia получил 7 место и также был издан не только в Японии, но и в Европе. Продюсером группы является вокалист Versailles Камидзе, также группа регулярно участвует в его мероприятиях и турах.

2008 год для группы начался в новом составе, фотографии и профили новых музыкантов появились на сайте группы, этот год стал совершенно новым началом для группы. Они признали, что в 2007 году не выпустили многого то, чего хотели, пообещали в 2008 исправиться.

И группа сдержала обещание. Вскоре было объявлено, что новый сингл будет выпущен 5 марта, и дополнили эту новость тем, что в конце марта Matenrou Opera отправятся в турне по Европе вместе с группой Versailles. Тур состоял из шести выступлений в городах Швеции, Финляндии, Германии, Франции и Испании.

В альбом CROSS GATE 2008~chaotic sorrow~ попал трек группы «honey drop», а также alkaloid showcase в альбом Visualy{zm] The Cure Century.

В том же году группа выпустила ещё два макси-сингла: «Spectacular» в сентябре и «LAST SCENE» в декабре.

2009 для группы оказался весьма успешным. В марте вышел макси-сингл «acedia», попавший на второе место в инди-чарте Oricon, и в июле — альбом ANOMIE, с которым начался тур DAWN OF ANOMIE. Завершением тура послужл грандиозный канцерт в Akasaka BLITZ, билеты на который были полностью распроданны в течение нескольких часов, позже вышедший на DVD. Также группа приняла участие в V-ROCK FESTIVAL09 и отыграла совместный тур с DELUHI.

В начале 2010 состоялся тур Emergence from COCOON с финальным концертом в Shibuya C.C. Lemon Hall — Emergence from COCOON~Tour Final Live Film~"Birth of GENESIS" 6 мая. На этом концерте можно было приобрести диски с макси-синглом GENESIS / R, посвященный трёхлетнему юбилею группы.

20 августа 2010 года группа выступила в Shibuya AX с последним концертом в статусе инди и начала подготовку к выпуску первого мейджер-альбома Abyss на новом лейбле King Records.

В начале 2011 группа участвовала в записи альбома Crush! −90’s V-Rock best hit cover songs- с ковером 紅(Kurenai) на X JAPAN. Летом вышел макси-сингл Helios, тема которого посвящена торжеству жизни и связана с землетрясением. Также вокалист Sono и гитарист Anzi приняли участие в записи благотворительного сингла Hitotsudake ~We Are The One~, вышедшего 14.09.2011. В октябре был выпущен сингл Otoshi Ana no Soko wa Konna Sekai.

Первый альбом в статусе мейджер вышел 7 марта 2012 и получил название「Justice」. Осенью 2012 года группа запустила проект, получивщий название 喝采と激情のグロリア(Kassai to gekijō no Guroria). Первые два его сингла это Gloria и 『Innovational Symphonia』. А так же на мар 2013 года назначен релиз второго полноценногой мейджер-альбома 喝采と激情のグロリア(Kassai to gekijou no GLORIA).


Треклист:
01. Ruriiro de Egaku Niji (4:28)
02. Twilight parade (4:46)
03. Plastic cell (4:31)
04. alkaloid showcase (4:10)
05. sara (6:46)
06. honey drop (3:50)
07. Bokyaku celluloid (5:41)
08. Koku Kara no Tegami (5:40)
  
Exact Audio Copy V0.99 prebeta 4 from 23. January 2008

EAC extraction logfile from 21. April 2009, 9:43

Matenrou Opera / Gilia Europe Edition

Used drive : TSSTcorpCDDVDW SH-S223F Adapter: 1 ID: 0

Read mode : Secure
Utilize accurate stream : Yes
Defeat audio cache : Yes
Make use of C2 pointers : No

Read offset correction : 6
Overread into Lead-In and Lead-Out : No
Fill up missing offset samples with silence : Yes
Delete leading and trailing silent blocks : No
Null samples used in CRC calculations : Yes
Used interface : Native Win32 interface for Win NT & 2000
Gap handling : Appended to previous track

Used output format : User Defined Encoder
Selected bitrate : 128 kBit/s
Quality : High
Add ID3 tag : No
Command line compressor : C:\Program Files\FLAC\flac.exe
Additional command line options : -V -8 -T "artist=%a" -T "title=%t" -T "album=%g" -T "date=%y" -T "tracknumber=%n" -T "genre=%m" %s

TOC of the extracted CD

Track | Start | Length | Start sector | End sector
---------------------------------------------------------
1 | 0:00.00 | 4:27.66 | 0 | 20090
2 | 4:27.66 | 4:45.54 | 20091 | 41519
3 | 9:13.45 | 4:31.35 | 41520 | 61879
4 | 13:45.05 | 4:10.09 | 61880 | 80638
5 | 17:55.14 | 6:46.19 | 80639 | 111107
6 | 24:41.33 | 3:49.70 | 111108 | 128352
7 | 28:31.28 | 5:41.14 | 128353 | 153941
8 | 34:12.42 | 5:40.22 | 153942 | 179463

Track 1

Filename C:\Musaripit\Matenrou Opera - 2008 - Gilia Europe Edition\01 - Ruriiro de Egaku Niji.wav

Pre-gap length 0:00:02.00

Peak level 98.8 %
Track quality 100.0 %
Test CRC 1BB1326D
Copy CRC 1BB1326D
Track not present in AccurateRip database
Copy OK

Track 2

Filename C:\Musaripit\Matenrou Opera - 2008 - Gilia Europe Edition\02 - Twilight parade.wav

Peak level 98.8 %
Track quality 100.0 %
Test CRC 9C4D1C24
Copy CRC 9C4D1C24
Track not present in AccurateRip database
Copy OK

Track 3

Filename C:\Musaripit\Matenrou Opera - 2008 - Gilia Europe Edition\03 - Plastic cell.wav

Peak level 98.8 %
Track quality 100.0 %
Test CRC EBA805E8
Copy CRC EBA805E8
Track not present in AccurateRip database
Copy OK

Track 4

Filename C:\Musaripit\Matenrou Opera - 2008 - Gilia Europe Edition\04 - alkaloid showcase.wav

Peak level 98.8 %
Track quality 100.0 %
Test CRC B4329593
Copy CRC B4329593
Track not present in AccurateRip database
Copy OK

Track 5

Filename C:\Musaripit\Matenrou Opera - 2008 - Gilia Europe Edition\05 - sara.wav

Peak level 90.1 %
Track quality 100.0 %
Test CRC C8E98D6D
Copy CRC C8E98D6D
Track not present in AccurateRip database
Copy OK

Track 6

Filename C:\Musaripit\Matenrou Opera - 2008 - Gilia Europe Edition\06 - honey drop.wav

Peak level 98.8 %
Track quality 100.0 %
Test CRC 9737E740
Copy CRC 9737E740
Track not present in AccurateRip database
Copy OK

Track 7

Filename C:\Musaripit\Matenrou Opera - 2008 - Gilia Europe Edition\07 - Bokyaku celluloid.wav

Peak level 98.8 %
Track quality 100.0 %
Test CRC 65B280E8
Copy CRC 65B280E8
Track not present in AccurateRip database
Copy OK

Track 8

Filename C:\Musaripit\Matenrou Opera - 2008 - Gilia Europe Edition\08 - Koku Kara no Tegami.wav

Peak level 98.8 %
Track quality 100.0 %
Test CRC 5A3782D4
Copy CRC 5A3782D4
Track not present in AccurateRip database
Copy OK

None of the tracks are present in the AccurateRip database

No errors occurred

End of status report

  
-----------------------

DON'T MODIFY THIS FILE

-----------------------

PERFORMER: auCDtect Task Manager, ver. 1.5.1RC4 build 1.5.1.5
Copyright (c) 2008-2010 y-soft. All rights reserved
http://y-soft.org

ANALYZER: auCDtect: CD records authenticity detector, version 0.8.2
Copyright (c) 2004 Oleg Berngardt. All rights reserved.
Copyright (c) 2004 Alexander Djourik. All rights reserved.

FILE: 08 - Koku Kara no Tegami.flac
Size: 45623118 Hash: 3741E61328FBBE0E19FA641CABB16CC1 Accuracy: -m0
Conclusion: CDDA 100%
Signature: 838CFCF5DA38BD548C7AC912326901BFA21A2D26
FILE: 07 - Bokyaku celluloid.flac
Size: 45147701 Hash: 752B98CC43F891725631BBAB1BF5B10D Accuracy: -m0
Conclusion: CDDA 100%
Signature: 554F4336AB487D156D46B4077990F31DB70BFBE9
FILE: 06 - honey drop.flac
Size: 30070765 Hash: 96A0D66162ED8805C82B0DB47849560C Accuracy: -m0
Conclusion: CDDA 100%
Signature: BD3650527A0153FE399C6E6F894868E721421988
FILE: 05 - sara.flac
Size: 47030550 Hash: E2B862599DEE37E43DD5135EA31DDDB6 Accuracy: -m0
Conclusion: CDDA 100%
Signature: A688D18D8F7C0ADD214A0DC742036B7AC935F622
FILE: 04 - alkaloid showcase.flac
Size: 33211623 Hash: 72D3ECD4770504F58040E0340287BA62 Accuracy: -m0
Conclusion: CDDA 100%
Signature: C50BBB8AC4E627EDFDD32FC8F0A49679CCF8B96E
FILE: 03 - Plastic cell.flac
Size: 34904518 Hash: B27AEFA513E4F66D97A94665976C4790 Accuracy: -m0
Conclusion: CDDA 100%
Signature: 0D7523CBF731C474A111002CA91D3AE551E4204A
FILE: 02 - Twilight parade.flac
Size: 36514559 Hash: 3D65C97468C67293C6E029EA1907C14C Accuracy: -m0
Conclusion: CDDA 100%
Signature: F8E7A1D1F2AE47352C543427F26FBAB9DAE7F023
FILE: 01 - Ruriiro de Egaku Niji.flac
Size: 33347827 Hash: 7A56AD236ED11913CC32EE2005551A47 Accuracy: -m0
Conclusion: CDDA 100%
Signature: CF6EC0C84CE597358EE622D8BF9D573432844D35

  
AUDIOCHECKER v2.0 beta (build 457) - by Dester - opdester@freemail.hu
~~~~~~~~~~~~~~~~~~~~~~~~~~~~~~~~~~
-=== DO NOT EDIT THIS FILE! ===-

Путь: ...\Matenrou Opera - 2008 - Gilia Europe Edition

01 -=- 01 - Ruriiro de Egaku Niji.flac -=- CDDA (100%)
02 -=- 02 - Twilight parade.flac -=- CDDA (100%)
03 -=- 03 - Plastic cell.flac -=- CDDA (100%)
04 -=- 04 - alkaloid showcase.flac -=- CDDA (100%)
05 -=- 05 - sara.flac -=- CDDA (100%)
06 -=- 06 - honey drop.flac -=- CDDA (100%)
07 -=- 07 - Bokyaku celluloid.flac -=- CDDA (100%)
08 -=- 08 - Koku Kara no Tegami.flac -=- CDDA (100%)

Сводка 100,00% CDDA

231926628

Треклист:
01. SEED OF ANOMIE (1:04)
02. Dolce (2:29)
03. ANOMIE (4:27)
04. 悲哀とメランコリー (4:26)
05. 月の砂 (4:48)
06. 電脳パラノイア (3:46)
07. EVE (3:51)
08. 眠れる夜 (3:53)
09. Last game -ANOMIE EDITION- (3:38)
10. Sexual entrapment (3:53)
11. Utopia (3:56)
12. 瑠璃色で描く虹 -ANOMIE EDITION- (4:01)
13. 本質へと辿る愛 (3:37)
14. Eternal Symphony (4:58)
  
-----------------------

DON'T MODIFY THIS FILE

-----------------------

PERFORMER: auCDtect Task Manager, ver. 1.5.1RC4 build 1.5.1.5
Copyright (c) 2008-2010 y-soft. All rights reserved
http://y-soft.org

ANALYZER: auCDtect: CD records authenticity detector, version 0.8.2
Copyright (c) 2004 Oleg Berngardt. All rights reserved.
Copyright (c) 2004 Alexander Djourik. All rights reserved.

FILE: 14 Eternal Symphony.flac
Size: 41007696 Hash: 027F587DDDACC2A7E5C62263B5039CDA Accuracy: -m0
Conclusion: CDDA 100%
Signature: B010568958E7993ADD0AE93DBD3D516A0566BED5
FILE: 13 本質へと辿る愛.flac
Size: 22338052 Hash: 5B698405631C11BBF7FA28E471CFD97D Accuracy: -m0
Conclusion: CDDA 100%
Signature: C249ED21A1204BB46B183852BBCE9BD25B6A20F9
FILE: 12 瑠璃色で描く虹 -ANOMIE EDITION-.flac
Size: 31047528 Hash: 67B9102777FF0DF132D922BFF4B41B24 Accuracy: -m0
Conclusion: CDDA 100%
Signature: 4AA7CF0F9D530AAC5CBF32E7E0CC1BED32BACA5E
FILE: 11 Utopia.flac
Size: 27668826 Hash: 2FABDA87A1B78B4AA1620BB01B086729 Accuracy: -m0
Conclusion: CDDA 100%
Signature: 0F05BB26FCBF94262C4443D5056482E61F0F75D5
FILE: 10 Sexual entrapment.flac
Size: 31447291 Hash: D6FE43715702593BB726F6A0ABAE5478 Accuracy: -m0
Conclusion: CDDA 100%
Signature: 23F5E5A8582134668ED0E6ADD8AA94B239B10F64
FILE: 09 Last game -ANOMIE EDITION-.flac
Size: 29612596 Hash: 8977078C40E39E57BCBB785427AAB33B Accuracy: -m0
Conclusion: CDDA 100%
Signature: 1041755885E21E2F0C72689BBEA0043141DE26FF
FILE: 08 眠れる夜.flac
Size: 27428931 Hash: F1EF0F8644DE17FDCEAF5B3AD4EC1C7E Accuracy: -m0
Conclusion: CDDA 100%
Signature: B7ADBA6A80D977C0629FFAD90D097DD91AC411F3
FILE: 07 EVE.flac
Size: 31787130 Hash: 43E6AD27A45A54DB2401F858648A2FD1 Accuracy: -m0
Conclusion: CDDA 100%
Signature: B88F547338EADE6C3E9BCDC17D0ABFA2AB59E47C
FILE: 06 電脳パラノイア.flac
Size: 28746281 Hash: E9F20475D2E7D14A3D0008C95E2FC946 Accuracy: -m0
Conclusion: CDDA 99%
Signature: C2AEBDA4CA78DCCB99E41153517ABCB1AF3CCF66
FILE: 05 月の砂.flac
Size: 32663564 Hash: AEFB6D70550EC5F1888EEEF11B019D7C Accuracy: -m0
Conclusion: CDDA 100%
Signature: 364D495A66FBBCA56E56A83C94B29AE16BF8F8D4
FILE: 04 悲哀とメランコリー.flac
Size: 35880063 Hash: 19F024CD954279E72BEFDD0663BB66BD Accuracy: -m0
Conclusion: CDDA 100%
Signature: E1CB1D7F222338C5A561470DC82CA1B203E88E56
FILE: 03 ANOMIE.flac
Size: 35307782 Hash: 9DEE2213F144E54F3C87C956A23ACE53 Accuracy: -m0
Conclusion: CDDA 100%
Signature: 92A1CC422C011061B985C08C9184719E0F0D7D87
FILE: 02 Dolce.flac
Size: 19558031 Hash: 36FE77732CBE377CE7644FF97D6BBEAE Accuracy: -m0
Conclusion: CDDA 100%
Signature: A32D21CEB147C2C7DB796E56FF4644D6E8CCCFA7
FILE: 01 SEED OF ANOMIE.flac
Size: 5125800 Hash: C8BF1A5B871DD7B2AB3813316AA5347E Accuracy: -m0
Conclusion: CDDA 100%
Signature: 442D8ADD1E3E3A6A166DA31A3ADBBB3F3E7DC008

  
AUDIOCHECKER v2.0 beta (build 457) - by Dester - opdester@freemail.hu
~~~~~~~~~~~~~~~~~~~~~~~~~~~~~~~~~~
-=== DO NOT EDIT THIS FILE! ===-

Путь: ...\[2009.06.24] ANOMIE [FLAC]+scans (c)sirin

01 -=- 01 SEED OF ANOMIE.flac -=- CDDA (100%)
02 -=- 02 Dolce.flac -=- CDDA (100%)
03 -=- 03 ANOMIE.flac -=- CDDA (100%)
04 -=- 04 ?????????.flac -=- ERROR
04 -=- 05 ???.flac -=- ERROR
04 -=- 06 ???????.flac -=- ERROR
04 -=- 07 EVE.flac -=- CDDA (100%)
05 -=- 08 ????.flac -=- ERROR
05 -=- 09 Last game -ANOMIE EDITION-.flac -=- CDDA (100%)
06 -=- 10 Sexual entrapment.flac -=- CDDA (100%)
07 -=- 11 Utopia.flac -=- CDDA (100%)
08 -=- 12 ??????? -ANOMIE EDITION-.flac -=- ERROR
08 -=- 13 ???????.flac -=- ERROR
08 -=- 14 Eternal Symphony.flac -=- CDDA (100%)

Сводка 100,00% CDDA

29088212

Треклист:
01. INDEPENDENT (3:32)
02. もう一人の花嫁 (4:31)
03. frill (4:22)
04. coal tar (6:06)
05. Double Clutch (4:05)
06. フタリ (4:36)
07. Finale... (4:26)
  
Exact Audio Copy V0.99 prebeta 5 from 4. May 2009

EAC extraction logfile from 20. April 2011, 19:47

Matenrou Opera / Abyss

Used drive : HL-DT-STDVD-ROM GDR8082N Adapter: 0 ID: 1

Read mode : Secure
Utilize accurate stream : Yes
Defeat audio cache : Yes
Make use of C2 pointers : Yes

Read offset correction : 0
Overread into Lead-In and Lead-Out : No
Fill up missing offset samples with silence : Yes
Delete leading and trailing silent blocks : No
Null samples used in CRC calculations : Yes
Used interface : Native Win32 interface for Win NT & 2000
Gap handling : Appended to previous track

Used output format : User Defined Encoder
Selected bitrate : 768 kBit/s
Quality : High
Add ID3 tag : No
Command line compressor : C:\Program Files\Exact Audio Copy\FLAC\FLAC.EXE
Additional command line options : -6 -V -T "ARTIST=%a" -T "TITLE=%t" -T "ALBUM=%g" -T "DATE=%y" -T "TRACKNUMBER=%n" -T "GENRE=%m" -T "COMMENT=%e" %s -o %d

TOC of the extracted CD

Track | Start | Length | Start sector | End sector
---------------------------------------------------------
1 | 0:00.00 | 3:32.24 | 0 | 15923
2 | 3:32.24 | 4:31.01 | 15924 | 36249
3 | 8:03.25 | 4:22.15 | 36250 | 55914
4 | 12:25.40 | 6:05.64 | 55915 | 83353
5 | 18:31.29 | 4:04.64 | 83354 | 101717
6 | 22:36.18 | 4:36.07 | 101718 | 122424
7 | 27:12.25 | 4:25.67 | 122425 | 142366

Track 1

Filename F:\Audio\01. Matenrou Opera - INDEPENDENT.wav

Pre-gap length 0:00:02.00

Peak level 99.9 %
Track quality 100.0 %
Test CRC A2CCD0AA
Copy CRC A2CCD0AA
Copy OK

Track 2

Filename F:\Audio\02. Matenrou Opera - ЄвЄ¦мймСЄОьЈКЄ.wav

Peak level 99.9 %
Track quality 100.0 %
Test CRC 675D0480
Copy CRC 675D0480
Copy OK

Track 3

Filename F:\Audio\03. Matenrou Opera - frill.wav

Pre-gap length 0:00:02.02

Peak level 99.9 %
Track quality 100.0 %
Test CRC 1D760A36
Copy CRC 1D760A36
Copy OK

Track 4

Filename F:\Audio\04. Matenrou Opera - coal tar.wav

Pre-gap length 0:00:02.66

Peak level 99.9 %
Track quality 100.0 %
Test CRC 54BEF73C
Copy CRC 54BEF73C
Copy OK

Track 5

Filename F:\Audio\05. Matenrou Opera - Double Clutch.wav

Pre-gap length 0:00:00.02

Peak level 99.9 %
Track quality 100.0 %
Test CRC E0B718E4
Copy CRC E0B718E4
Copy OK

Track 6

Filename F:\Audio\06. Matenrou Opera - «Х«ї«к.wav

Pre-gap length 0:00:03.63

Peak level 99.9 %
Track quality 100.0 %
Test CRC 4C13AD03
Copy CRC 4C13AD03
Copy OK

Track 7

Filename F:\Audio\07. Matenrou Opera - Finale....wav

Peak level 99.6 %
Track quality 100.0 %
Test CRC 0C5369DF
Copy CRC 0C5369DF
Copy OK

No errors occurred

End of status report

  
REM GENRE Visual-Kei
REM DATE 2010
REM DISCID 51076A07
REM COMMENT "ExactAudioCopy v0.99pb5"
PERFORMER "Matenrou Opera"
TITLE "Abyss"
FILE "01. Matenrou Opera - INDEPENDENT.wav" WAVE
TRACK 01 AUDIO
TITLE "INDEPENDENT"
PERFORMER "Matenrou Opera"
INDEX 01 00:00:00
FILE "02. Matenrou Opera - ЄвЄ¦мймСЄОьЈКЄ.wav" WAVE
TRACK 02 AUDIO
TITLE "ЄвЄ¦мймСЄОьЈКЄ"
PERFORMER "Matenrou Opera"
INDEX 01 00:00:00
TRACK 03 AUDIO
TITLE "frill"
PERFORMER "Matenrou Opera"
INDEX 00 04:28:74
FILE "03. Matenrou Opera - frill.wav" WAVE
INDEX 01 00:00:00
TRACK 04 AUDIO
TITLE "coal tar"
PERFORMER "Matenrou Opera"
INDEX 00 04:19:24
FILE "04. Matenrou Opera - coal tar.wav" WAVE
INDEX 01 00:00:00
TRACK 05 AUDIO
TITLE "Double Clutch"
PERFORMER "Matenrou Opera"
INDEX 00 06:05:62
FILE "05. Matenrou Opera - Double Clutch.wav" WAVE
INDEX 01 00:00:00
TRACK 06 AUDIO
TITLE "«Х«ї«к"
PERFORMER "Matenrou Opera"
INDEX 00 04:01:01
FILE "06. Matenrou Opera - «Х«ї«к.wav" WAVE
INDEX 01 00:00:00
FILE "07. Matenrou Opera - Finale....wav" WAVE
TRACK 07 AUDIO
TITLE "Finale..."
PERFORMER "Matenrou Opera"
INDEX 01 00:00:00

  
-----------------------

DON'T MODIFY THIS FILE

-----------------------

PERFORMER: auCDtect Task Manager, ver. 1.5.1RC4 build 1.5.1.5
Copyright (c) 2008-2010 y-soft. All rights reserved
http://y-soft.org

ANALYZER: auCDtect: CD records authenticity detector, version 0.8.2
Copyright (c) 2004 Oleg Berngardt. All rights reserved.
Copyright (c) 2004 Alexander Djourik. All rights reserved.

FILE: 07. Matenrou Opera - Finale....flac
Size: 32756916 Hash: D7BBD1FA20EED25ACE543A22B22B69CF Accuracy: -m0
Conclusion: CDDA 100%
Signature: 572A7BB710ECBF6540C8FEBE26DC5FBB4B1B1B86
FILE: 06. Matenrou Opera - フタリ.flac
Size: 33964582 Hash: 53CC58D975A00E9940C1CDEE35EF7E06 Accuracy: -m0
Conclusion: CDDA 100%
Signature: 370F1B48C9852767F800281E53124C338C171F08
FILE: 05. Matenrou Opera - Double Clutch.flac
Size: 31822586 Hash: CCA43F6F78D36E58F8D3040BDE7E018A Accuracy: -m0
Conclusion: CDDA 99%
Signature: 627294FAA274D1AF984AD583CE16D0D6304CA2F6
FILE: 04. Matenrou Opera - coal tar.flac
Size: 44618325 Hash: FD24D4C069378CE14263F5393B83DDC9 Accuracy: -m0
Conclusion: CDDA 100%
Signature: 4E16FCA1D1B68B9C7CBA073644B819C1544D4D35
FILE: 03. Matenrou Opera - frill.flac
Size: 34682642 Hash: EA863C599467EBBF6EB020B1326D45C6 Accuracy: -m0
Conclusion: CDDA 99%
Signature: 8B9BDACC7B240B6E4397982E0A9465E6ED74871F
FILE: 02. Matenrou Opera - もう一人の花嫁.flac
Size: 35281533 Hash: 627D401F343B2DBD0BD095FD0795B4C6 Accuracy: -m0
Conclusion: CDDA 100%
Signature: DD69D513104C23E4E3D1ACFA535DEAADF2277522
FILE: 01. Matenrou Opera - INDEPENDENT.flac
Size: 28897219 Hash: EACBD5C6088F38FE6C70223175BFC163 Accuracy: -m0
Conclusion: CDDA 99%
Signature: 1B8F120218DB04FA216EFF94D0FF99316FFD22F7

  
AUDIOCHECKER v2.0 beta (build 457) - by Dester - opdester@freemail.hu
~~~~~~~~~~~~~~~~~~~~~~~~~~~~~~~~~~
-=== DO NOT EDIT THIS FILE! ===-

Путь: ...\Matenrou Opera - Abyss [2010][FLAC]

01 -=- 01. Matenrou Opera - INDEPENDENT.flac -=- CDDA (99%)
02 -=- 02. Matenrou Opera - ???????.flac -=- ERROR
02 -=- 03. Matenrou Opera - frill.flac -=- CDDA (99%)
03 -=- 04. Matenrou Opera - coal tar.flac -=- CDDA (100%)
04 -=- 05. Matenrou Opera - Double Clutch.flac -=- CDDA (99%)
05 -=- 06. Matenrou Opera - ???.flac -=- ERROR
05 -=- 07. Matenrou Opera - Finale....flac -=- CDDA (100%)

Сводка 99,40% CDDA

167958292

Треклист:
01. GENESIS (4:37)
02. alkaloid showcase (4:12)
03. Murder Scope (3:30)
04. ANOMIE (4:30)
05. R (3:40)
06. Faust (4:36)
07. Last Game (3:33)
08. EVE (3:53)
09. 天上への架け橋を (6:21)
10. 瑠璃色で描く虹 (4:30)
11. 悲哀とメランコリー (4:29)
12. 虚空からの手紙 (5:44)
13. Eternal Symphony (5:00)
14. honey drop (4:01)
  
-----------------------

DON'T MODIFY THIS FILE

-----------------------

PERFORMER: auCDtect Task Manager, ver. 1.5.1RC4 build 1.5.1.5
Copyright (c) 2008-2010 y-soft. All rights reserved
http://y-soft.org

ANALYZER: auCDtect: CD records authenticity detector, version 0.8.2
Copyright (c) 2004 Oleg Berngardt. All rights reserved.
Copyright (c) 2004 Alexander Djourik. All rights reserved.

FILE: 14 honey drop.flac
Size: 30722236 Hash: 8906DC0C7D8407EAB2E514972F8FD3C3 Accuracy: -m0
Conclusion: CDDA 99%
Signature: E2BDAD35F1C77788E597044B6201C2DBC54D386C
FILE: 13 Eternal Symphony.flac
Size: 41008474 Hash: D52A5F0DF2415AEB20AF24FB5DFC7F76 Accuracy: -m0
Conclusion: CDDA 100%
Signature: 7AFAB3FCD594BFBC1C2223D628A41716CA51FD5B
FILE: 12 虚空からの手紙.flac
Size: 45078873 Hash: 6FBAC5CF1F2A6B7355D632894D9EB492 Accuracy: -m0
Conclusion: CDDA 100%
Signature: 81530C0CD801751D95254C0B0FA3415A9E119757
FILE: 11 悲哀とメランコリー.flac
Size: 35891096 Hash: 1A5EE18CF8ACAB31448C070840357F11 Accuracy: -m0
Conclusion: CDDA 99%
Signature: 5B29A83B04C5F5CB93F9B1D146E9F43069FFBC54
FILE: 10 瑠璃色で描く虹.flac
Size: 32728414 Hash: 8CFF10248AC92BF3D1188A4C5F0B5693 Accuracy: -m0
Conclusion: CDDA 100%
Signature: C35D32A8E763C4A570F89362D11F432C11958C85
FILE: 09 天上への架け橋を.flac
Size: 38811216 Hash: E9F28DA2A7E9B4B520440A2C034FE6A5 Accuracy: -m0
Conclusion: CDDA 100%
Signature: 53C6BD3557FB67B8B914AB881C45C5A6CDFDD390
FILE: 08 EVE.flac
Size: 31395943 Hash: D7F90E74792FB550786F723E4424D6F2 Accuracy: -m0
Conclusion: CDDA 100%
Signature: 53849A1CE9438EEFF63A2766C5176365D2606786
FILE: 07 Last Game.flac
Size: 28693898 Hash: 6798A39095C596C64452FCA55B27011C Accuracy: -m0
Conclusion: CDDA 100%
Signature: 3389B7C1ABAD56C91E32E544E846732060DCE49F
FILE: 06 Faust.flac
Size: 36008881 Hash: 3062E93188A6ED0FD8D886DA5EA8E666 Accuracy: -m0
Conclusion: CDDA 100%
Signature: 802ACC56A1CFB9FBE021523C6785F2F85841D52B
FILE: 05 R.flac
Size: 29262529 Hash: 94C14EA17B1E3D0051B3119631A5B36A Accuracy: -m0
Conclusion: CDDA 100%
Signature: 116C7CE5814EA1C34388467B9AAE445E4608BAC2
FILE: 04 ANOMIE.flac
Size: 35311846 Hash: 65C3BAC4DAD93D5F5A09EDA6AA348B42 Accuracy: -m0
Conclusion: CDDA 100%
Signature: 73C72616F96611A2BB906F25FEBD453520D93D25
FILE: 03 Murder Scope.flac
Size: 28163253 Hash: BF7E88A16084AFA57DE4ADE6BBDF5101 Accuracy: -m0
Conclusion: CDDA 100%
Signature: F03B6F914FC16F877016863C5F1E2FB25114720D
FILE: 02 alkaloid showcase.flac
Size: 33532506 Hash: FA43CD9CC44354AC1C7BDC4FD8CC09FC Accuracy: -m0
Conclusion: CDDA 99%
Signature: 9C033C634EFBEB0D053716AD5F374782F039F0BA
FILE: 01 GENESIS.flac
Size: 30670388 Hash: 8B64654749C67B6173E0F565DB467E19 Accuracy: -m0
Conclusion: CDDA 100%
Signature: 6D39C65935FE9A297AF58B9A19A5F550C076CB14

  
AUDIOCHECKER v2.0 beta (build 457) - by Dester - opdester@freemail.hu
~~~~~~~~~~~~~~~~~~~~~~~~~~~~~~~~~~
-=== DO NOT EDIT THIS FILE! ===-

Путь: ...\[2010.11.24] INDIES BEST COLLECTION [FLAC] (c)sirin

01 -=- 01 GENESIS.flac -=- CDDA (100%)
02 -=- 02 alkaloid showcase.flac -=- CDDA (99%)
03 -=- 03 Murder Scope.flac -=- CDDA (100%)
04 -=- 04 ANOMIE.flac -=- CDDA (100%)
05 -=- 05 R.flac -=- CDDA (100%)
06 -=- 06 Faust.flac -=- CDDA (100%)
07 -=- 07 Last Game.flac -=- CDDA (100%)
08 -=- 08 EVE.flac -=- CDDA (100%)
09 -=- 09 ????????.flac -=- ERROR
09 -=- 10 ???????.flac -=- ERROR
09 -=- 11 ?????????.flac -=- ERROR
09 -=- 12 ???????.flac -=- ERROR
09 -=- 13 Eternal Symphony.flac -=- CDDA (100%)
10 -=- 14 honey drop.flac -=- CDDA (99%)

Сводка 99,80% CDDA

116550260

Треклист:
01. Justice (4:57)
02. 濡らした唇でキスをして (3:59)
03. 落とし穴の底はこんな世界 (4:10)
04. Helios (5:02)
05. IMPERIAL RIOT (3:32)
06. Mermaid (4:08)
07. 21mg (6:23)
08. AGE (4:04)
09. Just Be Myself (4:32)
10. アポトーシス (4:42)
11. ニューシネマパラダイス (6:05)
12. 絆 -full chorus- (6:04)
13. Designer Baby (4:32)
  
-----------------------

DON'T MODIFY THIS FILE

-----------------------

PERFORMER: auCDtect Task Manager, ver. 1.5.1RC4 build 1.5.1.5
Copyright (c) 2008-2010 y-soft. All rights reserved
http://y-soft.org

ANALYZER: auCDtect: CD records authenticity detector, version 0.8.2
Copyright (c) 2004 Oleg Berngardt. All rights reserved.
Copyright (c) 2004 Alexander Djourik. All rights reserved.

FILE: 13 Designer Baby.flac
Size: 33463184 Hash: D8F2FBA16C4BB885A60B355CB98838AB Accuracy: -m0
Conclusion: CDDA 100%
Signature: F05415EC21BE8E60AE5D7409F7AE905805090662
FILE: 12 絆 -full chorus-.flac
Size: 40557443 Hash: 3E09859E6A2D1223AAFA149DD2C25BA1 Accuracy: -m0
Conclusion: CDDA 100%
Signature: 908E82EFDB3D8187B88807D2BD2A539A12049DD4
FILE: 11 ニューシネマパラダイス.flac
Size: 45426837 Hash: E94231F6896666C68420B98D35F86FD2 Accuracy: -m0
Conclusion: CDDA 100%
Signature: C577F4329713505882D7674C7FEB26BF0072BD03
FILE: 10 アポトーシス.flac
Size: 38809339 Hash: 368D334EB681A9576DC57272C96E33E1 Accuracy: -m0
Conclusion: CDDA 100%
Signature: E188767379800A7F05DEAF123CED9F77509DD33B
FILE: 09 Just Be Myself.flac
Size: 35581960 Hash: F6D6C2F4583682C7EA83F6D99F6352AF Accuracy: -m0
Conclusion: CDDA 100%
Signature: 1771F26F69F8ABD39CDEC99386835914A5F0A470
FILE: 08 AGE.flac
Size: 31272556 Hash: 21EB047216E1A3A55F549FD9B5FD3DBA Accuracy: -m0
Conclusion: CDDA 100%
Signature: 277811EF212E8036E8AF47A162DEF29EEBA245B1
FILE: 07 21mg.flac
Size: 49715611 Hash: D444954177BF6BC8C1853344C406EF13 Accuracy: -m0
Conclusion: CDDA 100%
Signature: 7CCA9A5437393592678DD8D43B5C8D2CBD874F2D
FILE: 06 Mermaid.flac
Size: 33638157 Hash: 1A7C9C3B3C3F22BA6E8E3A6138ACADC1 Accuracy: -m0
Conclusion: CDDA 100%
Signature: 672A16465CD6D7A0CEEC534A65D7B48F1F7A21FD
FILE: 05 IMPERIAL RIOT.flac
Size: 28317211 Hash: 82C8DDC05FBB1D148D30776F968F0E72 Accuracy: -m0
Conclusion: CDDA 100%
Signature: D9C4452A5E3B4683A59727F2E960C64EE376DB0A
FILE: 04 Helios.flac
Size: 38544348 Hash: 40BE0954E08374A1E093BBBBAC21AE5C Accuracy: -m0
Conclusion: CDDA 100%
Signature: BE676B10F7CC61188A49CE6BDBE884F47491E827
FILE: 03 落とし穴の底はこんな世界.flac
Size: 33203470 Hash: 507C24D024AA2FAEAF68D163B1684CA7 Accuracy: -m0
Conclusion: CDDA 100%
Signature: BCC995C67F550315717311EA21CD403BAA6CD079
FILE: 02 濡らした唇でキスをして.flac
Size: 31641601 Hash: 227C5176D237DE8D145C456CDF3A35B4 Accuracy: -m0
Conclusion: CDDA 100%
Signature: 4BA538E358509F853FB60AEDC69A2D8222F14B1F
FILE: 01 Justice.flac
Size: 40043531 Hash: 385017ABFFB6F5D5A653F255E140B16A Accuracy: -m0
Conclusion: CDDA 100%
Signature: 65099CBA95FC5FC2508787799710BF270FEDF738

  
AUDIOCHECKER v2.0 beta (build 457) - by Dester - opdester@freemail.hu
~~~~~~~~~~~~~~~~~~~~~~~~~~~~~~~~~~
-=== DO NOT EDIT THIS FILE! ===-

Путь: ...\[2012.03.07] Justice [FLAC] (c)sirin

01 -=- 01 Justice.flac -=- CDDA (100%)
02 -=- 02 ???????????.flac -=- ERROR
02 -=- 03 ????????????.flac -=- ERROR
02 -=- 04 Helios.flac -=- CDDA (100%)
03 -=- 05 IMPERIAL RIOT.flac -=- CDDA (100%)
04 -=- 06 Mermaid.flac -=- CDDA (100%)
05 -=- 07 21mg.flac -=- CDDA (100%)
06 -=- 08 AGE.flac -=- CDDA (100%)
07 -=- 09 Just Be Myself.flac -=- CDDA (100%)
08 -=- 10 ??????.flac -=- ERROR
08 -=- 11 ???????????.flac -=- ERROR
08 -=- 12 ? -full chorus-.flac -=- ERROR
08 -=- 13 Designer Baby.flac -=- CDDA (100%)

Сводка 100,00% CDDA

204068900

Цитата:

Внимание! Так как AUDIOCHECKER не дружит с UTF-8, а следовательно названия с иероглифами прочитать не может, в раздачу добавленны логи auCDtect.
http://s002.youpic.su/pictures/1354309200/ea8c341a22720051896d00109543bac3.png 
info [Профиль]  [ЛС] 

post 01-Дек-2012 15:31 (спустя 9 минут) [-]0[+]

Топик был перенесен из форума Оформление раздач (Музыка и Музыкальное видео) в форум Аltеrnаtivе, Рunk, Indереndеnt (lоsslеss)

Phen1x
 
Показать сообщения:    
Ответить на тему

Текущее время: 06-Дек 00:47

Часовой пояс: GMT + 4



Вы не можете начинать темы
Вы не можете отвечать на сообщения
Вы не можете редактировать свои сообщения
Вы не можете удалять свои сообщения
Вы не можете голосовать в опросах
Вы не можете прикреплять файлы к сообщениям
Вы не можете скачивать файлы