Ошибка

(Hard Rock) Guns N' Roses - Discography (Japanese SHM-CDs) - (1987-2008), APE (image+.cue)+cover, lossless

Ответить на тему
 
Автор Сообщение

bi0skin

Пол: Пол:Муж

Стаж: 4 года 1 месяц

Сообщений: 37

Рейтинг

post 23-Ноя-2012 01:26 0[+]

[Цитировать] 

Guns N' Roses - Discography (Japanese SHM-CDs)


pic="http://s002.youpic.su/pictures/1353618000/443ca01d27b43fdc253e429f12672264.jpg"


Жанр: Hard Rock
Год издания: 1987 - 2008
Страна-производитель носителя: Japan
Лейбл: Universal International
Аудио кодек: APE
Тип рипа: image+.cue
Битрейт аудио: lossless
Полиграфия: Присутствует
Label: Universal International
Catalog#: UICY-91203
Country: Japan
Released: 1987
Duration: 00:53:51
Tracklist:
01. Welcome To The Jungle 04:34
02. It's So Easy 03:22
03. Nightrain 04:28
04. Out Ta Get Me 04:23
05. Mr. Brownstone 03:48
06. Paradise City 06:46
07. My Michelle 03:39
08. Think About You 03:51
09. Sweet Child O' Mine 05:56
10. You're Crazy 03:17
11. Anything Goes 03:26
12. Rocket Queen 06:15

Код:

Exact Audio Copy V0.99 prebeta 5 from 4. May 2009

EAC extraction logfile from 7. September 2009, 18:04

Guns N' Roses / Appetite For Destruction

Used drive  : SAMSUNG CD-ROM SC-148A   Adapter: 1  ID: 1

Read mode               : Secure
Utilize accurate stream : Yes
Defeat audio cache      : Yes
Make use of C2 pointers : No

Read offset correction                      : 12
Overread into Lead-In and Lead-Out          : Yes
Fill up missing offset samples with silence : Yes
Delete leading and trailing silent blocks   : No
Null samples used in CRC calculations       : Yes
Used interface                              : Native Win32 interface for Win NT & 2000

Used output format : Internal WAV Routines
Sample format      : 44.100 Hz; 16 Bit; Stereo

TOC of the extracted CD

     Track |   Start  |  Length  | Start sector | End sector
    ---------------------------------------------------------
        1  |  0:00.00 |  4:34.07 |         0    |    20556   
        2  |  4:34.07 |  3:22.70 |     20557    |    35776   
        3  |  7:57.02 |  4:28.35 |     35777    |    55911   
        4  | 12:25.37 |  4:23.65 |     55912    |    75701   
        5  | 16:49.27 |  3:48.70 |     75702    |    92871   
        6  | 20:38.22 |  6:46.23 |     92872    |   123344   
        7  | 27:24.45 |  3:39.70 |    123345    |   139839   
        8  | 31:04.40 |  3:51.45 |    139840    |   157209   
        9  | 34:56.10 |  5:56.32 |    157210    |   183941   
       10  | 40:52.42 |  3:17.15 |    183942    |   198731   
       11  | 44:09.57 |  3:26.28 |    198732    |   214209   
       12  | 47:36.10 |  6:15.25 |    214210    |   242359   

Range status and errors

Selected range

     Filename C:\Guns N' Roses - 1987 - Appetite For Destruction\Guns N' Roses - 1987 - Appetite For Destruction.wav

     Peak level 100.0 %
     Range quality 99.9 %
     Test CRC 44DAC33D
     Copy CRC 44DAC33D
     Copy OK

No errors occurred

 
AccurateRip summary
 
Track  1  not present in database
Track  2  not present in database
Track  3  not present in database
Track  4  not present in database
Track  5  not present in database
Track  6  not present in database
Track  7  not present in database
Track  8  not present in database
Track  9  not present in database
Track 10  not present in database
Track 11  not present in database
Track 12  not present in database
 
None of the tracks are present in the AccurateRip database

End of status report

Код:

REM GENRE "Hard Rock"
REM DATE 1987
REM DISCID AE0C9F0C
REM COMMENT 2008 JP CD / Universal [UICY-91203] / UPC 4988005537430
CATALOG 4988067000125
PERFORMER "Guns N' Roses"
TITLE "Appetite For Destruction"
FILE "Guns N' Roses - 1987 - Appetite For Destruction.ape" WAVE
  TRACK 01 AUDIO
    TITLE "Welcome To The Jungle"
    PERFORMER "Guns N' Roses"
    INDEX 01 00:00:00
  TRACK 02 AUDIO
    TITLE "It's So Easy"
    PERFORMER "Guns N' Roses"
    INDEX 00 04:31:41
    INDEX 01 04:34:07
  TRACK 03 AUDIO
    TITLE "Nightrain"
    PERFORMER "Guns N' Roses"
    INDEX 00 07:55:46
    INDEX 01 07:57:02
  TRACK 04 AUDIO
    TITLE "Out Ta Get Me"
    PERFORMER "Guns N' Roses"
    INDEX 00 12:23:16
    INDEX 01 12:25:37
  TRACK 05 AUDIO
    TITLE "Mr. Brownstone"
    PERFORMER "Guns N' Roses"
    INDEX 00 16:45:36
    INDEX 01 16:49:27
  TRACK 06 AUDIO
    TITLE "Paradise City"
    PERFORMER "Guns N' Roses"
    INDEX 00 20:35:08
    INDEX 01 20:38:22
  TRACK 07 AUDIO
    TITLE "My Michelle"
    PERFORMER "Guns N' Roses"
    INDEX 00 27:24:13
    INDEX 01 27:24:45
  TRACK 08 AUDIO
    TITLE "Think About You"
    PERFORMER "Guns N' Roses"
    INDEX 00 31:03:31
    INDEX 01 31:04:40
  TRACK 09 AUDIO
    TITLE "Sweet Child O' Mine"
    PERFORMER "Guns N' Roses"
    INDEX 00 34:54:53
    INDEX 01 34:56:10
  TRACK 10 AUDIO
    TITLE "You're Crazy"
    PERFORMER "Guns N' Roses"
    INDEX 00 40:50:58
    INDEX 01 40:52:42
  TRACK 11 AUDIO
    TITLE "Anything Goes"
    PERFORMER "Guns N' Roses"
    INDEX 00 44:08:21
    INDEX 01 44:09:57
  TRACK 12 AUDIO
    TITLE "Rocket Queen"
    PERFORMER "Guns N' Roses"
    INDEX 00 47:34:71
    INDEX 01 47:36:10
Label: Universal International
Catalog#: UICY-91204
Country: Japan
Released: 1988
Duration: 00:33:34
Tracklist:
01. Reckless Life 03:21
02. Nice Boys 03:03
03. Move To The City 03:42
04. Mama Kin 03:57
05. Patience 05:56
06. Used To Love Her 03:13
07. You're Crazy [Acoustic Version] 04:10
08. One In A Million 06:10

Код:

Exact Audio Copy V0.99 prebeta 5 from 4. May 2009

EAC extraction logfile from 7. September 2009, 17:36

Guns N' Roses / G N' R Lies

Used drive  : SAMSUNG CD-ROM SC-148A   Adapter: 1  ID: 1

Read mode               : Secure
Utilize accurate stream : Yes
Defeat audio cache      : Yes
Make use of C2 pointers : No

Read offset correction                      : 12
Overread into Lead-In and Lead-Out          : Yes
Fill up missing offset samples with silence : Yes
Delete leading and trailing silent blocks   : No
Null samples used in CRC calculations       : Yes
Used interface                              : Native Win32 interface for Win NT & 2000

Used output format : Internal WAV Routines
Sample format      : 44.100 Hz; 16 Bit; Stereo

TOC of the extracted CD

     Track |   Start  |  Length  | Start sector | End sector
    ---------------------------------------------------------
        1  |  0:00.00 |  3:21.20 |         0    |    15094   
        2  |  3:21.20 |  3:03.42 |     15095    |    28861   
        3  |  6:24.62 |  3:42.55 |     28862    |    45566   
        4  | 10:07.42 |  3:57.08 |     45567    |    63349   
        5  | 14:04.50 |  5:56.22 |     63350    |    90071   
        6  | 20:00.72 |  3:13.08 |     90072    |   104554   
        7  | 23:14.05 |  4:10.12 |    104555    |   123316   
        8  | 27:24.17 |  6:10.45 |    123317    |   151111   

Range status and errors

Selected range

     Filename C:\Guns N' Roses - 1988 - G N' R Lies\Guns N' Roses - 1988 - G N' R Lies.wav

     Peak level 100.0 %
     Range quality 99.9 %
     Test CRC 017C32D3
     Copy CRC 017C32D3
     Copy OK

No errors occurred

 
AccurateRip summary
 
Track  1  cannot be verified as accurate (confidence 1)  [8B9E69CF], AccurateRip returned [DEDA0E5A]
Track  2  cannot be verified as accurate (confidence 1)  [77D940DB], AccurateRip returned [9EB2B6FF]
Track  3  cannot be verified as accurate (confidence 1)  [95E027D9], AccurateRip returned [39858675]
Track  4  cannot be verified as accurate (confidence 1)  [9B4F043A], AccurateRip returned [77A60EA3]
Track  5  cannot be verified as accurate (confidence 1)  [5A5A3608], AccurateRip returned [4EC52288]
Track  6  cannot be verified as accurate (confidence 1)  [F444C4C8], AccurateRip returned [21368048]
Track  7  cannot be verified as accurate (confidence 1)  [B9A74719], AccurateRip returned [F0FD0259]
Track  8  cannot be verified as accurate (confidence 1)  [6861B3B8], AccurateRip returned [049865F8]
 
No tracks could be verified as accurate
You may have a different pressing from the one(s) in the database

End of status report

Код:

REM GENRE "Hard Rock"
REM DATE 1988
REM DISCID 6207DE08
REM COMMENT 2008 JP CD / Universal [UICY-91204] / UPC 4988005537447
CATALOG 4988005442475
PERFORMER "Guns N' Roses"
TITLE "G N' R Lies"
FILE "Guns N' Roses - 1988 - G N' R Lies.ape" WAVE
  TRACK 01 AUDIO
    TITLE "Reckless Life"
    PERFORMER "Guns N' Roses"
    ISRC USGF18819801
    INDEX 01 00:00:00
  TRACK 02 AUDIO
    TITLE "Nice Boys"
    PERFORMER "Guns N' Roses"
    ISRC USGF18819802
    INDEX 01 03:21:20
  TRACK 03 AUDIO
    TITLE "Move To The City"
    PERFORMER "Guns N' Roses"
    ISRC USGF18819803
    INDEX 01 06:24:62
  TRACK 04 AUDIO
    TITLE "Mama Kin"
    PERFORMER "Guns N' Roses"
    ISRC USGF18819804
    INDEX 01 10:07:42
  TRACK 05 AUDIO
    TITLE "Patience"
    PERFORMER "Guns N' Roses"
    ISRC USGF18819805
    INDEX 00 14:02:41
    INDEX 01 14:04:50
  TRACK 06 AUDIO
    TITLE "Used To Love Her"
    PERFORMER "Guns N' Roses"
    ISRC USGF18819806
    INDEX 00 19:59:06
    INDEX 01 20:00:72
  TRACK 07 AUDIO
    TITLE "You're Crazy [Acoustic Version]"
    PERFORMER "Guns N' Roses"
    ISRC USGF18819807
    INDEX 00 23:12:31
    INDEX 01 23:14:05
  TRACK 08 AUDIO
    TITLE "One In A Million"
    PERFORMER "Guns N' Roses"
    ISRC USGF18819808
    INDEX 00 27:22:71
    INDEX 01 27:24:17
Label: Universal International
Catalog#: UICY-91205
Country: Japan
Released: 1991
Duration: 01:16:07
Tracklist:
01. Right Next Door To Hell 03:02
02. Dust N' Bones 04:58
03. Live And Let Die 03:03
04. Don't Cry [Original] 04:44
05. Perfect Crime 02:23
06. You Ain't The First 02:36
07. Bad Obsession 05:28
08. Back Off Bitch 05:03
09. Double Talkin' Jive 03:23
10. November Rain 08:57
11. The Garden (Featuring Alice Cooper) 05:22
12. Garden Of Eden 02:41
13. Don't Damn Me 05:18
14. Bad Apples 04:28
15. Dead Horse 04:17
16. Coma 10:16

Код:

Exact Audio Copy V0.99 prebeta 5 from 4. May 2009

EAC extraction logfile from 7. September 2009, 16:26

Guns N' Roses / Use Your Illusion I

Used drive  : SAMSUNG CD-ROM SC-148A   Adapter: 1  ID: 1

Read mode               : Secure
Utilize accurate stream : Yes
Defeat audio cache      : Yes
Make use of C2 pointers : No

Read offset correction                      : 12
Overread into Lead-In and Lead-Out          : Yes
Fill up missing offset samples with silence : Yes
Delete leading and trailing silent blocks   : No
Null samples used in CRC calculations       : Yes
Used interface                              : Native Win32 interface for Win NT & 2000

Used output format : Internal WAV Routines
Sample format      : 44.100 Hz; 16 Bit; Stereo

TOC of the extracted CD

     Track |   Start  |  Length  | Start sector | End sector
    ---------------------------------------------------------
        1  |  0:00.00 |  3:02.30 |         0    |    13679   
        2  |  3:02.30 |  4:58.32 |     13680    |    36061   
        3  |  8:00.62 |  3:03.68 |     36062    |    49854   
        4  | 11:04.55 |  4:44.62 |     49855    |    71216   
        5  | 15:49.42 |  2:23.43 |     71217    |    81984   
        6  | 18:13.10 |  2:36.10 |     81985    |    93694   
        7  | 20:49.20 |  5:28.20 |     93695    |   118314   
        8  | 26:17.40 |  5:03.40 |    118315    |   141079   
        9  | 31:21.05 |  3:23.52 |    141080    |   156356   
       10  | 34:44.57 |  8:57.25 |    156357    |   196656   
       11  | 43:42.07 |  5:22.15 |    196657    |   220821   
       12  | 49:04.22 |  2:41.58 |    220822    |   232954   
       13  | 51:46.05 |  5:18.62 |    232955    |   256866   
       14  | 57:04.67 |  4:28.18 |    256867    |   276984   
       15  | 61:33.10 |  4:17.55 |    276985    |   296314   
       16  | 65:50.65 | 10:16.12 |    296315    |   342526   

Range status and errors

Selected range

     Filename C:\Guns N' Roses - 1991 - Use Your Illusion I\Guns N' Roses - 1991 - Use Your Illusion I.wav

     Peak level 100.0 %
     Range quality 99.9 %
     Test CRC 00AA844A
     Copy CRC 00AA844A
     Copy OK

No errors occurred

 
AccurateRip summary
 
Track  1  accurately ripped (confidence 2)  [0538B6C2]
Track  2  accurately ripped (confidence 2)  [D1E30219]
Track  3  accurately ripped (confidence 2)  [ED2E7953]
Track  4  accurately ripped (confidence 2)  [4DD802AD]
Track  5  accurately ripped (confidence 2)  [704670A7]
Track  6  accurately ripped (confidence 2)  [9ADF4C75]
Track  7  accurately ripped (confidence 2)  [42F5B89C]
Track  8  accurately ripped (confidence 2)  [114921B1]
Track  9  accurately ripped (confidence 2)  [BFF82DE1]
Track 10  accurately ripped (confidence 2)  [59F6F878]
Track 11  accurately ripped (confidence 2)  [1FC7D325]
Track 12  accurately ripped (confidence 2)  [4553AEE1]
Track 13  accurately ripped (confidence 2)  [9D529919]
Track 14  accurately ripped (confidence 2)  [562EE0F2]
Track 15  accurately ripped (confidence 2)  [B5851A82]
Track 16  accurately ripped (confidence 2)  [081D93E6]
 
All tracks accurately ripped

End of status report

Код:

REM GENRE "Hard Rock"
REM DATE 1991
REM DISCID F811D710
REM COMMENT 2008 JP CD / Universal [UICY-91205] / UPC 4988005537454
CATALOG 4988067000866
PERFORMER "Guns N' Roses"
TITLE "Use Your Illusion I"
FILE "Guns N' Roses - 1991 - Use Your Illusion I.ape" WAVE
  TRACK 01 AUDIO
    TITLE "Right Next Door To Hell"
    PERFORMER "Guns N' Roses"
    INDEX 01 00:00:00
  TRACK 02 AUDIO
    TITLE "Dust N' Bones"
    PERFORMER "Guns N' Roses"
    INDEX 01 03:02:30
  TRACK 03 AUDIO
    TITLE "Live And Let Die"
    PERFORMER "Guns N' Roses"
    INDEX 01 08:00:62
  TRACK 04 AUDIO
    TITLE "Don't Cry [Original]"
    PERFORMER "Guns N' Roses"
    INDEX 00 11:03:68
    INDEX 01 11:04:55
  TRACK 05 AUDIO
    TITLE "Perfect Crime"
    PERFORMER "Guns N' Roses"
    INDEX 00 15:49:03
    INDEX 01 15:49:42
  TRACK 06 AUDIO
    TITLE "You Ain't The First"
    PERFORMER "Guns N' Roses"
    INDEX 01 18:13:10
  TRACK 07 AUDIO
    TITLE "Bad Obsession"
    PERFORMER "Guns N' Roses"
    INDEX 01 20:49:20
  TRACK 08 AUDIO
    TITLE "Back Off Bitch"
    PERFORMER "Guns N' Roses"
    INDEX 00 26:16:36
    INDEX 01 26:17:40
  TRACK 09 AUDIO
    TITLE "Double Talkin' Jive"
    PERFORMER "Guns N' Roses"
    INDEX 00 31:20:18
    INDEX 01 31:21:05
  TRACK 10 AUDIO
    TITLE "November Rain"
    PERFORMER "Guns N' Roses"
    INDEX 00 34:43:26
    INDEX 01 34:44:57
  TRACK 11 AUDIO
    TITLE "The Garden (Featuring Alice Cooper)"
    PERFORMER "Guns N' Roses"
    INDEX 00 43:41:08
    INDEX 01 43:42:07
  TRACK 12 AUDIO
    TITLE "Garden Of Eden"
    PERFORMER "Guns N' Roses"
    INDEX 00 49:01:73
    INDEX 01 49:04:22
  TRACK 13 AUDIO
    TITLE "Don't Damn Me"
    PERFORMER "Guns N' Roses"
    INDEX 00 51:45:38
    INDEX 01 51:46:05
  TRACK 14 AUDIO
    TITLE "Bad Apples"
    PERFORMER "Guns N' Roses"
    INDEX 01 57:04:67
  TRACK 15 AUDIO
    TITLE "Dead Horse"
    PERFORMER "Guns N' Roses"
    INDEX 00 61:32:23
    INDEX 01 61:33:10
  TRACK 16 AUDIO
    TITLE "Coma"
    PERFORMER "Guns N' Roses"
    INDEX 01 65:50:65
Label: Universal International
Catalog#: UICY-91206
Country: Japan
Released: 1991
Duration: 01:15:59
Tracklist:
01. Civil War 07:42
02. 14 Years 04:21
03. Yesterdays 03:16
04. Knockin' On Heaven's Door 05:35
05. Get In The Ring 05:41
06. Shotgun Blues 03:23
07. Breakdown 07:04
08. Pretty Tied Up 04:48
09. Locomotive 08:41
10. So Fine 04:06
11. Estranged 09:24
12. You Could Be Mine 05:43
13. Don't Cry [Alternate Lyrics] 04:44
14. My World 01:26

Код:

Exact Audio Copy V0.99 prebeta 5 from 4. May 2009

EAC extraction logfile from 7. September 2009, 17:12

Guns N' Roses / Use Your Illusion II

Used drive  : SAMSUNG CD-ROM SC-148A   Adapter: 1  ID: 1

Read mode               : Secure
Utilize accurate stream : Yes
Defeat audio cache      : Yes
Make use of C2 pointers : No

Read offset correction                      : 12
Overread into Lead-In and Lead-Out          : Yes
Fill up missing offset samples with silence : Yes
Delete leading and trailing silent blocks   : No
Null samples used in CRC calculations       : Yes
Used interface                              : Native Win32 interface for Win NT & 2000

Used output format : Internal WAV Routines
Sample format      : 44.100 Hz; 16 Bit; Stereo

TOC of the extracted CD

     Track |   Start  |  Length  | Start sector | End sector
    ---------------------------------------------------------
        1  |  0:00.00 |  7:42.57 |         0    |    34706   
        2  |  7:42.57 |  4:21.23 |     34707    |    54304   
        3  | 12:04.05 |  3:16.20 |     54305    |    69024   
        4  | 15:20.25 |  5:35.67 |     69025    |    94216   
        5  | 20:56.17 |  5:41.30 |     94217    |   119821   
        6  | 26:37.47 |  3:23.08 |    119822    |   135054   
        7  | 30:00.55 |  7:04.22 |    135055    |   166876   
        8  | 37:05.02 |  4:48.13 |    166877    |   188489   
        9  | 41:53.15 |  8:41.72 |    188490    |   227636   
       10  | 50:35.12 |  4:06.23 |    227637    |   246109   
       11  | 54:41.35 |  9:24.02 |    246110    |   288411   
       12  | 64:05.37 |  5:43.35 |    288412    |   314171   
       13  | 69:48.72 |  4:44.18 |    314172    |   335489   
       14  | 74:33.15 |  1:26.37 |    335490    |   341976   

Range status and errors

Selected range

     Filename C:\Guns N' Roses - 1991 - Use Your Illusion II\Guns N' Roses - 1991 - Use Your Illusion II.wav

     Peak level 100.0 %
     Range quality 100.0 %
     Test CRC 05F25969
     Copy CRC 05F25969
     Copy OK

No errors occurred

 
AccurateRip summary
 
Track  1  cannot be verified as accurate (confidence 2)  [C14CD7BC], AccurateRip returned [58BEF886]
Track  2  cannot be verified as accurate (confidence 2)  [7B65D91E], AccurateRip returned [EBBB58AF]
Track  3  cannot be verified as accurate (confidence 2)  [79EE282E], AccurateRip returned [7396AFF4]
Track  4  cannot be verified as accurate (confidence 2)  [0B155115], AccurateRip returned [25DD2770]
Track  5  cannot be verified as accurate (confidence 2)  [66509D1A], AccurateRip returned [3849156B]
Track  6  cannot be verified as accurate (confidence 2)  [76562A10], AccurateRip returned [B13E18BB]
Track  7  cannot be verified as accurate (confidence 2)  [90AB4DA1], AccurateRip returned [E887B3C4]
Track  8  not present in database
Track  9  not present in database
Track 10  not present in database
Track 11  not present in database
Track 12  not present in database
Track 13  not present in database
Track 14  not present in database
 
 7 track(s) could not be verified as accurate
 7 track(s) not present in the AccurateRip database

No tracks could be verified as accurate
You may have a different pressing from the one(s) in the database

End of status report

Код:

REM GENRE "Hard Rock"
REM DATE 1991
REM DISCID CE11CF0E
REM COMMENT 2008 JP CD / Universal [UICY-91206] / UPC 4988005537461
CATALOG 4988067000873
PERFORMER "Guns N' Roses"
TITLE "Use Your Illusion II"
FILE "Guns N' Roses - 1991 - Use Your Illusion II.ape" WAVE
  TRACK 01 AUDIO
    TITLE "Civil War"
    PERFORMER "Guns N' Roses"
    INDEX 01 00:00:00
  TRACK 02 AUDIO
    TITLE "14 Years"
    PERFORMER "Guns N' Roses"
    INDEX 00 07:41:23
    INDEX 01 07:42:57
  TRACK 03 AUDIO
    TITLE "Yesterdays"
    PERFORMER "Guns N' Roses"
    INDEX 01 12:04:05
  TRACK 04 AUDIO
    TITLE "Knockin' On Heaven's Door"
    PERFORMER "Guns N' Roses"
    INDEX 00 15:19:06
    INDEX 01 15:20:25
  TRACK 05 AUDIO
    TITLE "Get In The Ring"
    PERFORMER "Guns N' Roses"
    INDEX 00 20:55:53
    INDEX 01 20:56:17
  TRACK 06 AUDIO
    TITLE "Shotgun Blues"
    PERFORMER "Guns N' Roses"
    INDEX 00 26:37:21
    INDEX 01 26:37:47
  TRACK 07 AUDIO
    TITLE "Breakdown"
    PERFORMER "Guns N' Roses"
    INDEX 00 30:00:08
    INDEX 01 30:00:55
  TRACK 08 AUDIO
    TITLE "Pretty Tied Up"
    PERFORMER "Guns N' Roses"
    INDEX 00 37:04:36
    INDEX 01 37:05:02
  TRACK 09 AUDIO
    TITLE "Locomotive"
    PERFORMER "Guns N' Roses"
    INDEX 01 41:53:15
  TRACK 10 AUDIO
    TITLE "So Fine"
    PERFORMER "Guns N' Roses"
    INDEX 00 50:34:13
    INDEX 01 50:35:12
  TRACK 11 AUDIO
    TITLE "Estranged"
    PERFORMER "Guns N' Roses"
    INDEX 01 54:41:35
  TRACK 12 AUDIO
    TITLE "You Could Be Mine"
    PERFORMER "Guns N' Roses"
    INDEX 00 64:04:46
    INDEX 01 64:05:37
  TRACK 13 AUDIO
    TITLE "Don't Cry [Alternate Lyrics]"
    PERFORMER "Guns N' Roses"
    INDEX 01 69:48:72
  TRACK 14 AUDIO
    TITLE "My World"
    PERFORMER "Guns N' Roses"
    INDEX 00 74:32:68
    INDEX 01 74:33:15
Label: Universal International
Catalog#: UICY-91207
Country: Japan
Released: 1993
Duration: 00:46:11
Tracklist:
01. Since I Don't Have You 04:19
02. New Rose 02:38
03. Down On The Farm 03:28
04. Human Being 06:48
05. Raw Power 03:11
06. Ain't It Fun 05:05
07. Buick Makane (Big Dumb Sex) 02:39
08. Hair Of The Dog 03:54
09. Attitude 01:27
10. Black Leather 04:08
11. You Can't Put Your Arms Around A Memory 03:35
12. I Don't Care About You + Look At Your Game, Girl 04:53

Код:

Exact Audio Copy V0.99 prebeta 5 from 4. May 2009

EAC extraction logfile from 20. September 2009, 0:49

Guns N' Roses / The Spaghetti Incident

Used drive  : SAMSUNG CD-ROM SC-148A   Adapter: 1  ID: 1

Read mode               : Secure
Utilize accurate stream : Yes
Defeat audio cache      : Yes
Make use of C2 pointers : No

Read offset correction                      : 12
Overread into Lead-In and Lead-Out          : Yes
Fill up missing offset samples with silence : Yes
Delete leading and trailing silent blocks   : No
Null samples used in CRC calculations       : Yes
Used interface                              : Native Win32 interface for Win NT & 2000

Used output format : Internal WAV Routines
Sample format      : 44.100 Hz; 16 Bit; Stereo

TOC of the extracted CD

     Track |   Start  |  Length  | Start sector | End sector
    ---------------------------------------------------------
        1  |  0:00.37 |  4:19.53 |        37    |    19514   
        2  |  4:20.15 |  2:38.25 |     19515    |    31389   
        3  |  6:58.40 |  3:28.45 |     31390    |    47034   
        4  | 10:27.10 |  6:48.17 |     47035    |    77651   
        5  | 17:15.27 |  3:11.68 |     77652    |    92044   
        6  | 20:27.20 |  5:05.60 |     92045    |   114979   
        7  | 25:33.05 |  2:39.57 |    114980    |   126961   
        8  | 28:12.62 |  3:54.70 |    126962    |   144581   
        9  | 32:07.57 |  1:27.00 |    144582    |   151106   
       10  | 33:34.57 |  4:08.40 |    151107    |   169746   
       11  | 37:43.22 |  3:35.05 |    169747    |   185876   
       12  | 41:18.27 |  4:53.23 |    185877    |   207874   

Range status and errors

Selected range

     Filename C:\Guns N' Roses - 1993 - The Spaghetti Incident\Guns N' Roses - 1993 - The Spaghetti Incident.wav

     Peak level 100.0 %
     Range quality 99.9 %
     Test CRC D9F8239D
     Copy CRC D9F8239D
     Copy OK

No errors occurred

 
AccurateRip summary
 
Track  1  not present in database
Track  2  not present in database
Track  3  not present in database
Track  4  not present in database
Track  5  not present in database
Track  6  not present in database
Track  7  not present in database
Track  8  not present in database
Track  9  not present in database
Track 10  not present in database
Track 11  not present in database
Track 12  not present in database
 
None of the tracks are present in the AccurateRip database

End of status report

Код:

REM GENRE "Hard Rock"
REM DATE 1993
REM DISCID 990AD30C
REM COMMENT 2008 JP CD / Universal [UICY-91207] / UPC 4988005537478
CATALOG 4988067013743
PERFORMER "Guns N' Roses"
TITLE "The Spaghetti Incident"
FILE "Guns N' Roses - 1993 - The Spaghetti Incident.ape" WAVE
  TRACK 01 AUDIO
    TITLE "Since I Don't Have You"
    PERFORMER "Guns N' Roses"
    INDEX 00 00:00:00
    INDEX 01 00:00:37
  TRACK 02 AUDIO
    TITLE "New Rose"
    PERFORMER "Guns N' Roses"
    INDEX 01 04:20:15
  TRACK 03 AUDIO
    TITLE "Down On The Farm"
    PERFORMER "Guns N' Roses"
    INDEX 01 06:58:40
  TRACK 04 AUDIO
    TITLE "Human Being"
    PERFORMER "Guns N' Roses"
    INDEX 01 10:27:10
  TRACK 05 AUDIO
    TITLE "Raw Power"
    PERFORMER "Guns N' Roses"
    INDEX 01 17:15:27
  TRACK 06 AUDIO
    TITLE "Ain't It Fun"
    PERFORMER "Guns N' Roses"
    INDEX 01 20:27:20
  TRACK 07 AUDIO
    TITLE "Buick Makane (Big Dumb Sex)"
    PERFORMER "Guns N' Roses"
    INDEX 01 25:33:05
  TRACK 08 AUDIO
    TITLE "Hair Of The Dog"
    PERFORMER "Guns N' Roses"
    INDEX 01 28:12:62
  TRACK 09 AUDIO
    TITLE "Attitude"
    PERFORMER "Guns N' Roses"
    INDEX 01 32:07:57
  TRACK 10 AUDIO
    TITLE "Black Leather"
    PERFORMER "Guns N' Roses"
    INDEX 01 33:34:57
  TRACK 11 AUDIO
    TITLE "You Can't Put Your Arms Around A Memory"
    PERFORMER "Guns N' Roses"
    INDEX 01 37:43:22
  TRACK 12 AUDIO
    TITLE "I Don't Care About You + Look At Your Game, Girl"
    PERFORMER "Guns N' Roses"
    INDEX 01 41:18:27
Label: Universal International
Catalog#: UICY-90894
Country: Japan
Released: 2004
Duration: 01:19:16
Tracklist:
01. Welcome To The Jungle 04:31
02. Sweet Child O' Mine 05:55
03. Patience 05:56
04. Paradise City 06:47
05. Knockin' On Heaven's Door 05:36
06. Civil War 07:42
07. You Could Be Mine 05:43
08. Don't Cry [Original] 04:45
09. November Rain 08:56
10. Live And Let Die 03:02
11. Yesterdays 03:16
12. Ain't It Fun [Radio Version] 05:07
13. Since I Don't Have You 04:19
14. Sympathy For The Devil 07:35

Код:

Exact Audio Copy V0.99 prebeta 5 from 4. May 2009

EAC extraction logfile from 20. September 2009, 1:41

Guns N' Roses / Greatest Hits [Compilation]

Used drive  : SAMSUNG CD-ROM SC-148A   Adapter: 1  ID: 1

Read mode               : Secure
Utilize accurate stream : Yes
Defeat audio cache      : Yes
Make use of C2 pointers : No

Read offset correction                      : 12
Overread into Lead-In and Lead-Out          : Yes
Fill up missing offset samples with silence : Yes
Delete leading and trailing silent blocks   : No
Null samples used in CRC calculations       : Yes
Used interface                              : Native Win32 interface for Win NT & 2000

Used output format : Internal WAV Routines
Sample format      : 44.100 Hz; 16 Bit; Stereo

TOC of the extracted CD

     Track |   Start  |  Length  | Start sector | End sector
    ---------------------------------------------------------
        1  |  0:00.00 |  4:31.65 |         0    |    20389   
        2  |  4:31.65 |  5:55.20 |     20390    |    47034   
        3  | 10:27.10 |  5:56.07 |     47035    |    73741   
        4  | 16:23.17 |  6:47.37 |     73742    |   104303   
        5  | 23:10.54 |  5:36.11 |    104304    |   129514   
        6  | 28:46.65 |  7:42.20 |    129515    |   164184   
        7  | 36:29.10 |  5:43.50 |    164185    |   189959   
        8  | 42:12.60 |  4:45.52 |    189960    |   211386   
        9  | 46:58.37 |  8:56.72 |    211387    |   251658   
       10  | 55:55.34 |  3:02.16 |    251659    |   265324   
       11  | 58:57.50 |  3:16.05 |    265325    |   280029   
       12  | 62:13.55 |  5:07.62 |    280030    |   303116   
       13  | 67:21.42 |  4:19.20 |    303117    |   322561   
       14  | 71:40.62 |  7:35.42 |    322562    |   356728   

Range status and errors

Selected range

     Filename C:\Guns N' Roses - 2004 - Greatest Hits [Compilation]\Guns N' Roses - 2004 - Greatest Hits [Compilation].wav

     Peak level 98.8 %
     Range quality 100.0 %
     Test CRC 9FCA3766
     Copy CRC 9FCA3766
     Copy OK

No errors occurred

 
AccurateRip summary
 
Track  1  accurately ripped (confidence 200)  [195B1005]
Track  2  accurately ripped (confidence 200)  [54EA0AB1]
Track  3  accurately ripped (confidence 200)  [2A0B2C16]
Track  4  accurately ripped (confidence 200)  [8D5AE23B]
Track  5  accurately ripped (confidence 200)  [B68F4993]
Track  6  accurately ripped (confidence 200)  [CB4D83F0]
Track  7  accurately ripped (confidence 200)  [A9F845C9]
Track  8  accurately ripped (confidence 200)  [2C153935]
Track  9  accurately ripped (confidence 200)  [A0FFD5B7]
Track 10  accurately ripped (confidence 200)  [B1837088]
Track 11  accurately ripped (confidence 200)  [4AE936FA]
Track 12  accurately ripped (confidence 200)  [9F04AC56]
Track 13  accurately ripped (confidence 200)  [2DDCC51D]
Track 14  accurately ripped (confidence 200)  [7B68D216]
 
All tracks accurately ripped

End of status report

Код:

REM GENRE "Hard Rock"
REM DATE 2004
REM DISCID C912940E
REM COMMENT 2008 JP CD / Universal [UICY-90894] / UPC 4988005515001
CATALOG 0602498613696
PERFORMER "Guns N' Roses"
TITLE "Greatest Hits [Compilation]"
FILE "Guns N' Roses - 2004 - Greatest Hits [Compilation].ape" WAVE
  TRACK 01 AUDIO
    TITLE "Welcome To The Jungle"
    PERFORMER "Guns N' Roses"
    ISRC USGF18714801
    INDEX 01 00:00:00
  TRACK 02 AUDIO
    TITLE "Sweet Child O' Mine"
    PERFORMER "Guns N' Roses"
    ISRC USGF18714809
    INDEX 01 04:31:65
  TRACK 03 AUDIO
    TITLE "Patience"
    PERFORMER "Guns N' Roses"
    ISRC USGF18819805
    INDEX 01 10:27:10
  TRACK 04 AUDIO
    TITLE "Paradise City"
    PERFORMER "Guns N' Roses"
    ISRC USGF18714806
    INDEX 01 16:23:17
  TRACK 05 AUDIO
    TITLE "Knockin' On Heaven's Door"
    PERFORMER "Guns N' Roses"
    ISRC USGF19142004
    INDEX 00 23:09:32
    INDEX 01 23:10:54
  TRACK 06 AUDIO
    TITLE "Civil War"
    PERFORMER "Guns N' Roses"
    ISRC USGF19142001
    INDEX 01 28:46:65
  TRACK 07 AUDIO
    TITLE "You Could Be Mine"
    PERFORMER "Guns N' Roses"
    ISRC USGF19142012
    INDEX 00 36:27:27
    INDEX 01 36:29:10
  TRACK 08 AUDIO
    TITLE "Don't Cry [Original]"
    PERFORMER "Guns N' Roses"
    ISRC USGF19141504
    INDEX 01 42:12:60
  TRACK 09 AUDIO
    TITLE "November Rain"
    PERFORMER "Guns N' Roses"
    ISRC USGF19141510
    INDEX 00 46:56:67
    INDEX 01 46:58:37
  TRACK 10 AUDIO
    TITLE "Live And Let Die"
    PERFORMER "Guns N' Roses"
    ISRC USGF19141503
    INDEX 01 55:55:34
  TRACK 11 AUDIO
    TITLE "Yesterdays"
    PERFORMER "Guns N' Roses"
    ISRC USGF19142003
    INDEX 01 58:57:50
  TRACK 12 AUDIO
    TITLE "Ain't It Fun [Radio Version]"
    PERFORMER "Guns N' Roses"
    ISRC USIR10312448
    INDEX 00 62:12:12
    INDEX 01 62:13:55
  TRACK 13 AUDIO
    TITLE "Since I Don't Have You"
    PERFORMER "Guns N' Roses"
    ISRC USGF19361701
    INDEX 00 67:20:22
    INDEX 01 67:21:42
  TRACK 14 AUDIO
    TITLE "Sympathy For The Devil"
    PERFORMER "Guns N' Roses"
    ISRC USIR10312449
    INDEX 01 71:40:62
Label: Universal International
Catalog#: UICF-9061
Country: Japan
Released: 2008
Duration: 01:11:26
Tracklist:
01. Chinese Democracy 04:43
02. Shackler's Revenge 03:36
03. Better 04:58
04. Street Of Dreams 04:46
05. If The World 04:54
06. There Was A Time 06:41
07. Catcher In The Rye 05:52
08. Scraped 03:30
09. Riad N' The Bedouins 04:10
10. Sorry 06:14
11. I.R.S. 04:28
12. Madagascar 05:37
13. This I Love 05:34
14. Prostitute 06:15

Код:

Exact Audio Copy V0.99 prebeta 5 from 4. May 2009

EAC extraction logfile from 20. September 2009, 2:23

Guns N' Roses / Chinese Democracy

Used drive  : SAMSUNG CD-ROM SC-148A   Adapter: 1  ID: 1

Read mode               : Secure
Utilize accurate stream : Yes
Defeat audio cache      : Yes
Make use of C2 pointers : No

Read offset correction                      : 12
Overread into Lead-In and Lead-Out          : Yes
Fill up missing offset samples with silence : Yes
Delete leading and trailing silent blocks   : No
Null samples used in CRC calculations       : Yes
Used interface                              : Native Win32 interface for Win NT & 2000

Used output format : Internal WAV Routines
Sample format      : 44.100 Hz; 16 Bit; Stereo

TOC of the extracted CD

     Track |   Start  |  Length  | Start sector | End sector
    ---------------------------------------------------------
        1  |  0:00.00 |  4:43.16 |         0    |    21240   
        2  |  4:43.16 |  3:36.70 |     21241    |    37510   
        3  |  8:20.11 |  4:58.54 |     37511    |    59914   
        4  | 13:18.65 |  4:46.56 |     59915    |    81420   
        5  | 18:05.46 |  4:54.32 |     81421    |   103502   
        6  | 23:00.03 |  6:41.10 |    103503    |   133587   
        7  | 29:41.13 |  5:52.74 |    133588    |   160061   
        8  | 35:34.12 |  3:30.57 |    160062    |   175868   
        9  | 39:04.69 |  4:10.13 |    175869    |   194631   
       10  | 43:15.07 |  6:14.38 |    194632    |   222719   
       11  | 49:29.45 |  4:28.62 |    222720    |   242881   
       12  | 53:58.32 |  5:37.73 |    242882    |   268229   
       13  | 59:36.30 |  5:34.28 |    268230    |   293307   
       14  | 65:10.58 |  6:15.58 |    293308    |   321490   

Range status and errors

Selected range

     Filename C:\Guns N' Roses - 2008 - Chinese Democracy\Guns N' Roses - 2008 - Chinese Democracy.wav

     Peak level 100.0 %
     Range quality 100.0 %
     Test CRC D7E11DF6
     Copy CRC D7E11DF6
     Copy OK

No errors occurred

 
AccurateRip summary
 
Track  1  accurately ripped (confidence 200)  [407ED1FB]
Track  2  accurately ripped (confidence 200)  [C58B1677]
Track  3  accurately ripped (confidence 200)  [4399265A]
Track  4  accurately ripped (confidence 200)  [C2EA0895]
Track  5  accurately ripped (confidence 200)  [5806611B]
Track  6  accurately ripped (confidence 200)  [43626F1F]
Track  7  accurately ripped (confidence 200)  [20CD3EB5]
Track  8  accurately ripped (confidence 200)  [70A3CA1B]
Track  9  accurately ripped (confidence 200)  [2062A495]
Track 10  accurately ripped (confidence 200)  [3D3AF3A6]
Track 11  accurately ripped (confidence 200)  [CA43305D]
Track 12  accurately ripped (confidence 200)  [AF8B3075]
Track 13  accurately ripped (confidence 200)  [CA378EC3]
Track 14  accurately ripped (confidence 200)  [32DEFF3C]
 
All tracks accurately ripped

End of status report

Код:

REM GENRE "Hard Rock"
REM DATE 2008
REM DISCID C510BE0E
REM COMMENT 2008 JP CD / Universal [UICF-9061] / UPC 4988005544957
CATALOG 0602517906075
PERFORMER "Guns N' Roses"
TITLE "Chinese Democracy"
FILE "Guns N' Roses - 2008 - Chinese Democracy.ape" WAVE
  TRACK 01 AUDIO
    TITLE "Chinese Democracy"
    PERFORMER "Guns N' Roses"
    ISRC USUM70842892
    INDEX 01 00:00:00
  TRACK 02 AUDIO
    TITLE "Shackler's Revenge"
    PERFORMER "Guns N' Roses"
    ISRC USUM70842892
    INDEX 01 04:43:16
  TRACK 03 AUDIO
    TITLE "Better"
    PERFORMER "Guns N' Roses"
    ISRC USUM70842891
    INDEX 00 08:19:61
    INDEX 01 08:20:11
  TRACK 04 AUDIO
    TITLE "Street Of Dreams"
    PERFORMER "Guns N' Roses"
    ISRC USUM70842909
    INDEX 00 13:17:28
    INDEX 01 13:18:65
  TRACK 05 AUDIO
    TITLE "If The World"
    PERFORMER "Guns N' Roses"
    ISRC USUM70842903
    INDEX 00 18:05:16
    INDEX 01 18:05:46
  TRACK 06 AUDIO
    TITLE "There Was A Time"
    PERFORMER "Guns N' Roses"
    ISRC USUM70842910
    INDEX 00 22:59:09
    INDEX 01 23:00:03
  TRACK 07 AUDIO
    TITLE "Catcher In The Rye"
    PERFORMER "Guns N' Roses"
    ISRC USUM70842912
    INDEX 00 29:40:55
    INDEX 01 29:41:13
  TRACK 08 AUDIO
    TITLE "Scraped"
    PERFORMER "Guns N' Roses"
    ISRC USUM70842913
    INDEX 01 35:34:12
  TRACK 09 AUDIO
    TITLE "Riad N' The Bedouins"
    PERFORMER "Guns N' Roses"
    ISRC USUM70842906
    INDEX 00 39:04:41
    INDEX 01 39:04:69
  TRACK 10 AUDIO
    TITLE "Sorry"
    PERFORMER "Guns N' Roses"
    ISRC USUM70842908
    INDEX 01 43:15:07
  TRACK 11 AUDIO
    TITLE "I.R.S."
    PERFORMER "Guns N' Roses"
    ISRC USUM70842902
    INDEX 00 49:29:21
    INDEX 01 49:29:45
  TRACK 12 AUDIO
    TITLE "Madagascar"
    PERFORMER "Guns N' Roses"
    ISRC USUM70842904
    INDEX 00 53:57:39
    INDEX 01 53:58:32
  TRACK 13 AUDIO
    TITLE "This I Love"
    PERFORMER "Guns N' Roses"
    ISRC USUM70842911
    INDEX 01 59:36:30
  TRACK 14 AUDIO
    TITLE "Prostitute"
    PERFORMER "Guns N' Roses"
    ISRC USUM70842905
    INDEX 01 65:10:58

info [Профиль]  [ЛС] 

Resistance

Пол: Пол:Муж

Стаж: 7 лет 2 месяца

Сообщений: 3639

Россия
Рейтинг

post 27-Ноя-2012 21:51 (спустя 4 дня) [-]0[+]

[Цитировать] 

Каждый лог и куе должны быть заключены в тэг code или pre.
info [Профиль]  [ЛС] 

victor007

Пол: Пол:Муж

Стаж: 6 лет 7 месяцев

Сообщений: 68

Казахстан
Рейтинг

post 28-Апр-2013 19:28 (спустя 5 месяцев) [-]0[+]

[Цитировать] 

Может поможете найти этот песню во флаке Guns N Roses – Sex, Drugs And Rock'N'Roll ?

_________________
КУ
info [Профиль]  [ЛС] 
Показать сообщения:    
Ответить на тему

Текущее время: 09-Дек 11:54

Часовой пояс: GMT + 4



Вы не можете начинать темы
Вы не можете отвечать на сообщения
Вы не можете редактировать свои сообщения
Вы не можете удалять свои сообщения
Вы не можете голосовать в опросах
Вы не можете прикреплять файлы к сообщениям
Вы не можете скачивать файлы