Ошибка

Queen: Hungarian Rhapsody - Live In Budapest (1986) [2012 г., Hard Rock, BDRip 1080p]

Ответить на тему
 
Автор Сообщение

The Buzzhorn

Пол: Пол:Муж

Стаж: 6 лет 2 месяца

Сообщений: 901

Германия
Рейтинг

post 12-Ноя-2012 16:19 0[+]

[Цитировать] 

Queen: Hungarian Rhapsody
Live In Budapest (1986)

Год выпуска: 2012
Жанр: Hard Rock
Происхождение исполнителя: UK
Выпущено: Eagle Rock Entertainment
Cубтитры: Английские
Продолжительность: 1:31:08
Треклист:
01. One Vision
02. Tie Your Mother Down
03. In the Lap of the Gods. . .Revisited
04. Seven Seas of Rhye
05. Tear It Up
06. A Kind of Magic
07. Under Pressure
08. Who Wants to Live Forever
09. I Want to Break Free
10. Guitar Solo
11. Now I'm Here
12. Love of My Life
13. Tavaszi Szet Vizet Araszt
14. Is This the World We Created. . .?
15. Tutti Frutti
16. Bohemian Rhapsody
17. Hammer to Fall
18. Crazy Little Thing Called Love
19. Radio Ga Ga
20. We Will Rock You
21. Friends Will Be Friends
22. We Are the Champions
23. God Save the Queen

Цитата:

Снятый в 1986 году, концерт прошел полное восстановление и переведен в высокое разрешение и снабжен 5.1 Surround Sound - так что теперь у всех будет возможность насладиться этим великолепием в полноценном HD. В DVD и Blu-ray также войдет 25-минутный документальный фильм "A Magic Year", рассказывающий о том, как группа прошла свой путь от выступления 13 июля 1985 года на Live Aid London до эпического шоу в Будапеште. Используя съемки с репетиций, интервью, ряд из которых ранее не был опубликован, этот фильм был специально создан для этого релиза. "Мы рады, что у поклонников QUEEN по всему миру наконец-то появится возможность пережить эти великолепные для группы моменты" - говорят Brian May и Roger Taylor. "Мы знали, что концерт в Будапеште будет инновационным, но не совсем ожидали, что он будет столь историческим событием. Концерт смотрится на экране просто фантастически после всех процедур ремастеринга и документальный фильм отлично показывает все события - это было по-настоящему экстраординарное время в истории коллектива".

Происхождение видео: BDRip 1080p
Формат: MKV
Видео кодек: MPEG-4 AVC
Данные видео: 1920x1080p, MPEG-4 AVC, High@L4.1, 24 fps, 14.8 Mbps
Аудио кодек: DTS
Данные аудио: DTS 5.1, 1 510 Kbps, 48 kHz, 24-bit, Front: L C R, Side: L R, LFE\ eng

Код:

Video
ID                               : 1
Format                           : AVC
Format/Info                      : Advanced Video Codec
Format profile                   : High@L4.1
Format settings, CABAC           : Yes
Format settings, ReFrames        : 4 frames
Muxing mode                      : Container profile=Unknown@4.1
Codec ID                         : V_MPEG4/ISO/AVC
Duration                         : 1h 31mn
Bit rate                         : 14.8 Mbps
Width                            : 1 920 pixels
Height                           : 1 080 pixels
Display aspect ratio             : 16:9
Frame rate                       : 24.000 fps
Color space                      : YUV
Chroma subsampling               : 4:2:0
Bit depth                        : 8 bits
Scan type                        : Progressive
Bits/(Pixel*Frame)               : 0.297
Stream size                      : 9.21 GiB (89%)
Title                            : Rip by -=ANoobis=- MDteam
Writing library                  : x264 core 125 r2200 999b753
Encoding settings                : cabac=1 / ref=4 / deblock=1:-3:-3 / analyse=0x3:0x112 / me=umh / subme=9 /
psy=1 / psy_rd=1.00:0.15 / mixed_ref=1 / me_range=32 / chroma_me=1 / trellis=2 / 8x8dct=1 / cqm=0 /
deadzone=21,11 / fast_pskip=0 / chroma_qp_offset=-3 / threads=12 / lookahead_threads=2 / sliced_threads=0 /
nr=0 / decimate=1 / interlaced=0 / bluray_compat=0 / constrained_intra=0 / bframes=5 / b_pyramid=2 / b_adapt=2 /
b_bias=0 / direct=3 / weightb=1 / open_gop=0 / weightp=2 / keyint=250 / keyint_min=25 / scenecut=40 /
intra_refresh=0 / rc_lookahead=50 / rc=2pass / mbtree=1 / bitrate=14800 / ratetol=1.0 / qcomp=0.60 /
qpmin=0 / qpmax=69 / qpstep=4 / cplxblur=20.0 / qblur=0.5 / ip_ratio=1.40 / aq=1:1.00
Language                         : English
Matrix coefficients              : BT.709-5, BT.1361, IEC 61966-2-4 709, SMPTE RP177

Audio
ID                               : 2
Format                           : DTS
Format/Info                      : Digital Theater Systems
Codec ID                         : A_DTS
Duration                         : 1h 31mn
Bit rate mode                    : Constant
Bit rate                         : 1 510 Kbps
Channel(s)                       : 6 channels
Channel positions                : Front: L C R, Side: L R, LFE
Sampling rate                    : 48.0 KHz
Bit depth                        : 24 bits
Video delay                      : 11ms
Stream size                      : 985 MiB (9%)
Title                            : DTS Eng
Language                         : English

Text
ID                               : 3
Format                           : UTF-8
Codec ID                         : S_TEXT/UTF8
Codec ID/Info                    : UTF-8 Plain Text
Language                         : English

Menu
00:00:00.000                     : :Chapter 01 Intro
00:00:58.750                     : :Chapter 02 One Vision
00:06:33.875                     : :Chapter 03 Tie Your Mother Down
00:08:31.000                     : :Chapter 04 In the Lap of the Gods... Revisited
00:11:05.000                     : :Chapter 05 Seven Seas of Rhye
00:12:46.083                     : :Chapter 06 Tear It Up
00:14:35.000                     : :Chapter 07 A Kind of Magic
00:21:03.791                     : :Chapter 08 Walk in Budapest
00:24:31.000                     : :Chapter 09 Under Pressure
00:28:07.000                     : :Chapter 10 Who Wants to Live Forever
00:32:09.000                     : :Chapter 11 I Want to Break Free
00:35:11.000                     : :Chapter 12 Guitar Solo
00:38:55.958                     : :Chapter 13 Walk in Budapest
00:41:05.416                     : :Chapter 14 Now I'm Here
00:46:55.833                     : :Chapter 15 Love of My Life
00:49:40.958                     : :Chapter 16 Tavaszi Szet Vizet Araszt
00:51:41.125                     : :Chapter 17 Is This the World We Created. . .?
00:54:09.000                     : :Chapter 18 Tutti Frutti (prelude)
00:55:00.750                     : :Chapter 19 Tutti Frutti
00:57:49.875                     : :Chapter 20 Walk in Budapest
00:59:24.000                     : :Chapter 21 Bohemian Rhapsody
01:04:43.083                     : :Chapter 22 Hammer to Fall
01:08:58.708                     : :Chapter 23 Crazy Little Thing Called Love
01:12:40.500                     : :Chapter 24 Walk in Budapest
01:13:53.958                     : :Chapter 25 Radio Ga Ga
01:20:01.000                     : :Chapter 26 We Will Rock You
01:23:03.625                     : :Chapter 27 Friends Will Be Friends
01:25:04.500                     : :Chapter 28 We Are the Champions
01:28:57.750                     : :Chapter 29 God Save the Queen (Credits)


info [Профиль]  [ЛС] 

Natrez1m

Пол: Пол:Муж

Стаж: 7 лет 3 месяца

Сообщений: 397

Рейтинг

post 13-Ноя-2012 00:40 (спустя 8 часов) [-]0[+]

[Цитировать] 

Потрясный ремастер! Просто супер поработали!

_________________
info [Профиль]  [ЛС] 
Показать сообщения:    
Ответить на тему

Текущее время: 08-Дек 00:17

Часовой пояс: GMT + 4



Вы не можете начинать темы
Вы не можете отвечать на сообщения
Вы не можете редактировать свои сообщения
Вы не можете удалять свои сообщения
Вы не можете голосовать в опросах
Вы не можете прикреплять файлы к сообщениям
Вы не можете скачивать файлы