Ошибка

(Pop) Serebro - Mama Lover - 2012, FLAC (image+.cue)+cover, lossless

Ответить на тему
 
Автор Сообщение

Mindaugas

Пол: Пол:Муж

Стаж: 7 лет 9 месяцев

Сообщений: 39

Европейский Союз
Рейтинг

post 11-Ноя-2012 17:06 0[+]

[Цитировать] 


Serebro - Mama Lover


Страна: Россия
Жанр: Pop
Год выпуска: 2012
Формат: FLAC
Тип рипа: (Image+*cue)
Битрейт аудио: lossless
Полиграфия: Присутствует
Продолжительность: 01:03:50

Трэклист:

01. Paradise (04:24)
02. Like Mary Warner (03:48)
03. Song #1 (03:22)
04. Angel Kiss (04:17)
05. Mama Lover (04:06)
06. Why (03:43)
07. Gun (04:11)
08. Bastard (03:55)
09. Never Be Good (03:14)
10. Sexing You (03:56)
11. What's Your Problem (03:21)
12. Мама Люба (04:06)
13. Мальчик (04:11)
14. Mama Lover (Караоке) (04:08)
15. Sound Sleep (feat. Oma-Vega) (05:11)
16. Angel Kiss (Dubstep Remix) (03:48)
Тех.информация:

Код:

Exact Audio Copy V0.99 prebeta 5 from 4. May 2009

Отчёт EAC об извлечении, выполненном 10. ноября 2012, 3:43

Serebro / Mama Lover

Дисковод: PLEXTOR DVDR   PX-760A   Adapter: 4  ID: 2

Режим чтения                 : Достоверность
Использование точного потока : Да
Отключение кэша аудио        : Да
Использование указателей C2  : Нет

Коррекция смещения при чтении                     : 30
Способность читать области Lead-in и Lead-out     : Нет
Заполнение пропущенных сэмплов тишиной            : Да
Удаление блоков с тишиной в начале и конце        : Нет
При вычислениях CRC использовались нулевые сэмплы : Да
Интерфейс                                         : Встроенный Win32-интерфейс для Win NT/2000

Выходной формат : Внутренние WAV-операции
Формат сэмплов  : 44.100 Гц; 16 бит; стерео

TOC извлечённого CD

     Трек |   Старт  | Длительность | Начальный сектор | Конечный сектор
    ---------------------------------------------------------------------
       1  |  0:00.00 |    4:24.26   |           0      |      19825
       2  |  4:24.26 |    3:48.38   |       19826      |      36963
       3  |  8:12.64 |    3:22.64   |       36964      |      52177
       4  | 11:35.53 |    4:17.56   |       52178      |      71508
       5  | 15:53.34 |    4:06.18   |       71509      |      89976
       6  | 19:59.52 |    3:43.40   |       89977      |     106741
       7  | 23:43.17 |    4:11.36   |      106742      |     125602
       8  | 27:54.53 |    3:55.37   |      125603      |     143264
       9  | 31:50.15 |    3:14.65   |      143265      |     157879
      10  | 35:05.05 |    3:56.73   |      157880      |     175652
      11  | 39:02.03 |    3:21.30   |      175653      |     190757
      12  | 42:23.33 |    4:06.46   |      190758      |     209253
      13  | 46:30.04 |    4:11.36   |      209254      |     228114
      14  | 50:41.40 |    4:08.44   |      228115      |     246758
      15  | 54:50.09 |    5:11.00   |      246759      |     270083
      16  | 60:01.09 |    3:48.67   |      270084      |     287250

Характеристики диапазона извлечения и сообщения об ошибках

Выбранный диапазон

     Имя файла M:\FLAC (bruk67)\MP3\Serebro - Mama Lover (2012)\Serebro - Mama Lover.wav

     Пиковый уровень 100.0 %
     Качество диапазона 99.9 %
     CRC теста 34FF7AF8
     CRC копии 34FF7AF8
     Копирование... OK

Ошибок не произошло

AccurateRip: сводка

Трек  1  нет в базе данных
Трек  2  нет в базе данных
Трек  3  нет в базе данных
Трек  4  нет в базе данных
Трек  5  нет в базе данных
Трек  6  нет в базе данных
Трек  7  нет в базе данных
Трек  8  нет в базе данных
Трек  9  нет в базе данных
Трек 10  нет в базе данных
Трек 11  нет в базе данных
Трек 12  нет в базе данных
Трек 13  нет в базе данных
Трек 14  нет в базе данных
Трек 15  нет в базе данных
Трек 16  нет в базе данных

Ни одного трека нет в базе AccurateRip

Конец отчёта

Код:

REM GENRE Pop
REM DATE 2012
REM DISCID DC0EF610
REM COMMENT "ExactAudioCopy v0.99pb5"
PERFORMER "Serebro"
TITLE "Mama Lover"
FILE "Serebro - Mama Lover.wav" WAVE
  TRACK 01 AUDIO
    TITLE "Paradise"
    PERFORMER "Serebro"
    FLAGS DCP
    INDEX 01 00:00:00
  TRACK 02 AUDIO
    TITLE "Like Mary Warner"
    PERFORMER "Serebro"
    FLAGS DCP
    INDEX 00 04:22:26
    INDEX 01 04:24:26
  TRACK 03 AUDIO
    TITLE "Song #1"
    PERFORMER "Serebro"
    FLAGS DCP
    INDEX 00 08:10:64
    INDEX 01 08:12:64
  TRACK 04 AUDIO
    TITLE "Angel Kiss"
    PERFORMER "Serebro"
    FLAGS DCP
    INDEX 00 11:33:53
    INDEX 01 11:35:53
  TRACK 05 AUDIO
    TITLE "Mama Lover"
    PERFORMER "Serebro"
    FLAGS DCP
    INDEX 00 15:51:34
    INDEX 01 15:53:34
  TRACK 06 AUDIO
    TITLE "Why"
    PERFORMER "Serebro"
    FLAGS DCP
    INDEX 00 19:57:52
    INDEX 01 19:59:52
  TRACK 07 AUDIO
    TITLE "Gun"
    PERFORMER "Serebro"
    FLAGS DCP
    INDEX 00 23:41:17
    INDEX 01 23:43:17
  TRACK 08 AUDIO
    TITLE "Bastard"
    PERFORMER "Serebro"
    FLAGS DCP
    INDEX 00 27:52:53
    INDEX 01 27:54:53
  TRACK 09 AUDIO
    TITLE "Never Be Good"
    PERFORMER "Serebro"
    FLAGS DCP
    INDEX 00 31:48:15
    INDEX 01 31:50:15
  TRACK 10 AUDIO
    TITLE "Sexing You"
    PERFORMER "Serebro"
    FLAGS DCP
    INDEX 00 35:03:05
    INDEX 01 35:05:05
  TRACK 11 AUDIO
    TITLE "What's Your Problem"
    PERFORMER "Serebro"
    FLAGS DCP
    INDEX 00 39:00:03
    INDEX 01 39:02:03
  TRACK 12 AUDIO
    TITLE "Мама Люба"
    PERFORMER "Serebro"
    FLAGS DCP
    INDEX 00 42:21:33
    INDEX 01 42:23:33
  TRACK 13 AUDIO
    TITLE "Мальчик"
    PERFORMER "Serebro"
    FLAGS DCP
    INDEX 00 46:28:04
    INDEX 01 46:30:04
  TRACK 14 AUDIO
    TITLE "Mama Lover (Караоке)"
    PERFORMER "Serebro"
    FLAGS DCP
    INDEX 00 50:39:40
    INDEX 01 50:41:40
  TRACK 15 AUDIO
    TITLE "Sound Sleep (feat. Oma-Vega)"
    PERFORMER "Serebro"
    FLAGS DCP
    INDEX 00 54:48:09
    INDEX 01 54:50:09
  TRACK 16 AUDIO
    TITLE "Angel Kiss (Dubstep Remix)"
    PERFORMER "Serebro"
    FLAGS DCP
    INDEX 00 59:59:09
    INDEX 01 60:01:09
Сканы:


info [Профиль]  [ЛС] 

joshdigit

Пол: Пол:Муж

Стаж: 10 лет

Сообщений: 425

Рейтинг

post 11-Ноя-2012 21:41 (спустя 4 часа) [-]0[+]

[Цитировать] 

Малышки родили второго Улыбаюсь

_________________
OS: Windows 10 x64 • MB: Asus P5KC
CPU: Intel Core2 Quad, Q9550 • GPU: ASUS GeForce GTX660
RAM: OCZ DDR2, 800MHz, 4x2048 MB • HDD: WD5001AALS WD15EARS WD20EZRX WD20EARX
info [Профиль]  [ЛС] 
Показать сообщения:    
Ответить на тему

Текущее время: 14-Авг 20:57

Часовой пояс: GMT + 4



Вы не можете начинать темы
Вы не можете отвечать на сообщения
Вы не можете редактировать свои сообщения
Вы не можете удалять свои сообщения
Вы не можете голосовать в опросах
Вы не можете прикреплять файлы к сообщениям
Вы не можете скачивать файлы