Ошибка

Губка Боб Квадратные Штаны / SpongeBob SquarePants / Сезон: 8 / Серии: 1-16 из 26 (Стивен Хилленбург / Stephen Hillenburg) [2011, Мультипликация, SATRip] Dub

Ответить на тему
 
Автор Сообщение

Slim

Пол: Пол:Муж

Стаж: 6 лет

Сообщений: 22

США
Рейтинг

post 05-Ноя-2012 21:33 4[+]

[Цитировать] 

Губка Боб Квадратные Штаны

Оригинальное название: SpongeBob SquarePants
Год выпуска: 2011
Страна: США
Жанр: Мультипликация
Серия: Серии: 1ab-12ab из 41
Сезон: 8
Продолжительность: ~ 11:00
Перевод: Профессиональный (полное дублирование)
Режиссер:Стивен Хилленбург / Stephen Hillenburg
Описание:
Кто проживает на дне океана? Спанч Боб Сквэр Пэнтс! Или просто Губка Боб квадратные штаны. Этот мультсериал был снят в студии Никелодеон и появился на экранах в 1999 году и сразу завоевал свое место под солнцем. На данный момент я думаю нет такого человека который бы не знал кто такой Губка Боб. Но если все-таки такие есть тогда рассказываю. На глубине океана существует город под названием Бикини Боттом там и происходит все действие. Главного героя зовут Спанч Боб или просто Губка Боб он работает в ресторане мистера Крабса. И уже давно мечтает о повышении. Умом губку само собой аниматоры и сценаристы наделять и не думали, живет себе так и живет.

Качество: SATRip
Формат: AVI
Данные видео: MPEG4, XviD, 704x544 (1.294), 25.000 fps, 1 366 Kbps (0.143 bit/pixel)
Данные аудио: MP3, 44.1 KHz, 2 ch, 128 Kbps, CBR
Семпл : http://multi-up.com/690009
Кинопоиск: http://www.kinopoisk.ru/film/161268/
Внимание! Раздача ведётся путём добавления новых серий; при каждом добавлении создётся новый торрент. Чтобы начать докачку новой серии, пользователям необходимо сделать следующее:
(1) остановить скачивание,
(2) удалить старый торрент у себя из клиента (старые серии удалять не надо),
(3) скачать новый торрент и запустить его у себя в клиенте вместо старого, при этом указать клиенту путь в старую папку куда и должно происходить скачивание новых серий.
Ваш клиент при этом должен произвести хеширование (проверку) старой папки (если не производит сам - помогите ему сделать это), и будет докачивать только те серии которых у вас ещё нет. Старые серии при этом не удаляются, а продолжают раздаваться!
Eсли вы уже удалили старые серии, то предотвратить повторную закачку старых серий можно, отжав галочку в соответсвующих местах при запуске нового торрента. По возможности, желательно не удалять старые серии как можно дольше чтобы релизёр не столько продолжал раздавать старые серии, а смог сконцентрироваться на новых.
Формат : AVI
Формат/Информация : Audio Video Interleave
Размер файла : 201 Мбайт
Продолжительность : 23 м.
Общий поток : 1205 Кбит/сек
Программа кодирования : VirtualDubMod 1.5.10.2 (build 2542/release)
Библиотека кодирования : VirtualDubMod build 2542/release

Видео
Идентификатор : 0
Формат : MPEG-4 Visual
Профиль формата : Advanced Simple@L5
Параметр BVOP формата : 2
Параметр QPel формата : Нет
Параметр GMC формата : Без точки перехода
Параметр матрицы формата : Выборочная
Идентификатор кодека : XVID
Идентификатор кодека/Подсказка : XviD
Продолжительность : 23 м.
Битрейт : 1067 Кбит/сек
Ширина : 704 пикселя
Высота : 544 пикселя
Соотношение сторон : 1,294
Частота кадров : 25,000 кадров/сек
Цветовое пространство : YUV
Субдискретизация насыщенности : 4:2:0
Битовая глубина : 8 бит
Тип развёртки : Прогрессивная
Метод сжатия : С потерями
Бит/(Пиксели*Кадры) : 0.111
Размер потока : 178 Мбайт (89%)
Библиотека кодирования : XviD 1.2.0.dev47 (UTC 2006-11-01)

Аудио
Идентификатор : 1
Формат : MPEG Audio
Версия формата : Version 1
Профиль формата : Layer 3
Идентификатор кодека : 55
Идентификатор кодека/Подсказка : MP3
Продолжительность : 23 м.
Вид битрейта : Постоянный
Битрейт : 128 Кбит/сек
Каналы : 2 канала
Частота : 44,1 КГц
Метод сжатия : С потерями
Размер потока : 21,4 Мбайт (11%)
Выравнивание : Разделение по промежуткам
Продолжительность промежутка : 40 мс. (1,00 видеокадр)
Время предзагрузки промежутка : 500 мс.
s8e01a - Accidents Will Happen
s8e01b - The Other Patty
s8e02a - Drive Thru
s8e02b - The Hot Shot
s8e03a - A Friendly Game
s8e03b - Sentimental Sponge
s8e04ab - Frozen Face-Off
s8e05a - Squidward's School for Grown Ups
s8e05b - Oral Report
s8e06a - Sweet and Sour Squid
s8e06b - The Googly Artiste
s8e07ab - A SquarePants Family Vacation
s8e08a - Patrick's Staycation
s8e08b - Walking the Plankton
s8e09a - Mooncation
s8e09b - Mr Krabs Takes a Vacation
s8e10ab - Ghoul Fools
s8e11a - Mermaid Man Begins
s8e11b - Plankton's Good Eye
s8e12a - Barnacle Face
s8e12b - Pet Sitter Pat










10.11.2012 Добавлены серии:

s8e13ab - House Sittin' For Sandy / Smoothe Jazz At Bikini Bottom

17.11.2012 Добавлены серии:

s8e14ab - Bubble Troubles / The Way Of The Sponge

24.11.2012 Добавлены серии:

s8e15ab - The Krabby Patty That Ate Bikini Bottom / Bubble Buddy Returns

01.12.2012 Добавлены серии:

s8e16ab - Restraining SpongeBob / Fiasco!

info [Профиль]  [ЛС] 

Slim

Пол: Пол:Муж

Стаж: 6 лет

Сообщений: 22

США
Рейтинг

post 05-Ноя-2012 21:45 (спустя 12 минут) [-]1[+]

[Цитировать] 

Раздача возобновлена,скорость отдачи теперь будет более-менее нормальной kolob_111 .Перезалит торент файл,просьба скачавших перекачать заново
info [Профиль]  [ЛС] 

nortan

Пол: Пол:Муж

Стаж: 4 года 1 месяц

Сообщений: 48

Украина
Рейтинг

post 08-Ноя-2012 00:10 (спустя 2 дня 2 часа) [-]0[+]

[Цитировать] 

раздача неплохая, спасибо, буду ждать новых серий
info [Профиль]  [ЛС] 

Psyhedelic

Пол: Пол:Муж

Стаж: 4 года 1 месяц

Сообщений: 468

Россия
Рейтинг

post 01-Дек-2012 04:21 (спустя 23 дня) [-]-4[+]

[Цитировать] 

Присоеденюсь к раздаче. А как тему в закладки добавить чтоли.

_________________
info [Профиль]  [ЛС] 

Slim

Пол: Пол:Муж

Стаж: 6 лет

Сообщений: 22

США
Рейтинг

post 16-Дек-2012 14:43 (спустя 15 дней) [-]0[+]

[Цитировать] 

10.11.2012 Добавлены серии:

s8e13ab - House Sittin' For Sandy / Smoothe Jazz At Bikini Bottom

17.11.2012 Добавлены серии:

s8e14ab - Bubble Troubles / The Way Of The Sponge

24.11.2012 Добавлены серии:

s8e15ab - The Krabby Patty That Ate Bikini Bottom / Bubble Buddy Returns

01.12.2012 Добавлены серии:

s8e16ab - Restraining SpongeBob / Fiasco!

Просьба перекачать торент файл!
info [Профиль]  [ЛС] 

Sam.karahun

Пол: Пол:Муж

Стаж: 7 лет 7 месяцев

Сообщений: 211

Россия
Рейтинг

post 05-Июл-2013 12:57 (спустя 6 месяцев 19 дней) [-]0[+]

[Цитировать] 

когда серии будут добавляться то ?

_________________
[URL=https://autodengi.com/registration/84813][/URL]
info [Профиль]  [ЛС] 
Показать сообщения:    
Ответить на тему

Текущее время: 04-Дек 10:08

Часовой пояс: GMT + 4



Вы не можете начинать темы
Вы не можете отвечать на сообщения
Вы не можете редактировать свои сообщения
Вы не можете удалять свои сообщения
Вы не можете голосовать в опросах
Вы не можете прикреплять файлы к сообщениям
Вы не можете скачивать файлы