Ошибка

Угнать за 60 секунд / Gone in Sixty Seconds (Доминик Сена / Dominic Sena) [2000 г., Боевик, Триллер, Криминал, BD-Remux 1080p]

Ответить на тему
 
Автор Сообщение

aSireal

Пол: Пол:Муж

Стаж: 5 лет 5 месяцев

Сообщений: 46

Россия
Рейтинг

post 21-Окт-2012 13:59 0[+]

[Цитировать] 

Угнать за 60 секунд / Gone in Sixty Seconds

Год выпуска: 2000
Страна:США
Жанр: Боевик, Триллер, Криминал
Продолжительность: 01:57:56
Перевод: Профессиональный (Многоголосый закадровый)
Режиссер: Доминик Сена / Dominic Sena


В ролях:
Николас Кейдж, Анджелина Джоли, Джованни Рибизи, Т.Дж. Кросс, Уильям Ли Скотт, Скотт Каан, Джеймс Дювал, Уилл Паттон, Делрой Линдо, Тимоти Олифэнт, Чи МакБрайд, Роберт Дюваль, Винни Джонс, Кристофер Экклстон, Грэйс Зэбриски, Майк Оуэн, Джейм Бергман, Holiday Hopke, Гарри Ван Горкум, Фрэнсис Фишер, Grace Una


Описание :
Что можно успеть за 60 секунд? Выкурить сигарету или выпить чашку кофе. Но только один профессионал в мире, легендарный вор по кличке Мемфис, может за считанные секунды угнать любой автомобиль.

Однако на этот раз ему предстоит сделать невозможное: чтобы спасти своего брата, Мемфис должен за одну ночь угнать 50 первоклассных машин. Чтобы вырваться из двойного капкана мафии и полиции, он должен следовать одному принципу - не останавливаться...

Доп. информация:
* Николас Кейдж самостоятельно исполнял почти все автомобильные трюки на съёмках фильма.
* В сцене, в которой Сфинкс на Хамере сносит полицейскую машину, не было запланировано, что полицейская машина упадет со ската. Винни Джонсу просто не хватило места, чтобы дать задний ход и он чуть сильнее сдвинул полицейскую машину, из-за чего та рухнула со ската.
* В одном из ранних вариантов сценария, было множество вещей из оригинального фильма. Для примера, перед тем как украсть Элеонор Мемфис должен был замаскироваться под старика, а у Сфинкса не должно было быть носа, что объясняло его кличку.


Релиз от:
Качество: BD-Remux 1080p
Формат: BDAV
Видео кодек: AVC
Аудио кодек: AC3
Видео: 1920x1080 at 23.976 fps, MPEG-4 AVC, ~15.62 Mbps avg
Аудио 1: Russian: 48 kHz, AC3, 3/2 (L,C,R,l,r) + LFE ch, ~384.00 kbps avg |Дубляж, R5|
Аудио 2: Ukrainian: 48 kHz, AC3, 2/0 (L,R) ch, ~256.00 kbps avg |Многоголосый закадровый, 1+1|
Аудио 3: Russian: 48 kHz, DTS, 3/2 (L,C,R,l,r) + LFE ch, ~1536.00 kbps avg |Одноголосый закадровый, А.Гаврилов|
Аудио 4: Russian: 48 kHz/16-bit, DTS-HD MA 5.1, ~2291.00 kbps avg |Одноголосый закадровый, Ю.Живов|
Аудио 5: English: 48 kHz/16-bit, LPCM 5.1, ~4608.00 kbps avg
Аудио 6: English: 48 kHz, AC3, 3/2 (L,C,R,l,r) + LFE ch, ~640.00 kbps avg
Субтитры: Russian, English
Общее
Идентификатор : 1 (0x1)
Полное имя : D:\Фильмы\GI60_RESTORE\BDMV\STREAM\00000.m2ts
Формат : BDAV
Формат/Информация : Blu-ray Video
Размер файла : 22,4 Гбайт
Продолжительность : 1 ч. 57 м.
Режим общего битрейта : Переменный
Общий поток : 27,1 Мбит/сек
Максимальный общий битрейт : 35,5 Мбит/сек

Видео
Идентификатор : 4113 (0x1011)
Идентификатор меню : 1 (0x1)
Формат : AVC
Формат/Информация : Advanced Video Codec
Профиль формата : High@L4.1
Параметр CABAC формата : Да
Параметр ReFrames формата : 2 кадра
Параметр GOP формата : M=3, N=24
Идентификатор кодека : 27
Продолжительность : 1 ч. 57 м.
Вид битрейта : Переменный
Битрейт : 17,1 Мбит/сек
Максимальный битрейт : 40,0 Мбит/сек
Ширина : 1920 пикселей
Высота : 1080 пикселей
Соотношение сторон : 16:9
Частота кадров : 23,976 кадра/сек
Цветовое пространство : YUV
Субдискретизация насыщенности : 4:2:0
Битовая глубина : 8 бит
Тип развёртки : Прогрессивная
Бит/(Пиксели*Кадры) : 0.344
Размер потока : 14,1 Гбайт (63%)

Аудио #1
Идентификатор : 4352 (0x1100)
Идентификатор меню : 1 (0x1)
Формат : AC-3
Формат/Информация : Audio Coding 3
Расширение режима : CM (complete main)
Параметр Endianness формата : Big
Идентификатор кодека : 129
Продолжительность : 1 ч. 57 м.
Вид битрейта : Постоянный
Битрейт : 384 Кбит/сек
Каналы : 6 каналов
Расположение каналов : Front: L C R, Side: L R, LFE
Частота : 48,0 КГц
Битовая глубина : 16 бит
Метод сжатия : С потерями
Размер потока : 324 Мбайт (1%)
Язык : Russian

Аудио #2
Идентификатор : 4353 (0x1101)
Идентификатор меню : 1 (0x1)
Формат : AC-3
Формат/Информация : Audio Coding 3
Расширение режима : CM (complete main)
Параметр Endianness формата : Big
Идентификатор кодека : 129
Продолжительность : 1 ч. 57 м.
Вид битрейта : Постоянный
Битрейт : 256 Кбит/сек
Каналы : 2 канала
Расположение каналов : Front: L R
Частота : 48,0 КГц
Битовая глубина : 16 бит
Метод сжатия : С потерями
Размер потока : 216 Мбайт (1%)
Язык : Ukrainian

Аудио #3
Идентификатор : 4354 (0x1102)
Идентификатор меню : 1 (0x1)
Формат : DTS
Формат/Информация : Digital Theater Systems
Идентификатор кодека : 130
Продолжительность : 1 ч. 57 м.
Вид битрейта : Постоянный
Битрейт : 1510 Кбит/сек
Каналы : 6 каналов
Расположение каналов : Front: L C R, Side: L R, LFE
Частота : 48,0 КГц
Битовая глубина : 16 бит
Метод сжатия : С потерями
Размер потока : 1,24 Гбайт (6%)
Язык : Russian

Аудио #4
Идентификатор : 4355 (0x1103)
Идентификатор меню : 1 (0x1)
Формат : DTS
Формат/Информация : Digital Theater Systems
Профиль формата : MA / Core
Режим смешивания : Stream extension
Идентификатор кодека : 134
Продолжительность : 1 ч. 57 м.
Вид битрейта : Переменный
Битрейт : 1561 Кбит/сек / 1510 Кбит/сек
Каналы : 6 каналов
Расположение каналов : Front: L C R, Side: L R, LFE
Частота : 48,0 КГц
Битовая глубина : 16 бит
Метод сжатия : Без потерь / Lossy
Язык : Russian

Аудио #5
Идентификатор : 4356 (0x1104)
Идентификатор меню : 1 (0x1)
Формат : PCM
Параметр Endianness формата : Big
Параметр Sign формата : Signed
Режим смешивания : Blu-ray
Идентификатор кодека : 128
Продолжительность : 1 ч. 57 м.
Вид битрейта : Постоянный
Битрейт : 4608 Кбит/сек
Каналы : 6 каналов
Расположение каналов : Front: L C R, Side: L R, LFE
Частота : 48,0 КГц
Битовая глубина : 16 бит
Размер потока : 3,80 Гбайт (17%)
Язык : English

Аудио #6
Идентификатор : 4357 (0x1105)
Идентификатор меню : 1 (0x1)
Формат : AC-3
Формат/Информация : Audio Coding 3
Расширение режима : CM (complete main)
Параметр Endianness формата : Big
Идентификатор кодека : 129
Продолжительность : 1 ч. 57 м.
Вид битрейта : Постоянный
Битрейт : 640 Кбит/сек
Каналы : 6 каналов
Расположение каналов : Front: L C R, Side: L R, LFE
Частота : 48,0 КГц
Битовая глубина : 16 бит
Метод сжатия : С потерями
Размер потока : 540 Мбайт (2%)
Язык : English

Текст #1
Идентификатор : 4608 (0x1200)
Идентификатор меню : 1 (0x1)
Формат : PGS
Идентификатор кодека : 144
Язык : Russian

Текст #2
Идентификатор : 4609 (0x1201)
Идентификатор меню : 1 (0x1)
Формат : PGS
Идентификатор кодека : 144
Язык : English
info [Профиль]  [ЛС] 

BestBulleT

Стаж: 4 года 5 месяцев

Сообщений: 58

Рейтинг

post 23-Окт-2012 17:27 (спустя 2 дня 3 часа) [-]0[+]

[Цитировать] 

Хороший фильм
info [Профиль]  [ЛС] 
Показать сообщения:    
Ответить на тему

Текущее время: 11-Дек 08:14

Часовой пояс: GMT + 4



Вы не можете начинать темы
Вы не можете отвечать на сообщения
Вы не можете редактировать свои сообщения
Вы не можете удалять свои сообщения
Вы не можете голосовать в опросах
Вы не можете прикреплять файлы к сообщениям
Вы не можете скачивать файлы