Ошибка

КВН-2012. Высшая лига. Первый полуфинал [2012, Тв-шоу, юмор, SATRip]

Ответить на тему
 
Автор Сообщение

Progum

Пол: Пол:Муж

Стаж: 6 лет 8 месяцев

Сообщений: 389

Предупреждений: 1

СССР
Рейтинг

post 14-Окт-2012 22:13 0[+]

[Цитировать] 

КВН-2012. Высшая лига. Первый полуфинал

Год выпуска: 2012
Страна: Россия
Жанр: Тв-шоу, юмор
Продолжительность: 01:54:14

Играют команды:
«Парапапарам», МГИМО, Москва
Сборная Казахстана
«Раисы», Иркутск
«Триод и Диод», Смоленск

и приглашенные звезды для конкурса СТЭМ:
Вера Брежнева - «Парапапарам»
Тина Канделаки - Сборная Казахстана
Лера Кудрявцева - «Триод и Диод»
Лариса Гузеева - «Раисы»

Качество: SATRip
Формат: AVI
Видео кодек: XviD
Аудио кодек: MP3
Видео: 720x400 25fps 1824kbps
Аудио: 48000Hz stereo 128kbps
Video
ID : 0
Format : MPEG-4 Visual
Format profile : Advanced Simple@L5
Format settings, BVOP : 2
Format settings, QPel : No
Format settings, GMC : No warppoints
Format settings, Matrix : Custom
Codec ID : XVID
Codec ID/Hint : XviD
Duration : 1h 54mn
Bit rate : 1 824 Kbps
Width : 720 pixels
Height : 400 pixels
Display aspect ratio : 16:9
Frame rate : 25.000 fps
Color space : YUV
Chroma subsampling : 4:2:0
Bit depth : 8 bits
Scan type : Progressive
Compression mode : Lossy
Bits/(Pixel*Frame) : 0.253
Stream size : 1.46 GiB (93%)
Writing library : XviD 1.2.1 (UTC 2008-12-04)

Audio
ID : 1
Format : MPEG Audio
Format version : Version 1
Format profile : Layer 3
Mode : Joint stereo
Mode extension : MS Stereo
Codec ID : 55
Codec ID/Hint : MP3
Duration : 1h 54mn
Source duration : 1h 54mn
Bit rate mode : Constant
Bit rate : 128 Kbps
Channel(s) : 2 channels
Sampling rate : 44.1 KHz
Compression mode : Lossy
Stream size : 105 MiB (7%)
Alignment : Aligned on interleaves
Interleave, duration : 40 ms (1.00 video frame)

Releases by Progum
info [Профиль]  [ЛС] 

un1que

Пол: Пол:Муж

Стаж: 6 лет 9 месяцев

Сообщений: 48

СССР
Рейтинг

post 15-Окт-2012 01:11 (спустя 2 часа 57 минут) [-]0[+]

[Цитировать] 

Ухх, наконец-то началось! Спасибо за оперативность!
info [Профиль]  [ЛС] 

ALaN

Пол: Пол:Муж

Стаж: 6 лет 9 месяцев

Сообщений: 149

Россия
Рейтинг

post 15-Окт-2012 05:59 (спустя 4 часа) [-]0[+]

[Цитировать] 

надеюсь, что тупость не победит ))
info [Профиль]  [ЛС] 
Показать сообщения:    
Ответить на тему

Текущее время: 11-Дек 14:01

Часовой пояс: GMT + 4



Вы не можете начинать темы
Вы не можете отвечать на сообщения
Вы не можете редактировать свои сообщения
Вы не можете удалять свои сообщения
Вы не можете голосовать в опросах
Вы не можете прикреплять файлы к сообщениям
Вы не можете скачивать файлы