Ошибка

Время приключений / Adventure Time / 1 сезон / 1-13 (13) (Пендлтон Ворд / Pendleton Ward) [2010 г., мультфильм, фэнтези, комедия, приключения, HDTVRip 1080p]

Ответить на тему
 
Автор Сообщение

Ritsu

Пол: Пол:Муж

Стаж: 5 лет 5 месяцев

Сообщений: 856

Австралия
Рейтинг

post 14-Окт-2012 01:10 3[+]

[Цитировать] 

Время приключений

Оригинальное название: Adventure Time
Год выпуска: 2010
Страна: США
Жанр: мультфильм, фэнтези, комедия, приключения
Серия: Серия 1-13 из 13
Сезон: Первый
Продолжительность: 00:11:00
Перевод: Профессиональный (полное дублирование)

Режиссер:
  • Пендлтон Ворд / Pendleton Ward
В ролях:
  • Джереми Шада
  • Джон Димаджио
  • Хинден Уолш
  • Том Кенни
  • Оливия Олсон

Описание:
Пора Приключений - американский анимационный сериал, созданный Пендлтоном Вордом. Сериал повествует о необыкновенных и весёлых приключениях двух лучших друзей: мальчика Финна и его собаки Джейка. Действие сериала происходит в волшебной стране Ууу. Финн - 13-летний мальчик, который обожает путешествовать и спасать принцесс из лап ужасных монстров и злодеев, населяющих Землю Ууу. Джейк - лучший друг Финна. Это волшебная собака со способностью растягивать своё тело до практически любых размеров и форм. Джейку 28 лет и он исполняет роль эдакого приятеля-наставника Финна, а его волшебные способности помогают мальчику в его борьбе со злом.




Качество: HDTVRip
Формат: MKV
Данные видео: AVC, 1920x1080, 23.976 fps, 4 041 Kbps
Данные аудио: AC3, 48 kHz, 2 channels, 192 kbps - DUB [Cartoon Network]
Данные аудио 2: AC3, 48 kHz, 6 channels, 448 kbps - ENG [Оригинал]
01a. Заварушка на пирушке / Slumber Party Panic
01b. Неладно что-то в Пупырчатом Королевстве / Trouble in Lumpy Space
02a. Заложники любви / Prisoners of Love
02b. Деревяшка / Tree Trunks
03a. Справочник / The Enchiridion
03b. Трясунчик / The Jiggler
04a. Рикардио - свой парень / Ricardio the Heart Guy
04b. Время бизнеса / Business Time
05a. Мои самые любимые друзья / My Two Favorite People
05b. Воспоминания о горе Бум Бум / Memories of Boom Boom Mountain
06a. Волшебник / Wizard
06b. Изгнанные! / Evicted!
07a. Город Воров / City of Thieves
07b. Колдовской Сад / The Witch's Garden
08a. Что такое Жизнь ? / What is Life ?
08b. Океан Страха / Ocean of Fear
09a. Звон Свадебных Колоколов / When Wedding Bells Thaw
09b. Город Чудаков / Freak City
10a. Сторонник / Henchman
10b. Подземелье / Dungeon
11a. Герцог / The Duke
11b. Донни / Donny
12a. Сон в Дождливый день / Rainy Day Daydream
12b. Что Вы наделали / What Have You Done
13a. Его Герой / His Hero
13b. Вор - Потрошитель / Gut Grinder

General
Unique ID : 178009874744807516604975788764338058899 (0x85EB746EDF199CCF89ADC5BB039FF693)
Complete name : G:\Раздачи\Adventure.Time.Season.1.2010.HDTVRip.1080p.DUB.ENG.Sub\Adventure.Time.S01E01a.Slumber.Party.Panic.HDTVRip.1080p.DUB.ENG.Sub.mkv
Format : Matroska
Format version : Version 2
File size : 365 MiB
Duration : 10mn 53s
Overall bit rate mode : Variable
Overall bit rate : 4 683 Kbps
Movie name : 101
Encoded date : UTC 2012-07-13 07:30:12
Writing application : mkvmerge v5.5.0 ('Healer') built on Apr 6 2012 21:43:24
Writing library : libebml v1.2.3 + libmatroska v1.3.0
Video
ID : 1
Format : AVC
Format/Info : Advanced Video Codec
Format profile : High@L4.0
Format settings, CABAC : Yes
Format settings, ReFrames : 3 frames
Codec ID : V_MPEG4/ISO/AVC
Duration : 10mn 53s
Bit rate mode : Variable
Bit rate : 4 041 Kbps
Maximum bit rate : 25.0 Mbps
Width : 1 920 pixels
Height : 1 080 pixels
Display aspect ratio : 16:9
Frame rate : 23.976 fps
Color space : YUV
Chroma subsampling : 4:2:0
Bit depth : 8 bits
Scan type : Progressive
Bits/(Pixel*Frame) : 0.081
Stream size : 307 MiB (84%)
Writing library : x264 core 124 r2197 69a0443
Encoding settings : cabac=1 / ref=3 / deblock=1:0:0 / analyse=0x3:0x113 / me=hex / subme=7 / psy=1 / psy_rd=1.00:0.00 / mixed_ref=1 / me_range=16 / chroma_me=1 / trellis=1 / 8x8dct=1 / cqm=0 / deadzone=21,11 / fast_pskip=1 / chroma_qp_offset=-2 / threads=6 / sliced_threads=0 / nr=0 / decimate=1 / interlaced=0 / bluray_compat=0 / constrained_intra=0 / bframes=3 / b_pyramid=0 / b_adapt=1 / b_bias=0 / direct=1 / weightb=1 / open_gop=0 / weightp=2 / keyint=240 / keyint_min=24 / scenecut=40 / intra_refresh=0 / rc_lookahead=40 / rc=2pass / mbtree=1 / bitrate=4041 / ratetol=1.0 / qcomp=0.60 / qpmin=0 / qpmax=69 / qpstep=4 / cplxblur=20.0 / qblur=0.5 / vbv_maxrate=25000 / vbv_bufsize=25000 / nal_hrd=vbr / ip_ratio=1.40 / aq=1:1.00
Language : English
Default : Yes
Forced : No
Audio #1
ID : 2
Format : AC-3
Format/Info : Audio Coding 3
Mode extension : CM (complete main)
Format settings, Endianness : Big
Codec ID : A_AC3
Duration : 10mn 53s
Bit rate mode : Constant
Bit rate : 192 Kbps
Channel(s) : 2 channels
Channel positions : Front: L R
Sampling rate : 48.0 KHz
Bit depth : 16 bits
Compression mode : Lossy
Delay relative to video : 200ms
Stream size : 14.9 MiB (4%)
Title : DUB
Language : Russian
Default : No
Forced : No
Audio #2
ID : 3
Format : AC-3
Format/Info : Audio Coding 3
Mode extension : CM (complete main)
Format settings, Endianness : Big
Codec ID : A_AC3
Duration : 10mn 53s
Bit rate mode : Constant
Bit rate : 448 Kbps
Channel(s) : 6 channels
Channel positions : Front: L C R, Side: L R, LFE
Sampling rate : 48.0 KHz
Bit depth : 16 bits
Compression mode : Lossy
Stream size : 34.9 MiB (10%)
Language : English
Default : Yes
Forced : No
Text
ID : 4
Format : ASS
Codec ID : S_TEXT/ASS
Codec ID/Info : Advanced Sub Station Alpha
Compression mode : Lossless
Title : [Tanis]
Language : Russian
Default : No
Forced : No

info [Профиль]  [ЛС] 

Dansheggg

Пол: Пол:Муж

Стаж: 5 лет 3 месяца

Сообщений: 5

Россия
Рейтинг

post 15-Окт-2012 00:41 (спустя 23 часа) [-]0[+]

[Цитировать] 

Качайте же, ну)

_________________
Dansheggg
info [Профиль]  [ЛС] 

ZerotakerZX

Стаж: 5 лет 4 месяца

Сообщений: 717

Рейтинг

post 16-Окт-2012 09:53 (спустя 1 день 9 часов) [-]-3[+]

[Цитировать] 

Субтитр первого скрина отбивает всякое желание. Как и последняя картинка в оформлении.
info [Профиль]  [ЛС] 

enzx

Пол: Пол:Муж

Стаж: 7 лет 1 месяц

Сообщений: 10

Россия
Рейтинг

post 16-Окт-2012 11:20 (спустя 1 час 26 минут) [-]1[+]

[Цитировать] 

Мульт хороший, но субтитры явно не в тему.

_________________
- Ничего не поделаешь, - возразил Кот. - Все мы здесь не в своем уме - и ты, и я!
- Откуда Вы знаете, что я не в своем уме? - Спросила Алиса.
- Конечно, не в своем, - ответил Кот. - Иначе как бы ты здесь оказалась?
© Л. Кэрролл
info [Профиль]  [ЛС] 

Ritsu

Пол: Пол:Муж

Стаж: 5 лет 5 месяцев

Сообщений: 856

Австралия
Рейтинг

post 16-Окт-2012 16:18 (спустя 4 часа) [-]0[+]

[Цитировать] 

ZerotakerZX писал(а):

Субтитр первого скрина отбивает всякое желание. Как и последняя картинка в оформлении.
Фу таким быть.
Субтитны можно отключать и ставить дубляж.

enzx писал(а):

субтитры явно не в тему
Какие есть :3
Опять же, присутствует дубляж.

_________________
Флудите вместе с Рицу и будет вам счастье! ^__^

"...Зажжем рок в этой дыре!.."
info [Профиль]  [ЛС] 

_scsi_

Пол: Пол:Муж

Стаж: 6 лет 8 месяцев

Сообщений: 501

Предупреждений: 1

СССР
Рейтинг

post 22-Окт-2012 15:13 (спустя 5 дней) [-]2[+]

[Цитировать] 

даешь второй сезон! =)
info [Профиль]  [ЛС] 

Ritsu

Пол: Пол:Муж

Стаж: 5 лет 5 месяцев

Сообщений: 856

Австралия
Рейтинг

post 24-Окт-2012 00:43 (спустя 1 день 9 часов) [-]0[+]

[Цитировать] 

scsiman писал(а):

даешь второй сезон! =)
В субботу будет :3
Хотя может и раньше запилю, только там качество не такое будет Грущу

_________________
Флудите вместе с Рицу и будет вам счастье! ^__^

"...Зажжем рок в этой дыре!.."
info [Профиль]  [ЛС] 

DrTenma

Стаж: 2 года 7 месяцев

Сообщений: 10

Рейтинг

post 11-Ноя-2015 00:24 (спустя 3 года) [-]0[+]

[Цитировать] 

Серия 9б на второй минуте повреждена и улетает на 10-ую минуту((
info [Профиль]  [ЛС] 

Daniel_Ribeiro

Пол: Пол:Муж

Стаж: 3 года 1 месяц

Сообщений: 7

Россия
Рейтинг

post 27-Ноя-2015 15:42 (спустя 16 дней) [-]0[+]

[Цитировать] 

Ребят дайте раздачу....

_________________
WAVE
info [Профиль]  [ЛС] 
Показать сообщения:    
Ответить на тему

Текущее время: 03-Дек 23:52

Часовой пояс: GMT + 4



Вы не можете начинать темы
Вы не можете отвечать на сообщения
Вы не можете редактировать свои сообщения
Вы не можете удалять свои сообщения
Вы не можете голосовать в опросах
Вы не можете прикреплять файлы к сообщениям
Вы не можете скачивать файлы