Ошибка

101 далматинец / One Hundred and One Dalmatians (Клайд Джероними / Clyde Geronimi, Хэмильтон Ласки / Hamilton Luske, Вольфганг Райтерман / Wolfgang Reitherman) [ 1961 , мультфильм, приключения, семейный , BDRip 720p ]

Ответить на тему
 
Автор Сообщение

Valter2009

Пол: Пол:Муж

Стаж: 4 года 2 месяца

Сообщений: 41

Россия
Рейтинг

post 06-Окт-2012 21:07 1[+]

[Цитировать] 

101 далматинец
One Hundred and One Dalmatians
«One great big ONEderful motion picture»

Страна: США
Жанр: мультфильм, приключения, семейный
Год выпуска: 1961
Продолжительность: 01:19:16
Субтитры: русские, английские, английские (SDH)
Релиз от:
Режиссер: Клайд Джероними / Clyde Geronimi, Хэмильтон Ласки / Hamilton Luske, Вольфганг Райтерман / Wolfgang Reitherman

В ролях:
Род Тейлор (Pongo, озвучка), Дж. Пэт О’Мэлли (Colonel / Jasper, озвучка), Бетти Лу Джерсон (Cruella De Vil / Miss Birdwell, озвучка), Марта Вентуорф (Nanny / Queenie / Lucy, озвучка), Бен Райт (Roger, озвучка), Кейт Бауэр (Perdita, озвучка), Дэвид Фрэнкхэм (Sgt. Tibs, озвучка), Фредерик Уорлок (Horace / Inspector Craven, озвучка), Лиза Дэвис (Anita, озвучка), Том Конуэй (Quizmaster / Collie, озвучка), Тудор Оуэн (Towser, озвучка), Джордж Пеллинг (Danny, озвучка)

Дублёры: Борис Хасанов (Pongo), Николай Федорцов (Colonel), Геннадий Бачинский (Jasper), Амалия Мордвинова (Cruella De Vil / Miss Birdwell), Людмила Ксенофонтова (Nanny / Queenie / Lucy), Майя Блинова (Lucy), Владимир Маслаков (Roger), Ольга Ефимова (Perdita), Сергей Дьячков (Sgt. Tibs), Сергей Стиллавин (Horace / Inspector Craven), Татьяна Михалевкина (Anita), Анатолий Дубанов

Бюджет: $4 000 000
Сборы в мире: $215 880 014

Мировая премьера: 25 января 1961
Релиз на DVD: 29 января 2009, «Уолт Дисней Компани СНГ»
Релиз на Blu-ray: 7 августа 2012, «Уолт Дисней Компани СНГ»
Трогательная и невероятно интригующая история поиска и спасения щенят далматинских догов, которые были похищены у своих хозяев по приказу злобной фурии Круэллы Де Вил.
Алчная модница задумала сшить себе пятнистый меховой наряд из шкурок бедных малюток. Однако животные, объединившись, ухитряются проучить ее.

MPAA: G - Нет возрастных ограничений
Качество: BDRip
Контейнер: MKV
Видео: 960x720 at 23.976 fps, x264@L4.1, crf, ~2.8 Mbps avg
Аудио#1: Russian: 48 kHz, AC3, 3/2 (L,C,R,l,r) + LFE ch, ~448.00 kbps avg |Дубляж|
Аудио#2: Russian: 48 kHz, AC3, 2/0 (L,R) ch, ~192.00 kbps avg |Многоголосый закадровый, DVD Magic|
Аудио#3: Russian: 48 kHz, AC3, 2/0 (L,R) ch, ~192.00 kbps avg |Двухголосый закадровый, Светла|
Аудио#4: Russian: 48 kHz, DTS, 3/2 (L,C,R,l,r) + LFE ch, ~1510.00 kbps avg |Одноголосый закадровый, А. Гаврилов|
Аудио#5: Russian: 48 kHz, DTS, 3/2 (L,C,R,l,r) + LFE ch, ~1510.00 kbps avg |Одноголосый закадровый, П. Гланц|
Аудио#6: Russian: 48 kHz, AC3, 2/0 (L,R) ch, ~192.00 kbps avg |Одноголосый закадровый, А. Михалев|
Аудио#7: Ukrainian: 48 kHz, AC3, 2/0 (L,R) ch, ~256.00 kbps avg |Дубляж, Новий канал|
Аудио#8: English: 48 kHz, DTS, 3/2 (L,C,R,l,r) + LFE ch, ~1510.00 kbps avg
Субтитры: Russian, English, English(SDH)
Навигация по главам: есть
General
Unique ID : 216320688843091936447173052701527624900 (0xA2BDD966B361B002A101B63F5595CCC4)
Complete name : I:\Фильмы High Definition\Мультфильмы\101 далматинец (1961) 720p BDRip\One.Hundred.and.One.Dalmatians.1961.720p.BluRay.6xRus.Ukr.Eng.HDCLUB.mkv
Format : Matroska
Format version : Version 2
File size : 4.75 GiB
Duration : 1h 19mn
Overall bit rate : 8 574 Kbps
Movie name : One Hundred and One Dalmatians (1961) - Release for HDCLUB
Encoded date : UTC 2012-10-05 14:54:53
Writing application : mkvmerge v3.4.0 ('Rapunzel') сборка от May 15 2010 09:38:20
Writing library : libebml v0.8.0 + libmatroska v0.9.0

Video
ID : 1
Format : AVC
Format/Info : Advanced Video Codec
Format profile : High@L4.1
Format settings, CABAC : Yes
Format settings, ReFrames : 12 frames
Codec ID : V_MPEG4/ISO/AVC
Duration : 1h 19mn
Bit rate : 2 595 Kbps
Width : 960 pixels
Height : 720 pixels
Display aspect ratio : 4:3
Frame rate : 23.976 fps
Color space : YUV
Chroma subsampling : 4:2:0
Bit depth : 8 bits
Scan type : Progressive
Bits/(Pixel*Frame) : 0.157
Stream size : 1.44 GiB (30%)
Writing library : x264 core 125 r2208kMod d9d2288
Encoding settings : cabac=1 / ref=12 / deblock=1:-3:-3 / analyse=0x3:0x113 / me=umh / subme=11 / psy=1 / fade_compensate=0.00 / psy_rd=0.60:0.00 / mixed_ref=1 / me_range=16 / chroma_me=1 / trellis=2 / 8x8dct=1 / cqm=0 / deadzone=21,11 / fast_pskip=0 / chroma_qp_offset=-2 / threads=6 / lookahead_threads=1 / sliced_threads=0 / nr=0 / decimate=0 / interlaced=0 / bluray_compat=0 / constrained_intra=0 / bframes=8 / b_pyramid=2 / b_adapt=2 / b_bias=0 / direct=3 / weightb=1 / open_gop=0 / weightp=2 / keyint=250 / keyint_min=23 / scenecut=40 / intra_refresh=0 / rc_lookahead=40 / rc=crf / mbtree=1 / crf=18.0000 / qcomp=0.80 / qpmin=0 / qpmax=69 / qpstep=4 / ip_ratio=1.30 / aq=1:1.20
Language : English
Default : No
Forced : No

Audio #1
ID : 2
Format : AC-3
Format/Info : Audio Coding 3
Mode extension : CM (complete main)
Codec ID : A_AC3
Duration : 1h 19mn
Bit rate mode : Constant
Bit rate : 448 Kbps
Channel(s) : 6 channels
Channel positions : Front: L C R, Side: L R, LFE
Sampling rate : 48.0 KHz
Bit depth : 16 bits
Compression mode : Lossy
Stream size : 254 MiB (5%)
Title : Дубляж
Language : Russian
Default : Yes
Forced : No

Audio #2
ID : 3
Format : AC-3
Format/Info : Audio Coding 3
Mode extension : CM (complete main)
Codec ID : A_AC3
Duration : 1h 19mn
Bit rate mode : Constant
Bit rate : 192 Kbps
Channel(s) : 2 channels
Channel positions : Front: L R
Sampling rate : 48.0 KHz
Bit depth : 16 bits
Compression mode : Lossy
Stream size : 109 MiB (2%)
Title : Многоголосый закадровый, DVD Magic
Language : Russian
Default : No
Forced : No

Audio #3
ID : 4
Format : AC-3
Format/Info : Audio Coding 3
Mode extension : CM (complete main)
Codec ID : A_AC3
Duration : 1h 19mn
Bit rate mode : Constant
Bit rate : 192 Kbps
Channel(s) : 2 channels
Channel positions : Front: L R
Sampling rate : 48.0 KHz
Bit depth : 16 bits
Compression mode : Lossy
Stream size : 109 MiB (2%)
Title : Двухголосый закадровый, Светла
Language : Russian
Default : No
Forced : No

Audio #4
ID : 5
Format : DTS
Format/Info : Digital Theater Systems
Codec ID : A_DTS
Duration : 1h 19mn
Bit rate mode : Constant
Bit rate : 1 510 Kbps
Channel(s) : 6 channels
Channel positions : Front: L C R, Side: L R, LFE
Sampling rate : 48.0 KHz
Bit depth : 24 bits
Compression mode : Lossy
Stream size : 856 MiB (18%)
Title : Одноголосый закадровый, А. Гаврилов
Language : Russian
Default : No
Forced : No

Audio #5
ID : 6
Format : DTS
Format/Info : Digital Theater Systems
Codec ID : A_DTS
Duration : 1h 19mn
Bit rate mode : Constant
Bit rate : 1 510 Kbps
Channel(s) : 6 channels
Channel positions : Front: L C R, Side: L R, LFE
Sampling rate : 48.0 KHz
Bit depth : 24 bits
Compression mode : Lossy
Stream size : 856 MiB (18%)
Title : Одноголосый закадровый, П. Гланц
Language : Russian
Default : No
Forced : No

Audio #6
ID : 7
Format : AC-3
Format/Info : Audio Coding 3
Mode extension : CM (complete main)
Codec ID : A_AC3
Duration : 1h 19mn
Bit rate mode : Constant
Bit rate : 192 Kbps
Channel(s) : 2 channels
Channel positions : Front: L R
Sampling rate : 48.0 KHz
Bit depth : 16 bits
Compression mode : Lossy
Stream size : 109 MiB (2%)
Title : Одноголосый закадровый, А. Михалев
Language : Russian
Default : No
Forced : No

Audio #7
ID : 8
Format : AC-3
Format/Info : Audio Coding 3
Mode extension : CM (complete main)
Codec ID : A_AC3
Duration : 1h 19mn
Bit rate mode : Constant
Bit rate : 256 Kbps
Channel(s) : 2 channels
Channel positions : Front: L R
Sampling rate : 48.0 KHz
Bit depth : 16 bits
Compression mode : Lossy
Stream size : 145 MiB (3%)
Title : Дубляж, Новий канал
Language : Ukrainian
Default : No
Forced : No

Audio #8
ID : 9
Format : DTS
Format/Info : Digital Theater Systems
Codec ID : A_DTS
Duration : 1h 19mn
Bit rate mode : Constant
Bit rate : 1 510 Kbps
Channel(s) : 6 channels
Channel positions : Front: L C R, Side: L R, LFE
Sampling rate : 48.0 KHz
Bit depth : 24 bits
Compression mode : Lossy
Stream size : 856 MiB (18%)
Language : English
Default : No
Forced : No

Text #1
ID : 10
Format : UTF-8
Codec ID : S_TEXT/UTF8
Codec ID/Info : UTF-8 Plain Text
Language : Russian
Default : No
Forced : No

Text #2
ID : 11
Format : UTF-8
Codec ID : S_TEXT/UTF8
Codec ID/Info : UTF-8 Plain Text
Language : English
Default : No
Forced : No

Text #3
ID : 12
Format : UTF-8
Codec ID : S_TEXT/UTF8
Codec ID/Info : UTF-8 Plain Text
Title : SDH
Language : English
Default : No
Forced : No

Menu
00:00:00.000 : en:Chapter 1
00:04:18.300 : en:Chapter 2
00:06:31.683 : en:Chapter 3
00:12:32.293 : en:Chapter 4
00:16:31.866 : en:Chapter 5
00:22:28.472 : en:Chapter 6
00:27:21.473 : en:Chapter 7
00:33:22.500 : en:Chapter 8
00:37:45.263 : en:Chapter 9
00:40:54.077 : en:Chapter 10
00:50:11.508 : en:Chapter 11
00:57:39.081 : en:Chapter 12
01:04:15.477 : en:Chapter 13
01:09:08.311 : en:Chapter 14
01:16:06.604 : en:Chapter 15
01:18:44.762 : en:Chapter 16
info [Профиль]  [ЛС] 

SERAFIM

Пол: Пол:Муж

Стаж: 6 лет 2 месяца

Сообщений: 131

Предупреждений: 1

Россия
Рейтинг

post 07-Окт-2012 02:28 (спустя 5 часов) [-]0[+]

[Цитировать] 

Спасибо, классный мульт из детства

_________________
info [Профиль]  [ЛС] 

Flammelpg

Пол: Пол:Муж

Стаж: 4 года 8 месяцев

Сообщений: 1

Япония
Рейтинг

post 04-Янв-2013 11:14 (спустя 2 месяца 28 дней) [-]0[+]

[Цитировать] 

...дайте скачать мульт, премного благодарен!
info [Профиль]  [ЛС] 
Показать сообщения:    
Ответить на тему

Текущее время: 03-Дек 08:45

Часовой пояс: GMT + 4



Вы не можете начинать темы
Вы не можете отвечать на сообщения
Вы не можете редактировать свои сообщения
Вы не можете удалять свои сообщения
Вы не можете голосовать в опросах
Вы не можете прикреплять файлы к сообщениям
Вы не можете скачивать файлы