Ошибка

Меч чужака / Sword of the Stranger [Movie][2007][приключения, самурайский боевик][BDRip][720p][Любительский(JAP+SUB)]

Ответить на тему
 
Автор Сообщение

Witcher

Пол: Пол:Муж

Стаж: 7 лет 8 месяцев

Сообщений: 6196

Рейтинг

post 28-Сен-2012 00:21 0[+]

[Цитировать] 

pic="http://s002.youpic.su/pictures/1348603200/e71104e37bae9bb1aba867f04909a782.jpg"
Меч чужака
Sword of the Stranger | ストレンヂア 無皇刃譚

«Some men kill in order to live. Some don't need a reason...»

Год: 2007
Премьера: 29.09.2007
Страна:
Жанр: приключения, самурайский боевик
Тип: полнометражный фильм, 01:42:08
Озвучка:
  • Любительская (одноголосая) [Cuba77]
  • Любительская (одноголосая) [Animegroup]
  • Любительская (одноголосая) [А. Воронов]
  • Любительская (многоголосая) [Shinobi]
Субтитры: Присутствуют (внутренние) -
Навигация по главам: Отсутствует
Режиссёр: Андо Масахиро
Сценарий: Такаяма Фумихико
Студия: BONES

Описание:
  Маленький мальчик, чьим единственным другом остаётся верный пёс, удирает от погони. За ним охотятся люди местного князя, который вступил в сделку с посланцами из Китая. Никто не знает, что нужно странным чужакам, но они платят золотом, поэтому рабочие целыми днями трудятся над постройкой странного сооружения, а воины прочёсывают ближайшие деревни. Между тем их добыча находит себе защитника: странного мужчину со шрамами на лице. Его меч крепко привязан к ножнам, но даже с таким полуоружием незнакомец остаётся опасным противником. Он нанимается проводить мальчика до храма, где беглец ожидает найти убежище, однако эта работа оказывается более важной для телохранителя, чем это казалось поначалу…

  Полнометражный фильм студии BONES состоит не только из сражений и схваток, хотя им отведено немало времени. Самое главное здесь не экшен и динамичное кровопролитие, а поиск своего места в жизни, который касается каждого. Дружба и преданность, цели, которые ведут людей, и пустота в душе, которой некуда стремиться, жажда бессмертия и простое желание просто дожить до следующего дня – всё это воплощено в сюжетных линиях картины.
© Расселл Д. Джонс, World Art

Cубтитры:
  • BakaNyaka, KAnycTA - стилизация Witcher (.ass)

Качество: BDRip [THORA] | Хардсаб: Нет | Формат: MKV
: H.264 | 1280х720 (16:9) | 23,976 fps | ~ 3095 Kbps
:
  • JP - DTS | 6 ch | 48 KHz | ~ 1536 Kbps
  • RU - DTS | 6 ch | 48 KHz | ~ 1536 Kbps - [А. Воронов] - отдельно
  • RU - AC3 | 6 ch | 48 KHz | ~ 384 Kbps - [Shinobi] - отдельно
  • RU - MP3 | 2 ch | 48 KHz | ~ 128 Kbps - [Cuba77] - отдельно
  • RU - MP3 | 2 ch | 48 KHz | ~ 128 Kbps - [Animegroup] - отдельно

Формат : Matroska
Версия формата : Version 2
Размер файла : 3,43 Гбайт
Продолжительность : 1 ч. 42 м.
Общий поток : 4810 Кбит/сек
Название фильма : Sword of the Stranger | Меч чужака - Witcher
Дата кодирования : UTC 2012-09-27 19:59:03
Программа кодирования : mkvmerge v5.8.0 ('No Sleep / Pillow') built on Sep 2 2012 15:37:04
Библиотека кодирования : libebml v1.2.3 + libmatroska v1.3.0
Attachment : Yes / Yes / Yes / Yes / Yes / Yes / Yes / Yes / Yes / Yes / Yes / Yes / Yes / Yes / Yes / Yes / Yes / Yes / Yes / Yes / Yes / Yes / Yes

Видео
Идентификатор : 1
Формат : AVC
Формат/Информация : Advanced Video Codec
Профиль формата : High@L5.1
Параметр CABAC формата : Да
Параметр ReFrames формата : 10 кадров
Идентификатор кодека : V_MPEG4/ISO/AVC
Продолжительность : 1 ч. 42 м.
Битрейт : 3204 Кбит/сек
Номинальный битрейт : 4732 Кбит/сек
Ширина : 1280 пикселей
Высота : 720 пикселей
Соотношение сторон : 16:9
Частота кадров : 23,976 кадра/сек
Цветовое пространство : YUV
Субдискретизация насыщенности : 4:2:0
Битовая глубина : 8 бит
Тип развёртки : Прогрессивная
Бит/(Пиксели*Кадры) : 0.145
Размер потока : 2,29 Гбайт (67%)
Заголовок : Sword of the Stranger | Меч чужака
Библиотека кодирования : x264 core 59 r851M e11ef38
Настройки программы : cabac=1 / ref=10 / deblock=1:-3:-3 / analyse=0x3:0x133 / me=umh / subme=7 / me-prepass=0 / brdo=1 / mixed_ref=1 / me_range=16 / chroma_me=1 / trellis=0 / 8x8dct=1 / cqm=2 / deadzone=21,11 / chroma_qp_offset=0 / threads=6 / nr=0 / decimate=1 / mbaff=0 / fgo=2 / bframes=10 / b_pyramid=1 / b_adapt=1 / b_bias=0 / direct=1 / wpredb=1 / bime=1 / keyint=250 / keyint_min=25 / scenecut=40(pre) / rc=2pass / bitrate=4732 / ratetol=1.0 / rceq='blurCplx^(1-qComp)' / qcomp=1.00 / qpmin=8 / qpmax=51 / qpstep=4 / cplxblur=20.0 / qblur=0.5 / vbv_maxrate=15000 / vbv_bufsize=12000 / ip_ratio=1.40 / pb_ratio=1.24 / aq=2:0.90
Язык : Japanese
Default : Да
Forced : Нет

Аудио
Идентификатор : 2
Формат : DTS
Формат/Информация : Digital Theater Systems
Идентификатор кодека : A_DTS
Продолжительность : 1 ч. 42 м.
Вид битрейта : Постоянный
Битрейт : 1510 Кбит/сек
Каналы : 6 каналов
Расположение каналов : Front: L C R, Side: L R, LFE
Частота : 48,0 КГц
Битовая глубина : 24 бит
Метод сжатия : С потерями
Размер потока : 1,08 Гбайт (31%)
Язык : Japanese
Default : Да
Forced : Нет

Текст #1
Идентификатор : 3
Формат : ASS
Идентификатор кодека : S_TEXT/ASS
Идентификатор кодека/Информация : Advanced Sub Station Alpha
Метод сжатия : Без потерь
Язык : English
Default : Нет
Forced : Нет

Текст #2
Идентификатор : 4
Формат : ASS
Идентификатор кодека : S_TEXT/ASS
Идентификатор кодека/Информация : Advanced Sub Station Alpha
Метод сжатия : Без потерь
Заголовок : BakaNyaka
Язык : Russian
Default : Нет
Forced : Нет

Текст #3
Идентификатор : 5
Формат : ASS
Идентификатор кодека : S_TEXT/ASS
Идентификатор кодека/Информация : Advanced Sub Station Alpha
Метод сжатия : Без потерь
Заголовок : BakaNyaka, Witcher
Язык : Russian
Default : Да
Forced : Нет
  • от раздачи HaTreDI
    • Альтернативная озвучка

© Оформление by Witcher
info [Профиль]  [ЛС] 

Witcher

Пол: Пол:Муж

Стаж: 7 лет 8 месяцев

Сообщений: 6196

Рейтинг

post 28-Сен-2012 00:23 (спустя 1 минута) [-]1[+]

[Цитировать] 

Рекомендую к просмотру...

_________________
Темы не проверяю, для этого есть модераторы.
info [Профиль]  [ЛС] 

sexpis

Стаж: 6 лет 7 месяцев

Сообщений: 31

Россия
Рейтинг

post 28-Сен-2012 00:34 (спустя 11 минут) [-]0[+]

[Цитировать] 

Весьма достойная вещица.
info [Профиль]  [ЛС] 

FranzFerdinand

Пол: Пол:Муж

Стаж: 7 лет 8 месяцев

Сообщений: 582

Украина
Рейтинг

post 28-Сен-2012 00:36 (спустя 2 минуты) [-]0[+]

[Цитировать] 

Качаю, спасибо!

_________________
info [Профиль]  [ЛС] 

Witcher

Пол: Пол:Муж

Стаж: 7 лет 8 месяцев

Сообщений: 6196

Рейтинг

post 28-Сен-2012 09:34 (спустя 8 часов) [-]0[+]

[Цитировать] 

Пока без инета сижу... как дадут - пойдёт раздача

_________________
Темы не проверяю, для этого есть модераторы.
info [Профиль]  [ЛС] 

SkyIse

Пол: Пол:Муж

Стаж: 6 лет 8 месяцев

Сообщений: 278

Япония
Рейтинг

post 28-Сен-2012 11:59 (спустя 2 часа 25 минут) [-]0[+]

[Цитировать] 

что то в этом духе есть?

_________________
info [Профиль]  [ЛС] 

Rafle

Пол: Пол:Муж

Стаж: 5 лет 5 месяцев

Сообщений: 68

Россия
Рейтинг

post 28-Сен-2012 14:45 (спустя 2 часа 45 минут) [-]0[+]

[Цитировать] 

SkyIse еще клевая ,но довольно жестокая и мрачноватая анимэха Шигуруй: Одержимые смертью, а так последнее время сам незнаю, что посмотреть)))есть какие предложения??? xD
info [Профиль]  [ЛС] 

Songrain

Пол: Пол:Муж

Стаж: 5 лет 1 месяц

Сообщений: 18

Россия
Рейтинг

post 28-Сен-2012 22:05 (спустя 7 часов) [-]0[+]

[Цитировать] 

Хорошая анимеха
info [Профиль]  [ЛС] 

VlaDai

Пол: Пол:Муж

Стаж: 5 лет 5 месяцев

Сообщений: 1051

Россия
Рейтинг

post 29-Сен-2012 19:26 (спустя 21 час) [-]0[+]

[Цитировать] 

Witcher
Огромное спасибо, настолько великолепное аниме. Всё просто замечательно, начиная музыкой и заканчивая сюжетом и атмосферой. Шедеврально, больше нечего сказать.

_________________
Слушаю митол и читаю мангу - айко наркоман.
info [Профиль]  [ЛС] 

Кнут Гамуссон

Пол: Пол:Муж

Стаж: 7 лет 4 месяца

Сообщений: 1255

Предупреждений: 1

СССР
Рейтинг

post 01-Окт-2012 15:48 (спустя 1 день 20 часов) [-]0[+]

[Цитировать] 

Ну давайте, насоветуйте мне ещё тех же щщей, но погуще?! Шигуруи и ганц не предлагать.
info [Профиль]  [ЛС] 
Показать сообщения:    
Ответить на тему

Текущее время: 07-Дек 14:44

Часовой пояс: GMT + 4



Вы не можете начинать темы
Вы не можете отвечать на сообщения
Вы не можете редактировать свои сообщения
Вы не можете удалять свои сообщения
Вы не можете голосовать в опросах
Вы не можете прикреплять файлы к сообщениям
Вы не можете скачивать файлы