Ошибка

Соседи! / Tonagura! [TV][01-13 из 13][2006][Комедия, Романтика, Этти][DVDRip][Любительский (JAP+SUB)]

Ответить на тему
 
Автор Сообщение

iSenjeru

Пол: Пол:Муж

Стаж: 5 лет 5 месяцев

Сообщений: 390

Казахстан
Рейтинг

post 15-Сен-2012 20:09 1[+]

[Цитировать] 



Tonagura! || Соседи!

pic="http://pics.kz/i1/58/0d/580dffe810d023fdd4112193ff235aaf.png"
Год выпуска: 2006
Страна:
Режиссер: Абэ Тацуя
Студия:
Жанр: Комедия, Романтика, Этти
Перевод: Озвучка + Субтитры
Продолжительность:
  • Сериал: 13 эпизодов х 25 мин

Озвучка:
  • Сериал: Одноголосая от - [Nikolass] - [1 - 6]
  • Сериал: Одноголосая от - [Cuba77] - [7 - 13]

Хардсаб: Нет
Описание:
Арисака Кадзуки учится в первом классе старшей школы, но все еще лелеет в памяти свою детскую любовь – соседского мальчика Юдзи. Семьи Арисака и Кагура жили по соседству, окна в окна, и дети – Кадзуки и Юдзи, Мари и Хацунэ – играли все вместе. Потом родители Юдзи переехали, а Кадзуки десять лет вспоминала своего лучшего друга и берегла так и не врученную ему любовную записку.

И вот – о, чудо, о, исполнение надежд!!! – Юдзи Кагура возвращается в свой прежний дом. У Кадзуки появится долгожданная возможность отдать ему письмо и открыть сердце... для нее десять лет минули незаметно. Но не для Юдзи – он вырос, возмужал и тяжело переносит юношескую гормональную революцию. Так что вместо нежного мальчика через балкон от Кадзуки поселяется всерьез озабоченный подросток...
© Hollow, World Art

Информационные ссылки: AniDB || World Art
Сериал:
Качество: DVDRip (рип от [ANE])
Формат: MKV
Видео кодек: H.264
Аудио кодек: AC3, MP3
  • H.264 | 1024x576(16:9) | ~2000 kbps | 23.976 fps | 0.132 b\px

  • AC3 | 48 KHz | 2ch | ~450 Kbps - [Original Japanese]
  • MP3 | 48 KHz | 2ch | 128 Kbps - [Nikolass] (отдельным файлом)
  • MP3 | 48 KHz | 2ch | 128 Kbps - [Cuba77] (отдельным файлом)
Субтитры:
  • [Witwood] - [13 из 13]

01. A 30cm Unrequited Love
02. Aloof Kazuki And The Apron Of Temptation
03. Smart Yuuji And Startled Kazuki
04. Nya~
05. Let's Break Up!!
06. Hugging Princess?
07. Strongest☆Invincible My Sister
08. Kazuki x Hatsune Swimming Showdown
09. Are You By Any Chance, Jealous?
10. It's A Bikini? Everyone Gathers
11. Yukata And Fireworks And A Broken Sandal Strap
12. A Letter To Yuuji And Memories From Ten Years Ago
13. Veranda And Paper Planes

Код:

Общее
Уникальный идентификатор                 : 247686168111902129700431546939605668276 (0xBA569EEC998364CEA9F3843E792A51B4)
Полное имя                               : C:\Anime\Tonagura! (DVDRip)\[Hoodlum] Tonagura! 01 (DVD 1024x576 x264 AC-3).mkv
Формат                                   : Matroska
Версия формата                           : Version 2
Размер файла                             : 392 Мбайт
Продолжительность                        : 23 м.
Общий поток                              : 2313 Кбит/сек
Название фильма                          : [Hoodlum] Tonagura! 01 (DVD 1024x576 x264 AC-3)
Дата кодирования                         : UTC 2010-08-16 01:26:05
Программа кодирования                    : mkvmerge v3.4.0 ('Rapunzel') built on May 15 2010 09:38:20
Библиотека кодирования                   : libebml v0.8.0 + libmatroska v0.9.0

Видео
Идентификатор                            : 1
Формат                                   : AVC
Формат/Информация                        : Advanced Video Codec
Профиль формата                          : High@L4.1
Параметр CABAC формата                   : Да
Параметр ReFrames формата                : 12 кадров
Идентификатор кодека                     : V_MPEG4/ISO/AVC
Продолжительность                        : 23 м.
Битрейт                                  : 1863 Кбит/сек
Ширина                                   : 1024 пикселя
Высота                                   : 576 пикселей
Соотношение сторон                       : 16:9
Частота кадров                           : 23,976 кадра/сек
Цветовое пространство                    : YUV
Субдискретизация насыщенности            : 4:2:0
Битовая глубина                          : 8 бит
Тип развёртки                            : Прогрессивная
Бит/(Пиксели*Кадры)                      : 0.132
Размер потока                            : 308 Мбайт (79%)
Библиотека кодирования                   : x264 core 104 r1688 0b36c6d
Настройки программы                      : cabac=1 / ref=12 / deblock=1:0:0 / analyse=0x3:0x133 / me=esa / subme=9 / psy=1 / psy_rd=0.70:0.00 / mixed_ref=1 / me_range=24 / chroma_me=1 / trellis=2 / 8x8dct=1 / cqm=0 / deadzone=21,11 / fast_pskip=1 / chroma_qp_offset=-2 / threads=6 / sliced_threads=0 / nr=0 / decimate=0 / interlaced=0 / constrained_intra=0 / bframes=12 / b_pyramid=2 / b_adapt=2 / b_bias=0 / direct=3 / weightb=1 / open_gop=0 / weightp=2 / keyint=240 / keyint_min=24 / scenecut=40 / intra_refresh=0 / rc=2pass / mbtree=0 / bitrate=1863 / ratetol=1.0 / qcomp=0.70 / qpmin=9 / qpmax=24 / qpstep=4 / cplxblur=20.0 / qblur=0.5 / ip_ratio=1.40 / pb_ratio=1.30 / aq=1:0.70
Язык                                     : Japanese
Default                                  : Да
Forced                                   : Нет

Аудио
Идентификатор                            : 2
Формат                                   : AC-3
Формат/Информация                        : Audio Coding 3
Расширение режима                        : CM (complete main)
Параметр Endianness формата              : Big
Идентификатор кодека                     : A_AC3
Продолжительность                        : 23 м.
Вид битрейта                             : Постоянный
Битрейт                                  : 448 Кбит/сек
Каналы                                   : 2 канала
Расположение каналов                     : Front: L R
Частота                                  : 48,0 КГц
Битовая глубина                          : 16 бит
Метод сжатия                             : С потерями
Размер потока                            : 75,9 Мбайт (19%)
Язык                                     : Japanese
Default                                  : Да
Forced                                   : Нет

Меню
00:00:00.000                             : :OP
00:01:30.007                             : :Part-A
00:12:37.047                             : :Part-B
00:22:00.026                             : :ED
00:23:25.028                             : :Preview




info [Профиль]  [ЛС] 

DarkDusk

Пол: Пол:Муж

Стаж: 5 лет

Сообщений: 51

Гайана
Рейтинг

post 15-Сен-2012 22:11 (спустя 2 часа 1 минута) [-]1[+]

[Цитировать] 

Оформление Best of the Best.

_________________
Intel® Core™ i7 CPU 950 @ 3.07GHz
10240 Мб (DDR3-1333 DDR3 SDRAM)
Nvidia GTX 680 2GB
GigaByte GA-X58A-UD3R rev2.0 (RTL) LGA1366 <X58> 4xPCI-E+GbLAN+1394 SATA RAID ATX 6DDR-III
SSD: 240 GB (OCZ Vector 150)
БП: 850W
info [Профиль]  [ЛС] 

licharok

Пол: Пол:Муж

Стаж: 6 лет 2 месяца

Сообщений: 285

Гонконг
Рейтинг

post 15-Сен-2012 22:20 (спустя 8 минут) [-]-2[+]

[Цитировать] 

Как анимеха?

_________________
info [Профиль]  [ЛС] 

iSenjeru

Пол: Пол:Муж

Стаж: 5 лет 5 месяцев

Сообщений: 390

Казахстан
Рейтинг

post 15-Сен-2012 23:00 (спустя 39 минут) [-]-1[+]

[Цитировать] 

DarkDusk писал(а):

Оформление Best of the Best.
спасибо

NikKiller писал(а):

Как анимеха?
угарное,стоит смотреть,тут никакой нагрузки и смешно)
info [Профиль]  [ЛС] 

precentor frost

Пол: Пол:Муж

Стаж: 7 лет 8 месяцев

Сообщений: 669

Рейтинг

post 15-Сен-2012 23:12 (спустя 12 минут) [-]-1[+]

[Цитировать] 

во время каждого оупенинга думал, какие же будут на этот раз...

_________________
Cилы добра, света и справедливости - это три совершенно разные фракции.
info [Профиль]  [ЛС] 

GaZool

Пол: Пол:Муж

Стаж: 6 лет 7 месяцев

Сообщений: 11

Россия
Рейтинг

post 15-Сен-2012 23:52 (спустя 39 минут) [-]-1[+]

[Цитировать] 

А есть другие варианты озвучки? Просто не фанат кубы

_________________
info [Профиль]  [ЛС] 

iSenjeru

Пол: Пол:Муж

Стаж: 5 лет 5 месяцев

Сообщений: 390

Казахстан
Рейтинг

post 16-Сен-2012 00:05 (спустя 13 минут) [-]-1[+]

[Цитировать] 

GaZool писал(а):

А есть другие варианты озвучки? Просто не фанат кубы
Других озвучек нету,смотри тогда с сабами :3
info [Профиль]  [ЛС] 

RX3041

Пол: Пол:Муж

Стаж: 7 лет 2 месяца

Сообщений: 112

Россия
Рейтинг

post 16-Сен-2012 09:09 (спустя 9 часов) [-]0[+]

[Цитировать] 

Обожаю такое! Большое спасибо за аниме! Забираю) Воистину Ня!)
И еще + за Вокалоидов внизу)
info [Профиль]  [ЛС] 

tuxupo

Пол: Пол:Муж

Стаж: 5 лет 5 месяцев

Сообщений: 111

Россия
Рейтинг

post 16-Сен-2012 11:35 (спустя 2 часа 26 минут) [-]-1[+]

[Цитировать] 

укажи что с 1 по 6 николас озвучивал,а с 7 по 13 куба
info [Профиль]  [ЛС] 

iSenjeru

Пол: Пол:Муж

Стаж: 5 лет 5 месяцев

Сообщений: 390

Казахстан
Рейтинг

post 16-Сен-2012 13:36 (спустя 2 часа 1 минута) [-]5[+]

[Цитировать] 

tuxupo писал(а):

укажи что с 1 по 6 николас озвучивал,а с 7 по 13 куба
А прежде чем писать пробовал шапку посмотреть? =^_^=
info [Профиль]  [ЛС] 

precentor frost

Пол: Пол:Муж

Стаж: 7 лет 8 месяцев

Сообщений: 669

Рейтинг

post 23-Фев-2013 00:16 (спустя 5 месяцев 6 дней) [-]0[+]

[Цитировать] 

iSenjeru писал(а):

GaZool писал(а):

А есть другие варианты озвучки? Просто не фанат кубы
Других озвучек нету,смотри тогда с сабами :3
уже есть. двухголоска от Neotopia & PeresmeshniK.

_________________
Cилы добра, света и справедливости - это три совершенно разные фракции.
info [Профиль]  [ЛС] 
Показать сообщения:    
Ответить на тему

Текущее время: 09-Дек 17:38

Часовой пояс: GMT + 4



Вы не можете начинать темы
Вы не можете отвечать на сообщения
Вы не можете редактировать свои сообщения
Вы не можете удалять свои сообщения
Вы не можете голосовать в опросах
Вы не можете прикреплять файлы к сообщениям
Вы не можете скачивать файлы