Ошибка

Титаник / Titanic (Джеймс Кэмерон / James Cameron) [1997, США, драма, мелодрама, BDRip 1080p, 3D]

Ответить на тему
 
Автор Сообщение

Exille

Пол: Пол:Муж

Стаж: 6 лет 10 месяцев

Сообщений: 209

Россия
Рейтинг

post 07-Сен-2012 21:08 0[+]

[Цитировать] 

Титаник / Titanic
«Ничто на Земле не сможет разлучить их»


pic="https://dl.dropbox.com/u/39341315/%D0%9A%D0%B0%D0%B2%D0%B5%D1%80%D1%8B/Titanic/poster.png"
Год выпуска: 1997
Страна: США
Жанр: драма, мелодрама
Продолжительность: 03:14:54
Перевод: Профессиональный (полное дублирование) [Новый дублированный перевод 2012 года]
Русские субтитры: присутствуют
Режиссер:
  • Джеймс Кэмерон / James Cameron
В ролях:
  • Леонардо ДиКаприо, Билл Пэкстон, Бернард Хилл, Фрэнсис Фишер, Кейт Уинслет, Билли Зейн, Кэти Бэйтс, Джонатан Хайд, Дэвид Уорнер, Йоан Граффадд, Виктор Гарбер, Сьюзи Эмис, Марк Линдсэй Чэпмэн, Дэнни Нуччи, Глория Стюарт, Брендан Коннолли, Джеймс Кэмерон

  Молодые влюбленные Джек и Роза находят друг друга в первом и последнем плавании «непотопляемого» Титаника. Они не могли знать, что шикарный лайнер столкнется с айсбергом в холодных водах Северной Атлантики, и их страстная любовь превратится в схватку со смертью…


Качество: 3D BDRip 1080p
Формат 3D: Half SideBySide / Горизонтальная анаморфная стереопара
Формат: MKV
Видео кодек: AVC
Аудио кодек: AC3 / DTS
Видео: MPEG-4 AVC, 11.0 Mбит/с, 1920x1080, 23.976 кадр/с
Аудио:
  • Русский: 48 kHz, AC3 Dolby Digital, 3/2 (L,C,R,l,r) + LFE ch, ~448.00 kbps avg | Дубляж (2012 г.)
  • English: 48 kHz, AC3 Dolby Digital, 3/2 (L,C,R,l,r) + LFE ch, ~448.00 kbps avg | Оригинальная озвучка
Субтитры: Русские
Навигация по главам: присутствует.

General
Unique ID : 222897754753636699122421826231626281406 (0xA7B08BC9630FBDB5882628FA8D8EB1BE)
Complete name : Titanic.3D.BDRip.1080p.mkv
Format : Matroska
File size : 16.7 GiB
Duration : 3h 14mn
Overall bit rate : 12.3 Mbps
Movie name : Titanic BDRip 1080p 3D by -=Remy=- (TAPOCHEK.NET)
Encoded date : UTC 2012-09-08 06:21:51
Writing application : mkvmerge v5.8.0 ('No Sleep / Pillow') built on Sep 2 2012 15:37:04
Writing library : libebml v1.2.3 + libmatroska v1.3.0

Video
ID : 1
Format : AVC
Format/Info : Advanced Video Codec
Format profile : High@L4.1
Format settings, CABAC : Yes
Format settings, ReFrames : 4 frames
Codec ID : V_MPEG4/ISO/AVC
Duration : 3h 14mn
Bit rate : 11.2 Mbps
Width : 1 920 pixels
Height : 1 080 pixels
Display aspect ratio : 16:9
Frame rate : 23.976 fps
Color space : YUV
Chroma subsampling : 4:2:0
Bit depth : 8 bits
Scan type : Progressive
Bits/(Pixel*Frame) : 0.224
Stream size : 15.2 GiB (91%)
Title : Titanic 3D
Writing library : x264 core 125 r2208 d9d2288
Encoding settings : cabac=1 / ref=4 / deblock=1:-3:-3 / analyse=0x3:0x113 / me=umh / subme=9 / psy=1 / psy_rd=1.00:0.15 / mixed_ref=1 / me_range=16 / chroma_me=1 / trellis=1 / 8x8dct=1 / cqm=0 / deadzone=21,11 / fast_pskip=1 / chroma_qp_offset=-3 / threads=18 / lookahead_threads=3 / sliced_threads=0 / nr=0 / decimate=1 / interlaced=0 / bluray_compat=0 / constrained_intra=0 / bframes=3 / b_pyramid=2 / b_adapt=1 / b_bias=0 / direct=3 / weightb=1 / open_gop=0 / weightp=2 / keyint=250 / keyint_min=23 / scenecut=40 / intra_refresh=0 / rc_lookahead=40 / rc=crf / mbtree=1 / crf=19.0 / qcomp=0.60 / qpmin=10 / qpmax=69 / qpstep=4 / vbv_maxrate=40000 / vbv_bufsize=30000 / crf_max=0.0 / nal_hrd=none / ip_ratio=1.40 / aq=1:1.00
Language : English

Audio #1
ID : 2
Format : AC-3
Format/Info : Audio Coding 3
Mode extension : CM (complete main)
Codec ID : A_AC3
Duration : 3h 14mn
Bit rate mode : Constant
Bit rate : 448 Kbps
Channel(s) : 6 channels
Channel positions : Front: L C R, Side: L R, LFE
Sampling rate : 48.0 KHz
Bit depth : 16 bits
Compression mode : Lossy
Stream size : 625 MiB (4%)
Title : Русский дубляж
Language : Russian

Audio #2
ID : 3
Format : AC-3
Format/Info : Audio Coding 3
Mode extension : CM (complete main)
Codec ID : A_AC3
Duration : 3h 14mn
Bit rate mode : Constant
Bit rate : 448 Kbps
Channel(s) : 6 channels
Channel positions : Front: L C R, Side: L R, LFE
Sampling rate : 48.0 KHz
Bit depth : 16 bits
Compression mode : Lossy
Stream size : 625 MiB (4%)
Title : Оригинальная озвучка
Language : English

Text #1
ID : 4
Format : UTF-8
Codec ID : S_TEXT/UTF8
Codec ID/Info : UTF-8 Plain Text
Language : Russian

Text #2
ID : 5
Format : UTF-8
Codec ID : S_TEXT/UTF8
Codec ID/Info : UTF-8 Plain Text
Language : Russian

Menu
00:00:00.000 : en:00:00:00.000
00:01:24.376 : en:00:01:24.376
00:04:39.988 : en:00:04:39.988
00:08:26.131 : en:00:08:26.131
00:10:46.771 : en:00:10:46.771
00:12:52.647 : en:00:12:52.647
00:16:52.428 : en:00:16:52.428
00:20:07.748 : en:00:20:07.748
00:23:38.876 : en:00:23:38.876
00:26:26.543 : en:00:26:26.543
00:29:03.367 : en:00:29:03.367
00:29:37.526 : en:00:29:37.526
00:34:59.931 : en:00:34:59.931
00:36:48.623 : en:00:36:48.623
00:42:59.160 : en:00:42:59.160
00:45:26.098 : en:00:45:26.098
00:47:11.620 : en:00:47:11.620
00:53:33.043 : en:00:53:33.043
00:56:47.988 : en:00:56:47.988
01:05:32.053 : en:01:05:32.053
01:10:19.966 : en:01:10:19.966
01:14:06.358 : en:01:14:06.358
01:16:10.691 : en:01:16:10.691
01:19:59.044 : en:01:19:59.044
01:22:50.507 : en:01:22:50.507
01:23:40.056 : en:01:23:40.056
01:28:21.629 : en:01:28:21.629
01:29:19.854 : en:01:29:19.854
01:32:52.275 : en:01:32:52.275
01:36:59.105 : en:01:36:59.105
01:44:41.150 : en:01:44:41.150
01:46:21.041 : en:01:46:21.041
01:50:12.257 : en:01:50:12.257
01:52:22.554 : en:01:52:22.554
01:53:55.480 : en:01:53:55.480
01:55:22.984 : en:01:55:22.984
01:56:12.033 : en:01:56:12.033
01:57:54.385 : en:01:57:54.385
02:06:39.493 : en:02:06:39.493
02:08:51.125 : en:02:08:51.125
02:11:23.235 : en:02:11:23.235
02:15:43.704 : en:02:15:43.704
02:19:44.611 : en:02:19:44.611
02:21:25.712 : en:02:21:25.712
02:25:29.914 : en:02:25:29.914
02:27:29.575 : en:02:27:29.575
02:29:08.424 : en:02:29:08.424
02:29:57.849 : en:02:29:57.849
02:33:32.688 : en:02:33:32.688
02:36:53.514 : en:02:36:53.514
02:38:35.032 : en:02:38:35.032
02:40:35.819 : en:02:40:35.819
02:45:01.793 : en:02:45:01.793
02:47:49.961 : en:02:47:49.961
02:49:23.680 : en:02:49:23.680
02:52:10.763 : en:02:52:10.763
02:53:42.480 : en:02:53:42.480
02:57:54.649 : en:02:57:54.649
02:59:36.459 : en:02:59:36.459
03:01:30.406 : en:03:01:30.406
03:03:14.802 : en:03:03:14.802
03:06:59.031 : en:03:06:59.031
03:07:20.798 : en:03:07:20.798

Оформление by Реми
info [Профиль]  [ЛС] 

PRaetorian13

Стаж: 5 лет 5 месяцев

Сообщений: 440

Предупреждений: 1

Рейтинг

post 07-Сен-2012 21:13 (спустя 5 минут) [-]0[+]

[Цитировать] 

сразу вопрос: дубляж новый?

_________________
PS3-Rebug 4.75
info [Профиль]  [ЛС] 

Exille

Пол: Пол:Муж

Стаж: 6 лет 10 месяцев

Сообщений: 209

Россия
Рейтинг

post 08-Сен-2012 11:03 (спустя 13 часов) [-]1[+]

[Цитировать] 

Обновил рип. Теперь:
  • Перевод: Профессиональный (полное дублирование) [Новый дублированный перевод 2012 года]
  • Присутствует оригинальная звуковая дорожка
info [Профиль]  [ЛС] 
Показать сообщения:    
Ответить на тему

Текущее время: 05-Дек 00:31

Часовой пояс: GMT + 4



Вы не можете начинать темы
Вы не можете отвечать на сообщения
Вы не можете редактировать свои сообщения
Вы не можете удалять свои сообщения
Вы не можете голосовать в опросах
Вы не можете прикреплять файлы к сообщениям
Вы не можете скачивать файлы