Ошибка

Мрачные тени / Dark Shadows (Тим Бёртон / Tim Burton) [2012 г., фэнтези, мелодрама, комедия, BDRemux]

Ответить на тему
 
Автор Сообщение

Exille

Пол: Пол:Муж

Стаж: 6 лет 10 месяцев

Сообщений: 209

Россия
Рейтинг

post 04-Сен-2012 13:21 1[+]

[Цитировать] 

Мрачные тени / Dark Shadows
«В семье не без вампира»

pic="https://dl.dropbox.com/u/39341315/%D0%9A%D0%B0%D0%B2%D0%B5%D1%80%D1%8B/Mra4/3a11905bc4a99fe889cfae00e04895c9_500.png"
Год выпуска: 2012
Страна: США
Жанр: фэнтези, мелодрама, комедия
Продолжительность: 01:53:04
Перевод: Профессиональный (полное дублирование)
Русские субтитры: присутствуют
Режиссер:
  • Тим Бёртон / Tim Burton
В ролях:
  • Джонни Депп, Мишель Пфайффер, Хелена Бонем Картер, Ева Грин, Джеки Эрл Хейли, Джонни Ли Миллер, Белла Хиткот, Хлоя Грейс Морец, Гулливер МакГрат, Рэй Ширли, Кристофер Ли, Элис Купер

  Владелец поместья Коллинвуд, Барнабас Коллинз, богат, властен и слывет неисправимым Казановой, пока не совершает роковую ошибку, разбив сердце Анжелики Бошар. Будучи ведьмой в буквальном смысле этого слова, она обрекает его на судьбу, худшую, чем сама смерть — обращает его в вампира и хоронит заживо. Два века спустя Барнабаса случайно освобождают из склепа, и тот оказывается в очень изменившемся мире 1972 года. Он возвращается в Коллинвуд и находит в руинах это некогда величественное здание. Жалкие потомки его семьи сохранились лишь немногим лучше родового гнезда, и у каждого из них есть свои «скелеты в шкафу».


Автор remux'a: Реми. Исходник: Dark Shadows (2012) Blu-ray CEE 1080p AVC DD5.1 by HDCLUB.
Качество: BDRemux
Формат: MKV
Видео кодек: AVC
Аудио кодек: DTS-HD / AC3
Видео: 1920x1080 at 23.976 fps, ~22,5 Mbps avg
Аудио:
  • Русский: 48 kHz, AC3, 3/2 (L,C,R,l,r) + LFE ch, ~448.00 kbps avg | Русский дубляж
  • Український: 48 kHz, AC3, 3/2 (L,C,R,l,r) + LFE ch, ~448.00 kbps avg | Украинский дубляж
  • English: 48 kHz, DTS-HD, 3/2 (L,C,R,l,r) + LFE ch, ~1536.00 kbps avg | Оригинальная озвучка
Субтитры: Русские (форсированные), Русские (полные), English, English (SDH)
Навигация по главам: присутствует

General
Unique ID : 213414587088465997646821400910598271325 (0xA08E2785BA44C66381ED6BE912DC715D)
Complete name : Dark.Shadows.BDRemux.mkv
Format : Matroska
File size : 21.4 GiB
Duration : 1h 58mn
Overall bit rate : 26.0 Mbps
Movie name : Dark Shadows (2012) BDRemux by -=Remy=- (TAPOCHEK.NET)
Encoded date : UTC 2012-09-04 07:48:24
Writing application : mkvmerge v5.8.0 ('No Sleep / Pillow') built on Sep 2 2012 15:37:04
Writing library : libebml v1.2.3 + libmatroska v1.3.0

Video
ID : 1
Format : AVC
Format/Info : Advanced Video Codec
Format profile : High@L4.1
Format settings, CABAC : Yes
Format settings, ReFrames : 2 frames
Codec ID : V_MPEG4/ISO/AVC
Duration : 1h 58mn
Bit rate mode : Variable
Bit rate : 22.5 Mbps
Width : 1 920 pixels
Height : 1 080 pixels
Display aspect ratio : 16:9
Frame rate : 23.976 fps
Color space : YUV
Chroma subsampling : 4:2:0
Bit depth : 8 bits
Scan type : Progressive
Bits/(Pixel*Frame) : 0.453
Stream size : 18.6 GiB (87%)

Audio #1
ID : 2
Format : AC-3
Format/Info : Audio Coding 3
Mode extension : CM (complete main)
Codec ID : A_AC3
Duration : 1h 58mn
Bit rate mode : Constant
Bit rate : 448 Kbps
Channel(s) : 6 channels
Channel positions : Front: L C R, Side: L R, LFE
Sampling rate : 48.0 KHz
Bit depth : 16 bits
Compression mode : Lossy
Stream size : 378 MiB (2%)
Title : Русский дубляж (48 kHz, AC3, 3/2 (L,C,R,l,r) + LFE ch, ~448.00 kbps avg)
Language : Russian

Audio #2
ID : 3
Format : AC-3
Format/Info : Audio Coding 3
Mode extension : CM (complete main)
Codec ID : A_AC3
Duration : 1h 58mn
Bit rate mode : Constant
Bit rate : 448 Kbps
Channel(s) : 6 channels
Channel positions : Front: L C R, Side: L R, LFE
Sampling rate : 48.0 KHz
Bit depth : 16 bits
Compression mode : Lossy
Stream size : 378 MiB (2%)
Title : Украинский дубляж(48 kHz, AC3, 3/2 (L,C,R,l,r) + LFE ch, ~448.00 kbps avg)
Language : Ukrainian

Audio #3
ID : 4
Format : DTS
Format/Info : Digital Theater Systems
Format profile : MA / Core
Codec ID : A_DTS
Duration : 1h 58mn
Bit rate mode : Variable
Bit rate : 2 038 Kbps / 1 510 Kbps
Channel(s) : 6 channels
Channel positions : Front: L C R, Side: L R, LFE
Sampling rate : 48.0 KHz
Bit depth : 16 bits
Compression mode : Lossless / Lossy
Title : Оригинальная озвучка (48 kHz, DTS-HD, 3/2 (L,C,R,l,r) + LFE ch, ~1536.00 kbps avg)
Language : English

Text #1
ID : 5
Format : UTF-8
Codec ID : S_TEXT/UTF8
Codec ID/Info : UTF-8 Plain Text
Title : Forced
Language : Russian

Text #2
ID : 6
Format : UTF-8
Codec ID : S_TEXT/UTF8
Codec ID/Info : UTF-8 Plain Text
Language : Russian

Text #3
ID : 7
Format : UTF-8
Codec ID : S_TEXT/UTF8
Codec ID/Info : UTF-8 Plain Text
Language : English

Text #4
ID : 8
Format : UTF-8
Codec ID : S_TEXT/UTF8
Codec ID/Info : UTF-8 Plain Text
Title : SDH
Language : English

Menu
00:00:00.000 : en:00:00:00.000
00:12:25.203 : en:00:12:25.203
00:19:57.780 : en:00:19:57.780
00:30:21.486 : en:00:30:21.486
00:38:55.041 : en:00:38:55.041
00:49:48.235 : en:00:49:48.235
01:00:11.066 : en:01:00:11.066
01:09:47.392 : en:01:09:47.392
01:19:36.772 : en:01:19:36.772
01:29:05.340 : en:01:29:05.340
01:39:36.888 : en:01:39:36.888
01:48:26.041 : en:01:48:26.041
          

Оформление by Реми
info [Профиль]  [ЛС] 

manson11

Пол: Пол:Муж

Стаж: 5 лет 4 месяца

Сообщений: 13

Россия
Рейтинг

post 04-Сен-2012 19:07 (спустя 5 часов) [-]1[+]

[Цитировать] 

О, давно в качестве ждал, заценим. Спасибо!
info [Профиль]  [ЛС] 

r154

Пол: Пол:Муж

Стаж: 4 года 10 месяцев

Сообщений: 43

Рейтинг

post 04-Окт-2012 18:32 (спустя 29 дней) [-]0[+]

[Цитировать] 

Депп. BD. Золото. Спасибо !

_________________
n/a
info [Профиль]  [ЛС] 
Показать сообщения:    
Ответить на тему

Текущее время: 03-Дек 10:53

Часовой пояс: GMT + 4



Вы не можете начинать темы
Вы не можете отвечать на сообщения
Вы не можете редактировать свои сообщения
Вы не можете удалять свои сообщения
Вы не можете голосовать в опросах
Вы не можете прикреплять файлы к сообщениям
Вы не можете скачивать файлы