Ошибка

Титаник / Titanic (Джеймс Кэмерон / James Cameron) [1997, США, драма, мелодрама, BD-Remux 1080p]

Ответить на тему
 
Автор Сообщение

Arifis

Пол: Пол:Муж

Стаж: 7 лет 3 месяца

Сообщений: 195

Россия
Рейтинг

post 30-Авг-2012 05:41 1[+]

[Цитировать] 

Титаник / Titanic
«Ничто на Земле не сможет разлучить их»

Страна: США
Жанр: драма, мелодрама
Год выпуска: 1997
Продолжительность: 03:14:49
Перевод 1: Дублированный [лицензия]
Перевод 2: Профессиональный (двухголосый) [Гланц и Королева]
Перевод 3: Профессиональный (многоголосый) [Киномания]
Перевод 4: Профессиональный (многоголосый)
Перевод 5: Авторский (одноголосый) [Гаврилов]
Cубтитры: русские (2), английские
Оригинальная аудиодорожка: английский
Режиссер: Джеймс Кэмерон / James Cameron
В ролях: Леонардо ДиКаприо, Билл Пэкстон, Бернард Хилл, Фрэнсис Фишер, Кейт Уинслет, Билли Зейн, Кэти Бэйтс, Джонатан Хайд, Дэвид Уорнер, Йоан Граффадд, Виктор Гарбер, Сьюзи Эмис, Марк Линдсэй Чэпмэн, Дэнни Нуччи, Глория Стюарт, Брендан Коннолли, Джеймс Кэмерон
Описание: Молодые влюбленные Джек и Роза находят друг друга в первом и последнем плавании «непотопляемого» Титаника. Они не могли знать, что шикарный лайнер столкнется с айсбергом в холодных водах Северной Атлантики, и их страстная любовь превратится в схватку со смертью…


Тип релиза: BDRemux 1080p
Контейнер: MKV
Видео: MPEG-4 AVC Video / 25.8 Mbps / 1080p / 23.976 fps / 16:9 / High Profile 4.1
Исходник: Titanic 1997 1080p BluRay AVC DTS-HD MA 5.1-DIY-HDChina
Аудио #1: English: DTS-HD Master Audio 5.1 / (48 kHz / 3891 kbps / 24-bit) (DTS Core: 5.1 / 48 kHz / 1509 kbps / 24-bit) - [Original]
Аудио #2: Russian: 48 kHz, AC3, 3/2 (L,C,R,l,r) + LFE ch, ~448.00 kbps avg - [Dub]
Аудио #3: Russian: 48 kHz, DTS, 3/2 (L,C,R,l,r) + LFE ch, ~755.00 kbps avg - [DVO]
Аудио #4: Russian: 48 kHz, AC3, 3/2 (L,C,R,l,r) + LFE ch, ~384.00 kbps avg - [Kinomania]
Аудио #5: Russian: 48 kHz, AC3, 3/2 (L,C,R,l,r) + LFE ch, ~448.00 kbps avg - [MVO]
Аудио #6: Russian: 48 kHz, DTS, 3/2 (L,C,R,l,r) + LFE ch, ~755.00 kbps avg - [AO]
Аудио #7: Russian: 48 kHz, AC3, 2/0 (L,R), ~224.00 kbps avg - [Commentary by director James Cameron]
Аудио #8: Russian: 48 kHz, AC3, 2/0 (L,R), ~224.00 kbps avg - [Cast and Crew Commentary]
Аудио #9: Russian: 48 kHz, AC3, 2/0 (L,R), ~224.00 kbps avg - [Historical Commentary by Don Lynch and Ken Marschall]
Формат субтитров: softsub (SRT)
Чаптеры: Сохранены оригинальные чаптеры с Blu-Ray


Код:

Format                           : Matroska
File size                        : 42.8 GiB
Duration                         : 3h 14mn
Overall bit rate                 : 31.5 Mbps
Movie name                       : Arifis
Encoded date                     : UTC 2012-08-30 00:55:23
Writing application              : mkvmerge v5.2.1 ('A Far Off Place') built on Jan  2 2012 23:21:10
Writing library                  : libebml v1.2.3 + libmatroska v1.3.0

Video
ID                               : 1
Format                           : AVC
Format/Info                      : Advanced Video Codec
Format profile                   : High@L4.1
Format settings, CABAC           : Yes
Format settings, ReFrames        : 2 frames
Codec ID                         : V_MPEG4/ISO/AVC
Duration                         : 3h 14mn
Bit rate                         : 25.8 Mbps
Width                            : 1 920 pixels
Height                           : 1 080 pixels
Display aspect ratio             : 16:9
Frame rate                       : 23.976 fps
Color space                      : YUV
Chroma subsampling               : 4:2:0
Bit depth                        : 8 bits
Scan type                        : Progressive
Bits/(Pixel*Frame)               : 0.520
Stream size                      : 35.2 GiB (82%)

Audio #1
ID                               : 2
Format                           : AC-3
Format/Info                      : Audio Coding 3
Mode extension                   : CM (complete main)
Codec ID                         : A_AC3
Duration                         : 3h 14mn
Bit rate mode                    : Constant
Bit rate                         : 448 Kbps
Channel(s)                       : 6 channels
Channel positions                : Front: L C R, Side: L R, LFE
Sampling rate                    : 48.0 KHz
Bit depth                        : 16 bits
Compression mode                 : Lossy
Stream size                      : 624 MiB (1%)
Title                            : DUB
Language                         : Russian

Audio #2
ID                               : 3
Format                           : DTS
Format/Info                      : Digital Theater Systems
Codec ID                         : A_DTS
Duration                         : 3h 14mn
Bit rate mode                    : Constant
Bit rate                         : 755 Kbps
Channel(s)                       : 6 channels
Channel positions                : Front: L C R, Side: L R, LFE
Sampling rate                    : 48.0 KHz
Bit depth                        : 24 bits
Compression mode                 : Lossy
Stream size                      : 1.03 GiB (2%)
Title                            : DVO Glanz & Koroleva
Language                         : Russian

Audio #3
ID                               : 4
Format                           : AC-3
Format/Info                      : Audio Coding 3
Mode extension                   : CM (complete main)
Codec ID                         : A_AC3
Duration                         : 3h 14mn
Bit rate mode                    : Constant
Bit rate                         : 384 Kbps
Channel(s)                       : 6 channels
Channel positions                : Front: L C R, Side: L R, LFE
Sampling rate                    : 48.0 KHz
Bit depth                        : 16 bits
Compression mode                 : Lossy
Stream size                      : 535 MiB (1%)
Title                            : MVO Kinomania
Language                         : Russian

Audio #4
ID                               : 5
Format                           : AC-3
Format/Info                      : Audio Coding 3
Mode extension                   : CM (complete main)
Codec ID                         : A_AC3
Duration                         : 3h 14mn
Bit rate mode                    : Constant
Bit rate                         : 448 Kbps
Channel(s)                       : 6 channels
Channel positions                : Front: L C R, Side: L R, LFE
Sampling rate                    : 48.0 KHz
Bit depth                        : 16 bits
Compression mode                 : Lossy
Stream size                      : 624 MiB (1%)
Title                            : MVO
Language                         : Russian

Audio #5
ID                               : 6
Format                           : DTS
Format/Info                      : Digital Theater Systems
Codec ID                         : A_DTS
Duration                         : 3h 14mn
Bit rate mode                    : Constant
Bit rate                         : 755 Kbps
Channel(s)                       : 6 channels
Channel positions                : Front: L C R, Side: L R, LFE
Sampling rate                    : 48.0 KHz
Bit depth                        : 24 bits
Compression mode                 : Lossy
Stream size                      : 1.03 GiB (2%)
Title                            : VO Gavrilov
Language                         : Russian

Audio #6
ID                               : 7
Format                           : DTS
Format/Info                      : Digital Theater Systems
Format profile                   : MA / Core
Codec ID                         : A_DTS
Duration                         : 3h 14mn
Bit rate mode                    : Variable
Bit rate                         : 1 561 Kbps / 1 510 Kbps
Channel(s)                       : 6 channels
Channel positions                : Front: L C R, Side: L R, LFE
Sampling rate                    : 48.0 KHz
Bit depth                        : 24 bits
Compression mode                 : Lossless / Lossy
Title                            : Original
Language                         : English

Audio #7
ID                               : 8
Format                           : AC-3
Format/Info                      : Audio Coding 3
Mode extension                   : CM (complete main)
Codec ID                         : A_AC3
Duration                         : 3h 14mn
Bit rate mode                    : Constant
Bit rate                         : 224 Kbps
Channel(s)                       : 2 channels
Channel positions                : Front: L R
Sampling rate                    : 48.0 KHz
Bit depth                        : 16 bits
Compression mode                 : Lossy
Stream size                      : 312 MiB (1%)
Title                            : Commentary by director James Cameron
Language                         : English

Audio #8
ID                               : 9
Format                           : AC-3
Format/Info                      : Audio Coding 3
Mode extension                   : CM (complete main)
Codec ID                         : A_AC3
Duration                         : 3h 14mn
Bit rate mode                    : Constant
Bit rate                         : 224 Kbps
Channel(s)                       : 2 channels
Channel positions                : Front: L R
Sampling rate                    : 48.0 KHz
Bit depth                        : 16 bits
Compression mode                 : Lossy
Stream size                      : 312 MiB (1%)
Title                            : Cast and Crew Commentary
Language                         : English

Audio #9
ID                               : 10
Format                           : AC-3
Format/Info                      : Audio Coding 3
Mode extension                   : CM (complete main)
Codec ID                         : A_AC3
Duration                         : 3h 14mn
Bit rate mode                    : Constant
Bit rate                         : 224 Kbps
Channel(s)                       : 2 channels
Channel positions                : Front: L R
Sampling rate                    : 48.0 KHz
Bit depth                        : 16 bits
Compression mode                 : Lossy
Stream size                      : 312 MiB (1%)
Title                            : Historical Commentary by Don Lynch and Ken Marschall
Language                         : English

Text #1
ID                               : 11
Format                           : UTF-8
Codec ID                         : S_TEXT/UTF8
Codec ID/Info                    : UTF-8 Plain Text
Title                            : Russian v1
Language                         : Russian

Text #2
ID                               : 12
Format                           : UTF-8
Codec ID                         : S_TEXT/UTF8
Codec ID/Info                    : UTF-8 Plain Text
Title                            : Russian v2
Language                         : Russian

Text #3
ID                               : 13
Format                           : UTF-8
Codec ID                         : S_TEXT/UTF8
Codec ID/Info                    : UTF-8 Plain Text
Title                            : English
Language                         : English

Menu
00:00:00.000                     : :Chapter 01
00:01:24.375                     : :Chapter 02
00:04:39.988                     : :Chapter 03
00:08:26.130                     : :Chapter 04
00:10:46.771                     : :Chapter 05
00:12:52.646                     : :Chapter 06
00:16:52.427                     : :Chapter 07
00:20:07.748                     : :Chapter 08
00:23:38.875                     : :Chapter 09
00:26:26.543                     : :Chapter 10
00:29:03.366                     : :Chapter 11
00:29:37.525                     : :Chapter 12
00:34:59.930                     : :Chapter 13
00:36:48.622                     : :Chapter 14
00:42:59.159                     : :Chapter 15
00:45:26.098                     : :Chapter 16
00:47:11.620                     : :Chapter 17
00:53:33.042                     : :Chapter 18
00:56:47.987                     : :Chapter 19
01:05:32.052                     : :Chapter 20
01:10:19.965                     : :Chapter 21
01:14:06.358                     : :Chapter 22
01:16:10.690                     : :Chapter 23
01:19:59.043                     : :Chapter 24
01:22:50.506                     : :Chapter 25
01:23:40.056                     : :Chapter 26
01:28:21.629                     : :Chapter 27
01:29:19.854                     : :Chapter 28
01:32:52.274                     : :Chapter 29
01:36:59.104                     : :Chapter 30
01:44:41.149                     : :Chapter 31
01:46:21.040                     : :Chapter 32
01:47:58.846                     : :Chapter 33
01:50:11.103                     : :Chapter 34
01:52:21.400                     : :Chapter 35
01:53:54.326                     : :Chapter 36
01:55:21.830                     : :Chapter 37
01:56:10.879                     : :Chapter 38
01:57:53.232                     : :Chapter 39
02:06:38.340                     : :Chapter 40
02:08:49.971                     : :Chapter 41
02:11:22.081                     : :Chapter 42
02:15:42.550                     : :Chapter 43
02:19:43.457                     : :Chapter 44
02:21:24.558                     : :Chapter 45
02:25:28.760                     : :Chapter 46
02:27:28.422                     : :Chapter 47
02:29:07.270                     : :Chapter 48
02:29:56.695                     : :Chapter 49
02:33:31.534                     : :Chapter 50
02:36:52.360                     : :Chapter 51
02:38:33.878                     : :Chapter 52
02:40:34.665                     : :Chapter 53
02:45:00.639                     : :Chapter 54
02:47:48.807                     : :Chapter 55
02:49:22.526                     : :Chapter 56
02:52:09.609                     : :Chapter 57
02:53:41.326                     : :Chapter 58
02:57:53.495                     : :Chapter 59
02:59:35.305                     : :Chapter 60
03:01:29.252                     : :Chapter 61
03:03:13.648                     : :Chapter 62
03:04:57.877                     : :Chapter 63
03:07:19.643                     : :Chapter 64
03:14:48.675                     : :Chapter 65


* В последствии планируется замена и/или добавление некоторых звуковых дорожек (после выхода русского блюрея с новым дубляжем).

info [Профиль]  [ЛС] 

lampard960

Пол: Пол:Муж

Стаж: 4 года 11 месяцев

Сообщений: 619

Ангилья
Рейтинг

post 30-Авг-2012 10:13 (спустя 4 часа) [-]0[+]

[Цитировать] 

а 3D когда? Улыбаюсь

_________________
info [Профиль]  [ЛС] 

Ashot302

Пол: Пол:Муж

Стаж: 7 лет 8 месяцев

Сообщений: 811

Предупреждений: 1

Россия
Рейтинг

post 30-Авг-2012 10:45 (спустя 32 минуты) [-]0[+]

[Цитировать] 

lampard960

Там от 3Д одно название
info [Профиль]  [ЛС] 

tysik

Пол: Пол:Муж

Стаж: 7 лет 4 месяца

Сообщений: 32

Рейтинг

post 30-Авг-2012 10:48 (спустя 2 минуты) [-]0[+]

[Цитировать] 

Blu-Ray когда
info [Профиль]  [ЛС] 

Mazai

Пол: Пол:Муж

Стаж: 6 лет 2 месяца

Сообщений: 10

Россия
Рейтинг

post 30-Авг-2012 11:51 (спустя 1 час 2 минуты) [-]0[+]

[Цитировать] 

http://www.blu-ray.com/movies/Titanic-Blu-ray/33024/
10 сентября.
info [Профиль]  [ЛС] 

death7lord

Пол: Пол:Муж

Стаж: 6 лет 11 месяцев

Сообщений: 325

Россия
Рейтинг

post 30-Авг-2012 15:05 (спустя 3 часа) [-]0[+]

[Цитировать] 

Неужели выпустили
наконец-то!!! =)

Пара вопросов:
надеюсь тока одна версия или снова есть\будут расширенные??
если БД будет 10го (я так понял забугорный), то откуда же этот??
и что значит новый дубляж? именно новый или имели ввиду с более высоким битрейтом??
info [Профиль]  [ЛС] 

AlexFormula

Пол: Пол:Муж

Стаж: 7 лет 8 месяцев

Сообщений: 16621

Рейтинг

post 30-Авг-2012 15:35 (спустя 29 минут) [-]0[+]

[Цитировать] 

Цитата:

если БД будет 10го (я так понял забугорный), то откуда же этот??
10-го он официально будет в продаже...
info [Профиль]  [ЛС] 

AlexZoh

Пол: Пол:Муж

Стаж: 7 лет 2 месяца

Сообщений: 707

Россия
Рейтинг

post 30-Авг-2012 17:10 (спустя 1 час 35 минут) [-]0[+]

[Цитировать] 

death7lord писал(а):

и что значит новый дубляж? именно новый или имели ввиду с более высоким битрейтом??
Новый значит новый, тут даже обьяснять ничего не нужно.
info [Профиль]  [ЛС] 

death7lord

Пол: Пол:Муж

Стаж: 6 лет 11 месяцев

Сообщений: 325

Россия
Рейтинг

post 30-Авг-2012 17:18 (спустя 8 минут) [-]0[+]

[Цитировать] 

AlexZoh
вот именно, что я хотел только уточнить, т.к.
448kbps - это с DVD, а на BD обычно выпускают не ниже 640kbps
info [Профиль]  [ЛС] 

AlexFormula

Пол: Пол:Муж

Стаж: 7 лет 8 месяцев

Сообщений: 16621

Рейтинг

post 30-Авг-2012 23:39 (спустя 6 часов) [-]0[+]

[Цитировать] 

Цитата:

448kbps - это с DVD, а на BD обычно выпускают не ниже 640kbps
Неужели?
info [Профиль]  [ЛС] 

death7lord

Пол: Пол:Муж

Стаж: 6 лет 11 месяцев

Сообщений: 325

Россия
Рейтинг

post 31-Авг-2012 11:34 (спустя 11 часов) [-]0[+]

[Цитировать] 

Formula
а разве нет?
(но видимо нет)
info [Профиль]  [ЛС] 
Показать сообщения:    
Ответить на тему

Текущее время: 05-Дек 04:35

Часовой пояс: GMT + 4



Вы не можете начинать темы
Вы не можете отвечать на сообщения
Вы не можете редактировать свои сообщения
Вы не можете удалять свои сообщения
Вы не можете голосовать в опросах
Вы не можете прикреплять файлы к сообщениям
Вы не можете скачивать файлы