Ошибка

Кровь-С / Blood-C [TV][01-12 из 12][2011][Приключения, Мистика, Драма][BDRip][720p][Любительский (JAP+SUB)]

Ответить на тему
 
Автор Сообщение

iSenjeru

Пол: Пол:Муж

Стаж: 5 лет 5 месяцев

Сообщений: 390

Казахстан
Рейтинг

post 27-Авг-2012 02:57 0[+]

[Цитировать] 



Blood-C || Кровь-C



pic="http://pics.kz/i2/1f/0a/1f0a929e2e088b5e0e5f702cd98868b8.png"
Год выпуска: 2011
Страна: Япония
Режиссер: Мидзусима Цутому
Студия:
Жанр: Приключения, Мистика, Драма
Перевод: Озвучка + Субтитры
Продолжительность:
  • Сериал: 12 эпизодов х 25 мин

Озвучка:
  • Сериал: Одноголосая от - [Трины Дубовицкой] - [12 из 12]
  • Сериал: Двухголосая от - [Say & Shachiburi] - [12 из 12]

Хардсаб: Нет
Описание:
В этой версии истории Сая Кисараги – молодая храмовая жрица, дочь синтоистского священника. С одной стороны, Сая с детства изучает семейный стиль фехтования и другие тайные искусства, потому в старшей школе ее знают как разностороннюю и талантливую спортсменку. С другой стороны, религиозное воспитание, добрый характер героини и привычка к постоянной углубленной медитации создают впечатление наивной и неуклюжей девушки «не от мира сего». В принципе, так оно и есть. В мирской жизни при ярком свете дня Кисараги-младшая – просто ангел. Но как назвать ту, которая недрогнувшей рукой обнажает фамильный клинок под покровом ночи?

Как и положено в каноне, Сая будет неустанно бороться с демонами-рукокрылами и другими силами зла, а большинство внешне безобидных персонажей, окружающих главную героиню, будут ей в этом активно помогать. Знатоки творчества CLAMP смогут насладиться фирменным набором героев, а большинству останется только гадать – какие же новые повороты известного сюжета приготовила в этот раз «кансайская четверка»?. Зачем такая сила и как ее использовать – это Кимимаро должен понять сам. Только принесет ли счастье проклятое золото Мидаса?
© Hollow, World Art

Информационные ссылки: AniDB || World Art
Сериал:
Качество: BDRip (рип от [Yousei-raws])
Формат: MKV
Видео кодек: x264
Аудио кодек: Vorbis, AAC
Видео: x264 | Hi10p | 1280x720(16:9) | ~3000 kbps | 23.976 fps | 0.124 b\px
Аудио 1: Vorbis | 48KHz | 2ch | ~320 Kbps - [Original Japanese]
Аудио 2: AAC | 48 KHz | 2ch | ~192 Kbps - [Трины Дубовицкой] (отдельным файлом)
Аудио 2: AAC | 48 KHz | 2ch | ~192 Kbps - [Say & Shachiburi] (отдельным файлом)
Субтитры:
  • [Advantage] - [12 из 12]

01. O Ye Winds of Heaven
02. It Is for Thy Sake
03. As for Man
04. That Has Made Me Sad
05. Meeting in the Way
06. Dashed by Fierce Winds
07. As Pitiless as the Storm
08. Within the World
09. Against My Wish
10. As Soon as the Wind Blows
11. Whom Then Are There Now
12. For Some Men I Grieve

Код:

Общее
Уникальный идентификатор                 : 206252377356455173825061514083105147516 (0x9B2AC351AFB6CE36A5344C257A8E8A7C)
Полное имя                               : E:\Anime\Blood-C [BD] [720p]\[Yousei-raws] Blood-C 01 [BDRip 1280x720 x264 Vorbis][rev].mkv
Формат                                   : Matroska
Версия формата                           : Version 2
Размер файла                             : 526 Мбайт
Продолжительность                        : 24 м.
Режим общего битрейта                    : Переменный
Общий поток                              : 3048 Кбит/сек
Дата кодирования                         : UTC 2012-02-24 16:05:01
Программа кодирования                    : mkvmerge v2.9.7 ('Tenderness') built on Jul  1 2009 18:43:35
Библиотека кодирования                   : libebml v0.7.7 + libmatroska v0.8.1

Видео
Идентификатор                            : 1
Формат                                   : AVC
Формат/Информация                        : Advanced Video Codec
Профиль формата                          : High 10@L4.1
Параметр CABAC формата                   : Да
Параметр ReFrames формата                : 9 кадров
Идентификатор кодека                     : V_MPEG4/ISO/AVC
Продолжительность                        : 24 м.
Битрейт                                  : 2731 Кбит/сек
Ширина                                   : 1280 пикселей
Высота                                   : 720 пикселей
Соотношение сторон                       : 16:9
Частота кадров                           : 23,976 кадра/сек
Цветовое пространство                    : YUV
Субдискретизация насыщенности            : 4:2:0
Битовая глубина                          : 10 бит
Тип развёртки                            : Прогрессивная
Бит/(Пиксели*Кадры)                      : 0.124
Размер потока                            : 472 Мбайт (90%)
Библиотека кодирования                   : x264 core 120 r2164 da19765
Настройки программы                      : cabac=1 / ref=9 / deblock=1:-2:-2 / analyse=0x3:0x133 / me=umh / subme=9 / psy=1 / psy_rd=0.90:0.00 / mixed_ref=1 / me_range=24 / chroma_me=1 / trellis=2 / 8x8dct=1 / cqm=0 / deadzone=21,11 / fast_pskip=1 / chroma_qp_offset=-2 / threads=6 / sliced_threads=0 / nr=0 / decimate=0 / interlaced=0 / bluray_compat=0 / constrained_intra=0 / bframes=8 / b_pyramid=2 / b_adapt=2 / b_bias=0 / direct=1 / weightb=1 / open_gop=0 / weightp=2 / keyint=250 / keyint_min=23 / scenecut=40 / intra_refresh=0 / rc=crf / mbtree=0 / crf=15.5 / qcomp=0.70 / qpmin=9 / qpmax=38 / qpstep=4 / ip_ratio=1.40 / pb_ratio=1.30 / aq=1:0.90
Default                                  : Да
Forced                                   : Нет

Аудио
Идентификатор                            : 2
Формат                                   : Vorbis
Параметр Floor формата                   : 1
Идентификатор кодека                     : A_VORBIS
Продолжительность                        : 24 м.
Вид битрейта                             : Переменный
Битрейт                                  : 256 Кбит/сек
Каналы                                   : 2 канала
Частота                                  : 48,0 КГц
Метод сжатия                             : С потерями
Размер потока                            : 44,2 Мбайт (8%)
Библиотека кодирования                   : libVorbis (Schaufenugget) (20101101 (Schaufenugget))
Язык                                     : Japanese
Default                                  : Да
Forced                                   : Нет


info [Профиль]  [ЛС] 

Skay

Пол: Пол:Муж

Стаж: 5 лет 4 месяца

Сообщений: 310

Рейтинг

post 27-Авг-2012 10:43 (спустя 7 часов) [-]0[+]

[Цитировать] 

DeathAngel
тут то обходится без постоянных мацаней и сисек? или тоже пострадала анимешка этим?

_________________
info [Профиль]  [ЛС] 

iSenjeru

Пол: Пол:Муж

Стаж: 5 лет 5 месяцев

Сообщений: 390

Казахстан
Рейтинг

post 27-Авг-2012 10:48 (спустя 5 минут) [-]0[+]

[Цитировать] 

Skay
Без этого
info [Профиль]  [ЛС] 

RX3041

Пол: Пол:Муж

Стаж: 7 лет 2 месяца

Сообщений: 112

Россия
Рейтинг

post 27-Авг-2012 10:59 (спустя 11 минут) [-]0[+]

[Цитировать] 

Так. В Кровь+ была куча болтовни и мало резни. Тут то баланс хоть немного сместился в сторону Крови?
info [Профиль]  [ЛС] 

iSenjeru

Пол: Пол:Муж

Стаж: 5 лет 5 месяцев

Сообщений: 390

Казахстан
Рейтинг

post 27-Авг-2012 13:00 (спустя 2 часа) [-]0[+]

[Цитировать] 

RX3041 писал(а):

Тут то баланс хоть немного сместился в сторону Крови?
Вроде как бы так,Blood + я толком то и не смог посмотреть
info [Профиль]  [ЛС] 

RX3041

Пол: Пол:Муж

Стаж: 7 лет 2 месяца

Сообщений: 112

Россия
Рейтинг

post 27-Авг-2012 13:06 (спустя 6 минут) [-]0[+]

[Цитировать] 

Тогда спасибо, качаю) Кровь+ я выдержал, но чуть не заснул(
info [Профиль]  [ЛС] 
Показать сообщения:    
Ответить на тему

Текущее время: 08-Дек 11:54

Часовой пояс: GMT + 4



Вы не можете начинать темы
Вы не можете отвечать на сообщения
Вы не можете редактировать свои сообщения
Вы не можете удалять свои сообщения
Вы не можете голосовать в опросах
Вы не можете прикреплять файлы к сообщениям
Вы не можете скачивать файлы