Ошибка

До окончания фрилича осталось:


Пьяный мастер 2. Легенда о пьяном мастере / The Legend of Drunken Master (Лю Чялян / Liu Chia-Liang, Джеки Чан / Jackie Chan) [1994 г., боевик, комедия, BDRemux]

Ответить на тему
 
Автор Сообщение

Exille

Пол: Пол:Муж

Стаж: 6 лет 10 месяцев

Сообщений: 209

Россия
Рейтинг

post 24-Авг-2012 14:53 0[+]

[Цитировать] 

Пьяный мастер 2 /Drunken Master II
«Не переходите ему дорогу когда он пьян!»


pic="http://s002.youpic.su/pictures/1345838400/ea5141ee8b37f3ce00598aa1c08671ab.jpg"
Год выпуска: 1994
Страна: Гонконг
Жанр: Боевик, комедия
Продолжительность: 01:42:30
Перевод: Профессиональный (многоголосый, закадровый)
Русские субтитры: присутствуют
Режиссер:
  • Лю Чялян / Liu Chia-Liang, Джеки Чан / Jackie Chan
В ролях:
  • Джеки Чан, Ланг Ти, Анита Муи, Феликс Вонг, Чиа-Лянг Лиу, Кен Ло, Кар Лок Чин, Ху Сунг Пак, Чи-Квонг Чеунг, Йи Сан Хон, Энди Лау, Чиа Юнг Лью, Сиу-Минг Лау, Суки Кван, Вэй Йи Чан, Син Вонг, Квок Куэнь Чан, По Тай, Куи Йинг Чан, Фонг Пао

  Пьяный мастер возвращается, его стиль становится еще более отточенным и смешным! Возвращаясь домой из шопинг-тура вместе со своим отцом, знаменитый «пьяный мастер» Вонг-Фей Хунг оказывается вовлеченным в потасовку между иностранцами, пытающимися вывезти из Китая ценные древние реликвии, и патриотами, которые хотят помешать вывозу этих предметов из страны. К сожалению, отец Вонг-Фей Хунга никогда не занимался ни одним из видов спорта, кроме пьяных драк, поэтому герою приходится сражаться практически одному против толпы. Но как всегда его удивительный стиль боя помогает ему расправиться с многочисленными врагами.


Качество: BDRemux
Формат: MKV
Видео кодек: VC1
Аудио кодек: AC3 / DTS
Видео: 1920x1080p / 23.976fps / 16:9 / Advanced Profile 3, VC1, ~ 22094 kbps
Аудио:
  • Русский: 48 kHz, AC3 Dolby Digital, 2/0 (L,R) ch, 192.00 kbps avg
  • English: English, DTS-HD Master Audio 5.1 / 48kHz / 24-bit / 4401kbps (DTS Core: 5.1 / 48kHz / 24-bit / 1536kbps)
Субтитры: Русские, English.

General
Unique ID : 193428756194086633075155381450648421123 (0x918505FB500AD3C4A6BBF90994818303)
Complete name : Drunken.Master.2.BDRemux.mkv
Format : Matroska
File size : 19.1 GiB
Duration : 1h 42mn
Overall bit rate : 26.7 Mbps
Encoded date : UTC 2012-08-19 19:55:29
Writing application : mkvmerge v5.7.0 ('The Whirlwind') built on Jul 8 2012 20:08:51
Writing library : libebml v1.2.3 + libmatroska v1.3.0
Attachment : Yes

Video
ID : 1
Format : VC-1
Format profile : AP@L3
Codec ID : WVC1
Codec ID/Hint : Microsoft
Duration : 1h 42mn
Bit rate : 24.4 Mbps
Width : 1 920 pixels
Height : 1 080 pixels
Display aspect ratio : 16:9
Frame rate : 23.976 fps
Chroma subsampling : 4:2:0
Bit depth : 8 bits
Scan type : Progressive
Compression mode : Lossy
Bits/(Pixel*Frame) : 0.491
Stream size : 17.5 GiB (91%)
Title : 1920x1080p / 23.976fps / 16:9 / Advanced Profile 3, VC1, ~ 22094 kbps

Audio #1
ID : 2
Format : AC-3
Format/Info : Audio Coding 3
Mode extension : CM (complete main)
Muxing mode : Header stripping
Codec ID : A_AC3
Duration : 1h 42mn
Bit rate mode : Constant
Bit rate : 192 Kbps
Channel(s) : 2 channels
Channel positions : Front: L R
Sampling rate : 48.0 KHz
Bit depth : 16 bits
Compression mode : Lossy
Stream size : 141 MiB (1%)
Title : Профессиональный (многоголосый, закадровый) - СТС (48 kHz, AC3, 2.0 ch, 192 kbps)
Language : Russian

Audio #2
ID : 3
Format : DTS
Format/Info : Digital Theater Systems
Format profile : MA / Core
Muxing mode : Header stripping
Codec ID : A_DTS
Duration : 1h 42mn
Bit rate mode : Variable
Bit rate : 1 576 Kbps / 1 510 Kbps
Channel(s) : 6 channels
Channel positions : Front: L C R, Side: L R, LFE
Sampling rate : 48.0 KHz
Bit depth : 24 bits
Compression mode : Lossless / Lossy
Title : English (DTS Core: 5.1 / 48kHz / 24-bit / 1536kbps)
Language : English

Text #1
ID : 4
Format : UTF-8
Codec ID : S_TEXT/UTF8
Codec ID/Info : UTF-8 Plain Text
Title : Русские субтитры
Language : Russian

Text #2
ID : 5
Format : UTF-8
Codec ID : S_TEXT/UTF8
Codec ID/Info : UTF-8 Plain Text
Title : English subtitles
Language : English

Menu
00:00:00.000 : en:Opening Credits / Paying Dues
00:05:54.271 : en:Gone Wild!
00:14:38.795 : en:Man of Intelligence
00:17:31.300 : en:Dirty Ginseng
00:25:21.228 : en:Overtime Hours, Overtime Pay!
00:28:59.279 : en:Drunken Boxing
00:33:53.865 : en:Chinese Mafia in Bad English Suits
00:46:09.892 : en:"You're Not My Son"
00:54:18.839 : en:Drunk and Alone, with No Home
00:58:44.563 : en:Father Forgive Me
01:01:06.913 : en:Eureka!
01:11:13.144 : en:"Seal of Approval"
01:17:15.673 : en:Shady Antiques
01:20:10.848 : en:Man in Battle
01:38:52.718 : en:Proud Family
01:39:40.391 : en:End Credits

Оформление by Реми
info [Профиль]  [ЛС] 

AleksG1975

Пол: Пол:Муж

Стаж: 6 лет 9 месяцев

Сообщений: 88

Украина
Рейтинг

post 24-Авг-2012 16:22 (спустя 1 час 29 минут) [-]0[+]

[Цитировать] 

Фильм супер! Да еще в ТАКОМ качестве Улыбаюсь

_________________
Aleks-G1975@yandex.com
info [Профиль]  [ЛС] 

LisДи

Пол: Пол:Муж

Стаж: 3 года 11 месяцев

Сообщений: 2

Россия
Рейтинг

post 09-Апр-2013 21:34 (спустя 7 месяцев 16 дней) [-]0[+]

[Цитировать] 

Дайте раздачу пожалуйста)
info [Профиль]  [ЛС] 
Показать сообщения:    
Ответить на тему

Текущее время: 10-Дек 22:37

Часовой пояс: GMT + 4



Вы не можете начинать темы
Вы не можете отвечать на сообщения
Вы не можете редактировать свои сообщения
Вы не можете удалять свои сообщения
Вы не можете голосовать в опросах
Вы не можете прикреплять файлы к сообщениям
Вы не можете скачивать файлы