Ошибка

Малыш и Карлсон. (Борис Степанцев) [1968,1970г., мультфильм, короткометражка, комедия, семейный, BDRip 1080p]

Ответить на тему
 
Автор Сообщение

FoXsikkk

Пол: Пол:Муж

Стаж: 5 лет 4 месяца

Сообщений: 82

Россия
Рейтинг

post 21-Авг-2012 21:22 1[+]

[Цитировать] 

pic="http://st.kinopoisk.ru/im/poster/1/5/4/kinopoisk.ru--1548364.jpg"
Малыш и Карлсон.
Малыш и Карлсон

Год выпуска: 1968
Страна: СССР
Жанр: мультфильм, короткометражка
Продолжительность: 00:18:32
Режиссер: Борис Степанцев
Сценарий: Борис Ларин, Астрид Линдгрен
Оператор: Михаил Друян
Композитор: Геннадий Гладков
В ролях:
Клара Румянова (Малыш, озвучка), Василий Ливанов (Карлсон, озвучка)

Описание: Всем известная история Малыша (который очень хотел собаку) и его друга, Карлсона, который живет на крыше.
Релиз на DVD: 15 декабря 2009, «Lizard Cinema Trade»
Релиз на Blu-ray: 5 апреля 2011, «Lizard Cinema Trade»
Рейтинг:
kinopoisk.ru: 8.444 (18 713)
imdb.com: 8.00 (404)
Качество: BDRip 1080p
Формат: MKV
Видео кодек: AVC
Аудио кодек: AC3
Видео: 1424x1080 (4:3); 12500 Kbps; 25 fps; 0,325 bpp
  • Аудио: Russian; AC3; 48 kHz, 448 Kbps; CBR; 6 ch

Код:

General
Unique ID                                : 211880833314213042821880709874504328398 (0x9F66C39F79C8B299AC3E59CB12F664CE)
Complete name                            : Malysh.i.Karlson.Sbornik.multfilmov.1957-1970.x264.BDRip(1080p)\1.Malysh.i.Karlson.1968.x264.BDRip(1080p)-KinozalHD.mkv
Format                                   : Matroska
Format version                           : Version 2
File size                                : 1.68 GiB
Duration                                 : 18mn 32s
Overall bit rate                         : 12.9 Mbps
Encoded date                             : UTC 2011-04-23 13:14:18
Writing application                      : mkvmerge v4.6.0 ('Still Crazy After All These Years') сборка от Mar 10 2011 02:50:32
Writing library                          : libebml v1.2.0 + libmatroska v1.1.0

Video
ID                                       : 1
Format                                   : AVC
Format/Info                              : Advanced Video Codec
Format profile                           : High@L4.1
Format settings, CABAC                   : Yes
Format settings, ReFrames                : 5 frames
Codec ID                                 : V_MPEG4/ISO/AVC
Duration                                 : 18mn 32s
Bit rate                                 : 12.5 Mbps
Width                                    : 1 424 pixels
Height                                   : 1 080 pixels
Display aspect ratio                     : 4:3
Frame rate                               : 25.000 fps
Color space                              : YUV
Chroma subsampling                       : 4:2:0
Bit depth                                : 8 bits
Scan type                                : Progressive
Bits/(Pixel*Frame)                       : 0.325
Stream size                              : 1.58 GiB (95%)
Writing library                          : x264 core 114 r1924 08d04a4
Encoding settings                        : cabac=1 / ref=5 / deblock=1:-3:-3 / analyse=0x3:0x133 / me=umh / subme=10 / psy=1 / psy_rd=1.00:0.05 / mixed_ref=1 / me_range=64 / chroma_me=1 / trellis=2 / 8x8dct=1 / cqm=0 / deadzone=21,11 / fast_pskip=1 / chroma_qp_offset=-3 / threads=9 / sliced_threads=0 / nr=0 / decimate=1 / interlaced=0 / constrained_intra=0 / bframes=10 / b_pyramid=2 / b_adapt=2 / b_bias=0 / direct=3 / weightb=1 / open_gop=0 / weightp=2 / keyint=250 / keyint_min=25 / scenecut=40 / intra_refresh=0 / rc_lookahead=60 / rc=2pass / mbtree=1 / bitrate=12493 / ratetol=1.0 / qcomp=0.70 / qpmin=0 / qpmax=69 / qpstep=4 / cplxblur=20.0 / qblur=0.5 / vbv_maxrate=50000 / vbv_bufsize=62500 / nal_hrd=none / ip_ratio=1.40 / aq=1:0.90
Default                                  : No
Forced                                   : No

Audio
ID                                       : 2
Format                                   : AC-3
Format/Info                              : Audio Coding 3
Mode extension                           : CM (complete main)
Codec ID                                 : A_AC3
Duration                                 : 18mn 32s
Bit rate mode                            : Constant
Bit rate                                 : 448 Kbps
Channel(s)                               : 6 channels
Channel positions                        : Front: L C R, Side: L R, LFE
Sampling rate                            : 48.0 KHz
Bit depth                                : 16 bits
Compression mode                         : Lossy
Stream size                              : 59.4 MiB (3%)
Language                                 : Russian
Default                                  : Yes
Forced                                   : Yes
Карлсон вернулся

Год выпуска: 1970
Страна: СССР
Жанр: мультфильм, короткометражка, комедия, семейный
Продолжительность: 00:19:12
Режиссер: Борис Степанцев
Сценарий: Борис Ларин, Астрид Линдгрен
Оператор: Михаил Друян
Композитор: Геннадий Гладков
В ролях:
Фаина Раневская (Фрекен Бок, озвучка), Василий Ливанов (Карлсон, озвучка), Клара Румянова (Малыш, озвучка)

Описание: Кинорежиссер Борис Степанцев снял дилогию о приключениях «самого лучшего в мире» Карлсона и его друга малыша, которая больше тридцати лет не сходит с экранов, продолжая очаровывать маленьких зрителей и их родителей.
Рейтинг:
kinopoisk.ru: 8.415 (14 187)
imdb.com: 8.00 (396)
Качество: BDRip 1080p
Формат: MKV
Видео кодек: AVC
Аудио кодек: AC3
Видео: 1424x1080 (4:3); 12500 Kbps; 25 fps; 0,325 bpp
  • Аудио: Russian; AC3; 48 kHz, 448 Kbps; CBR; 6 ch

Код:

General
Unique ID                                : 224160720831705479997330088171270557791 (0xA8A3C8D2679A5EC4934C3B894FF7D05F)
Complete name                            : Malysh.i.Karlson.Sbornik.multfilmov.1957-1970.x264.BDRip(1080p)\2.Karlson.vernulsja.1970.x264.BDRip(1080p)-KinozalHD.mkv
Format                                   : Matroska
Format version                           : Version 2
File size                                : 1.74 GiB
Duration                                 : 19mn 12s
Overall bit rate                         : 12.9 Mbps
Encoded date                             : UTC 2011-04-23 16:24:58
Writing application                      : mkvmerge v4.6.0 ('Still Crazy After All These Years') сборка от Mar 10 2011 02:50:32
Writing library                          : libebml v1.2.0 + libmatroska v1.1.0

Video
ID                                       : 1
Format                                   : AVC
Format/Info                              : Advanced Video Codec
Format profile                           : High@L4.1
Format settings, CABAC                   : Yes
Format settings, ReFrames                : 5 frames
Codec ID                                 : V_MPEG4/ISO/AVC
Duration                                 : 19mn 12s
Bit rate                                 : 12.5 Mbps
Width                                    : 1 424 pixels
Height                                   : 1 080 pixels
Display aspect ratio                     : 4:3
Frame rate                               : 25.000 fps
Color space                              : YUV
Chroma subsampling                       : 4:2:0
Bit depth                                : 8 bits
Scan type                                : Progressive
Bits/(Pixel*Frame)                       : 0.325
Stream size                              : 1.64 GiB (95%)
Writing library                          : x264 core 114 r1924 08d04a4
Encoding settings                        : cabac=1 / ref=5 / deblock=1:-3:-3 / analyse=0x3:0x133 / me=umh / subme=10 / psy=1 / psy_rd=1.00:0.05 / mixed_ref=1 / me_range=64 / chroma_me=1 / trellis=2 / 8x8dct=1 / cqm=0 / deadzone=21,11 / fast_pskip=1 / chroma_qp_offset=-3 / threads=9 / sliced_threads=0 / nr=0 / decimate=1 / interlaced=0 / constrained_intra=0 / bframes=10 / b_pyramid=2 / b_adapt=2 / b_bias=0 / direct=3 / weightb=1 / open_gop=0 / weightp=2 / keyint=250 / keyint_min=25 / scenecut=40 / intra_refresh=0 / rc_lookahead=60 / rc=2pass / mbtree=1 / bitrate=12493 / ratetol=1.0 / qcomp=0.70 / qpmin=0 / qpmax=69 / qpstep=4 / cplxblur=20.0 / qblur=0.5 / vbv_maxrate=50000 / vbv_bufsize=62500 / nal_hrd=none / ip_ratio=1.40 / aq=1:0.90
Default                                  : No
Forced                                   : No

Audio
ID                                       : 2
Format                                   : AC-3
Format/Info                              : Audio Coding 3
Mode extension                           : CM (complete main)
Codec ID                                 : A_AC3
Duration                                 : 19mn 12s
Bit rate mode                            : Constant
Bit rate                                 : 448 Kbps
Channel(s)                               : 6 channels
Channel positions                        : Front: L C R, Side: L R, LFE
Sampling rate                            : 48.0 KHz
Bit depth                                : 16 bits
Compression mode                         : Lossy
Stream size                              : 61.6 MiB (3%)
Language                                 : Russian
Default                                  : Yes
Forced                                   : Yes
info [Профиль]  [ЛС] 

FuriouSAngeL

Пол: Пол:Муж

Стаж: 5 лет 5 месяцев

Сообщений: 1830

Германия
Рейтинг

post 21-Авг-2012 21:53 (спустя 30 минут) [-]3[+]

[Цитировать] 

Любимые мультфильмы детства kolob_117

_________________
info [Профиль]  [ЛС] 
Показать сообщения:    
Ответить на тему

Текущее время: 09-Дек 09:54

Часовой пояс: GMT + 4



Вы не можете начинать темы
Вы не можете отвечать на сообщения
Вы не можете редактировать свои сообщения
Вы не можете удалять свои сообщения
Вы не можете голосовать в опросах
Вы не можете прикреплять файлы к сообщениям
Вы не можете скачивать файлы