Ошибка

Труп Невесты /Corpse Bride (Тим Бёртон, Майк Джонсон / Tim Burton, Mike Johnson) [2005 г., мультфильм, анимация, мюзикл, комедия, BDRemux]

Ответить на тему
 
Автор Сообщение

Exille

Пол: Пол:Муж

Стаж: 6 лет 10 месяцев

Сообщений: 209

Россия
Рейтинг

post 18-Авг-2012 20:10 4[+]

[Цитировать] 

Труп Невесты /Corpse Bride
«Ошибка оказалась смертельной...»

pic="http://s002.youpic.su/pictures/1345320000/00ce237e8e521d95bc1171027646988a.jpg"
Год выпуска: 2005
Страна: США, Великобритания
Жанр: мультфильм, анимация, мюзикл, комедия
Продолжительность: 01:17:11
Перевод: Профессиональный (полное дублирование)
Русские субтитры: присутствуют
Режиссер:
  • Тим Бёртон, Майк Джонсон / Tim Burton, Mike Johnson
В ролях:
  • Джонни Депп, Хелена Бонем Картер, Эмили Уотсон, Трейси Уллмен, Пол Уайтхаус, Джоанна Ламли, Альберт Финни, Ричард Э. Грант, Кристофер Ли, Майкл Гоф

  Действие развивается в европейской деревушке XIX века. Главного героя – молодого человека Виктора – силы тьмы утаскивают в преисподнюю и женят там на таинственном Трупе Невесты, в то время как его настоящая невеста Виктория ожидает своего жениха в мире живых.
  Несмотря на то, что проживание в Царстве мертвых оказывается много интересней, чем его привычный викторианский образ жизни, Виктор понимает, что свою единственную любовь он не променяет ни на что ни в одном из альтернативных миров…

Качество: BDRemux
Формат: MKV
Видео кодек: VC-1
Аудио кодек: AC3
Видео: 1920x1080, VC-1 , 23.976 fps, ~ 18 000 kbps
Аудио:
  • Русский: AC3, 6ch, 448 kbps, 48.0 KHz - Дубляж
  • Русский: AC3, 6ch, 448 kbps, 48.0 KHz - Профессиональный (многоголосый закадровый) - Tycoon studios
  • English: AC3, 6ch, 640 kbps, 48.0 KHz - Оригинальная озвучка
  • English: AC3, 6ch, 640 kbps, 48.0 KHz - Музыкальное сопровождение
Субтитры: Русские, English
Автор remux'a: Реми. Исходник: Blu-ray Disc (Custom) - HDv 0day Team

General
Unique ID : 202493037672348257617020078920032212912 (0x9856BD8FFC90574CB7B48AF3EAA257B0)
Complete name : Corps.Bride.BDRemux.mkv
Format : Matroska
File size : 11.1 GiB
Duration : 1h 17mn
Overall bit rate : 20.6 Mbps
Movie name : -=Remy=- (TAPOCHEK.NET)
Encoded date : UTC 2012-08-18 12:44:27
Writing application : mkvmerge v5.7.0 ('The Whirlwind') built on Jul 8 2012 20:08:51
Writing library : libebml v1.2.3 + libmatroska v1.3.0

Video
ID : 1
Format : VC-1
Format profile : AP@L3
Codec ID : WVC1
Codec ID/Hint : Microsoft
Duration : 1h 17mn
Bit rate : 18.0 Mbps
Width : 1 920 pixels
Height : 1 080 pixels
Display aspect ratio : 16:9
Frame rate : 23.976 fps
Chroma subsampling : 4:2:0
Bit depth : 8 bits
Scan type : Progressive
Compression mode : Lossy
Bits/(Pixel*Frame) : 0.363
Stream size : 9.73 GiB (87%)
Title : 1920x1080, VC-1
Language : English

Audio #1
ID : 2
Format : AC-3
Format/Info : Audio Coding 3
Mode extension : CM (complete main)
Muxing mode : Header stripping
Codec ID : A_AC3
Duration : 1h 17mn
Bit rate mode : Constant
Bit rate : 448 Kbps
Channel(s) : 6 channels
Channel positions : Front: L C R, Side: L R, LFE
Sampling rate : 48.0 KHz
Bit depth : 16 bits
Compression mode : Lossy
Stream size : 247 MiB (2%)
Title : Дубляж (AC3, 6ch, 448 kbps, 48.0 KHz)
Language : Russian

Audio #2
ID : 3
Format : AC-3
Format/Info : Audio Coding 3
Mode extension : CM (complete main)
Muxing mode : Header stripping
Codec ID : A_AC3
Duration : 1h 17mn
Bit rate mode : Constant
Bit rate : 448 Kbps
Channel(s) : 6 channels
Channel positions : Front: L C R, Side: L R, LFE
Sampling rate : 48.0 KHz
Bit depth : 16 bits
Compression mode : Lossy
Stream size : 247 MiB (2%)
Title : Профессиональный (многоголосый закадровый) - Tycoon studios (AC3, 6ch, 448 kbps, 48.0 KHz)
Language : Russian

Audio #3
ID : 4
Format : AC-3
Format/Info : Audio Coding 3
Mode extension : CM (complete main)
Muxing mode : Header stripping
Codec ID : A_AC3
Duration : 1h 17mn
Bit rate mode : Constant
Bit rate : 640 Kbps
Channel(s) : 6 channels
Channel positions : Front: L C R, Side: L R, LFE
Sampling rate : 48.0 KHz
Bit depth : 16 bits
Compression mode : Lossy
Stream size : 353 MiB (3%)
Title : Оригинальная озвучка
Language : English

Audio #4
ID : 5
Format : AC-3
Format/Info : Audio Coding 3
Mode extension : CM (complete main)
Muxing mode : Header stripping
Codec ID : A_AC3
Duration : 1h 17mn
Bit rate mode : Constant
Bit rate : 640 Kbps
Channel(s) : 6 channels
Channel positions : Front: L C R, Side: L R, LFE
Sampling rate : 48.0 KHz
Bit depth : 16 bits
Compression mode : Lossy
Stream size : 353 MiB (3%)
Title : Музыкальное сопровождение (AC3, 6ch, 640 kbps, 48.0 KHz)
Language : English

Text #1
ID : 6
Format : PGS
Muxing mode : zlib
Codec ID : S_HDMV/PGS
Codec ID/Info : The same subtitle format used on BDs/HD-DVDs
Title : Русские субтитры
Language : Russian

Text #2
ID : 7
Format : PGS
Muxing mode : zlib
Codec ID : S_HDMV/PGS
Codec ID/Info : The same subtitle format used on BDs/HD-DVDs
Title : Английские субтитры
Language : English

Оформление by Реми
info [Профиль]  [ЛС] 

Joey

Пол: Пол:Муж

Стаж: 5 лет 4 месяца

Сообщений: 434

Украина
Рейтинг

post 18-Авг-2012 20:23 (спустя 13 минут) [-]3[+]

[Цитировать] 

Шикарнейший мульт! Спасибо!
info [Профиль]  [ЛС] 

Ritsu

Пол: Пол:Муж

Стаж: 5 лет 5 месяцев

Сообщений: 856

Австралия
Рейтинг

post 18-Авг-2012 21:17 (спустя 53 минуты) [-]1[+]

[Цитировать] 

Оуда!

Забираю и встаю на раздачу :3

_________________
Флудите вместе с Рицу и будет вам счастье! ^__^

"...Зажжем рок в этой дыре!.."
info [Профиль]  [ЛС] 

Baret1986

Пол: Пол:Муж

Стаж: 4 года 8 месяцев

Сообщений: 16

Россия
Рейтинг

post 18-Авг-2012 21:36 (спустя 19 минут) [-]1[+]

[Цитировать] 

Качаю - раздаю!
info [Профиль]  [ЛС] 

GOODWIN93

Пол: Пол:Муж

Стаж: 6 лет 8 месяцев

Сообщений: 108

Россия
Рейтинг

post 18-Авг-2012 23:08 (спустя 1 час 32 минуты) [-]1[+]

[Цитировать] 

Вот это лучший мульт Бартона. Не понимаю людей которым не нравится этот шедевр!
На винте давно уже есть этот мультфильм в маленьком разрешении и весом около 2х гигов, скачаю из этой раздачи для коллекции.
info [Профиль]  [ЛС] 

r154

Пол: Пол:Муж

Стаж: 4 года 11 месяцев

Сообщений: 43

Рейтинг

post 19-Авг-2012 00:28 (спустя 1 час 19 минут) [-]1[+]

[Цитировать] 

Замечательный фильм

_________________
n/a
info [Профиль]  [ЛС] 

chelentano81

Пол: Пол:Муж

Стаж: 6 лет 9 месяцев

Сообщений: 32

Украина
Рейтинг

post 19-Авг-2012 09:57 (спустя 9 часов) [-]1[+]

[Цитировать] 

Согласен ! Это шедевр !!! Мой любимый мультфильм )
info [Профиль]  [ЛС] 

FuriouSAngeL

Пол: Пол:Муж

Стаж: 5 лет 5 месяцев

Сообщений: 1830

Германия
Рейтинг

post 19-Авг-2012 21:42 (спустя 11 часов) [-]0[+]

[Цитировать] 

Мульт просто супер! Тим Бёртон - гений!

_________________
info [Профиль]  [ЛС] 

HePeaJIbHoCTb

Пол: Пол:Муж

Стаж: 6 лет 9 месяцев

Сообщений: 32

Россия
Рейтинг

post 23-Авг-2012 20:25 (спустя 3 дня) [-]0[+]

[Цитировать] 

Спасибо =)

_________________
info [Профиль]  [ЛС] 
Показать сообщения:    
Ответить на тему

Текущее время: 09-Дек 07:55

Часовой пояс: GMT + 4



Вы не можете начинать темы
Вы не можете отвечать на сообщения
Вы не можете редактировать свои сообщения
Вы не можете удалять свои сообщения
Вы не можете голосовать в опросах
Вы не можете прикреплять файлы к сообщениям
Вы не можете скачивать файлы