Ошибка

Мегамозг / Megamind (Том МакГрат / Tom McGrath) [2010 г., фантастика, боевик, комедия, семейный, BDRip 1080p]

Ответить на тему
 
Автор Сообщение

FoXsikkk

Пол: Пол:Муж

Стаж: 5 лет 4 месяца

Сообщений: 82

Россия
Рейтинг

post 23-Июл-2012 15:00 1[+]

[Цитировать] 

pic="http://st.kinopoisk.ru/im/poster/1/3/6/kinopoisk.ru-Megamind-1368590.jpg"
Мегамозг / Megamind

Год выпуска: 2010
Страна: США
Слоган: «It's big for a reason.»
Жанр: мультфильм, фантастика, боевик, комедия, семейный
Продолжительность: 01:35:35
Перевод: Профессиональный (полное дублирование)
Субтитры: Руссские, Английские
Режиссер: Том МакГрат / Tom McGrath
Сценарий: Алан Дж. Скулкрафт / Alan J. Schoolcraft, Брент Саймонс / Brent Simons
Продюсер: Лара Брей / Lara Breay, Дэниз Нолан Каскино / Denise Nolan Cascino, Стюарт Корнфелд / Stuart Cornfeld, Холли Эдвардс / Holly Edwards, Бен Стиллер / Ben Stiller
Композитор: Лорни Бэлфи / Lorne Balfe, Ханс Циммер / Hans Zimmer
В ролях: Уилл Феррелл (Megamind, озвучка), Тина Фей (Roxanne Ritchie, озвучка), Джона Хилл (Hal Stewart / Titan, озвучка), Дэвид Кросс (Minion, озвучка), Брэд Питт (Metro Man, озвучка), Дж.К. Симмонс (Warden, озвучка), Бен Стиллер (Bernard, озвучка), Джастин Теру (Megamind's Father, озвучка), Джессика Шульте (Megamind's Mother, озвучка), Том МакГрат (Lord Scott / Prison Guard, озвучка), Эмили Нордвинд (Lady Scott, озвучка), Элла Оливия Стиллер (Schoolchild, озвучка)
Роли дублировали: Илья Исаев (Megamind), Наталья Грачева (Roxanne Ritchie), Даниель Кайгермазов (Hal Stewart / Titan), Александр Гаврилин (Minion), Денис Беспалый (Metro Man), Александр Новиков (Warden)
Бюджет: $130 000 000
Сборы в США: $148 415 853
Сборы в России: $22 001 067
Сборы в мире: $321 885 765
Мировая премьера: 28 октября 2010
Релиз на DVD: 19 апреля 2011, «Юниверсал Пикчерс Рус»
Релиз на Blu-ray: 17 мая 2011, «Юниверсал Пикчерс Рус»
Описание: Мегамозг - самый гениальный и самый неудачливый злодей в мире. Вот уже много лет он пытается покорить Метро-Сити самыми разнообразными способами. Но каждая такая попытка кончается провалом по вине супергероя по имени Метро-Мэн. Но злодей убивает супергероя, и внезапно Мегамозг лишается цели в жизни. Суперзлодей без супергероя.
Единственный выход - создать нового супергероя, которого он называет Титаном. Но Титан решает, что быть злодеем куда интереснее. Вот только ему не хочется править миром, он желает его уничтожить. Мегамозгу предстоит непростой выбор. Сможет ли злой гений стать героем - спасителем человечества.
Рейтинг:
kinopoisk.ru: 7.752 (36 012)
imdb.com: 7.30 (71 746)
MPAA: PG - Рекомендуется присутствие родителей
Качество: BDRip 1080p
Формат: MKV
Видео кодек: x264
Аудио кодек: AC3, DTS
Видео: 1920x816 (2.35:1); 9000 Kbps; 23,976 fps; 0,240 bpp
  • AC3; 48 kHz, 640 Kbps; CBR; 6 ch |Дубляж, Blu-ray CEE|
  • AC3; 48 kHz, 640 Kbps; CBR; 6 ch |Профессиональный двухголосый закадровый, BBC Saint-Petersburg|
  • Ukrainian; AC3; 48 kHz, 640 Kbps; CBR; 6 ch |Дубляж, Blu-ray CEE|
  • English; DTS; 48 kHz, 1510 Kbps; CBR; 6 ch; 24 bit

  • На ранних этапах производства лента носила название «Master Mind». Но позже, ввиду разногласий с компанией Marvel, которая уже зарегистрировала подобное словосочетание как товарный знак, название фильма пришлось сменить.

Код:

General
Unique ID                                : 218709565980713181938425534899236649183 (0xA489EE23335D271C81F87035011038DF)
Complete name                            : Megamind.2010.1080p.BluRay.mkv
Format                                   : Matroska
Format version                           : Version 2
File size                                : 8.30 GiB
Duration                                 : 1h 35mn
Overall bit rate                         : 12.4 Mbps
Movie name                               : Megamind (2010)
Encoded date                             : UTC 2011-04-16 13:36:50
Writing application                      : mkvmerge v3.3.0 ('Language') built on Mar 24 2010 14:59:24
Writing library                          : libebml v0.8.0 + libmatroska v0.9.0

Video
ID                                       : 1
Format                                   : AVC
Format/Info                              : Advanced Video Codec
Format profile                           : High@L4.1
Format settings, CABAC                   : Yes
Format settings, ReFrames                : 5 frames
Codec ID                                 : V_MPEG4/ISO/AVC
Duration                                 : 1h 35mn
Bit rate                                 : 9 000 Kbps
Width                                    : 1 920 pixels
Height                                   : 816 pixels
Display aspect ratio                     : 2.35:1
Frame rate                               : 23.976 fps
Color space                              : YUV
Chroma subsampling                       : 4:2:0
Bit depth                                : 8 bits
Scan type                                : Progressive
Bits/(Pixel*Frame)                       : 0.240
Stream size                              : 5.84 GiB (70%)
Title                                    : Megamind (2010)
Writing library                          : x264 core 114 r1913 5fd3dce
Encoding settings                        : cabac=1 / ref=5 / deblock=1:-3:-3 / analyse=0x3:0x113 / me=tesa / subme=10 / psy=1 / psy_rd=0.65:0.00 / mixed_ref=1 / me_range=16 / chroma_me=1 / trellis=2 / 8x8dct=1 / cqm=0 / deadzone=21,11 / fast_pskip=0 / chroma_qp_offset=-2 / threads=12 / sliced_threads=0 / nr=0 / decimate=0 / interlaced=0 / constrained_intra=0 / bframes=6 / b_pyramid=2 / b_adapt=2 / b_bias=0 / direct=3 / weightb=1 / open_gop=0 / weightp=2 / keyint=250 / keyint_min=23 / scenecut=40 / intra_refresh=0 / rc=2pass / mbtree=0 / bitrate=9000 / ratetol=1.0 / qcomp=0.60 / qpmin=0 / qpmax=69 / qpstep=4 / cplxblur=20.0 / qblur=0.5 / ip_ratio=1.40 / pb_ratio=1.30 / aq=1:0.95 / zones=4474,4653,b=2.5/14695,14789,b=2.5/34389,34530,b=2.5/63683,63954,b=2.5/83742,84204,b=2.5/99537,99568,b=2.5/99657,100007,b=2.5/100174,100336,b=2.5/100495,100713,b=2.5/100833,100980,b=2.5/104174,105048,b=2.5/105201,105329,b=2.5/105460,105523,b=2.5/105604,105648,b=2.5/105705,107351,b=2.5
Language                                 : English
Default                                  : No
Forced                                   : No

Audio #1
ID                                       : 2
Format                                   : AC-3
Format/Info                              : Audio Coding 3
Mode extension                           : CM (complete main)
Codec ID                                 : A_AC3
Duration                                 : 1h 35mn
Bit rate mode                            : Constant
Bit rate                                 : 640 Kbps
Channel(s)                               : 6 channels
Channel positions                        : Front: L C R, Side: L R, LFE
Sampling rate                            : 48.0 KHz
Bit depth                                : 16 bits
Compression mode                         : Lossy
Delay relative to video                  : 4s 800ms
Stream size                              : 438 MiB (5%)
Title                                    : Dub
Language                                 : Russian
Default                                  : Yes
Forced                                   : No

Audio #2
ID                                       : 3
Format                                   : AC-3
Format/Info                              : Audio Coding 3
Mode extension                           : CM (complete main)
Codec ID                                 : A_AC3
Duration                                 : 1h 35mn
Bit rate mode                            : Constant
Bit rate                                 : 640 Kbps
Channel(s)                               : 6 channels
Channel positions                        : Front: L C R, Side: L R, LFE
Sampling rate                            : 48.0 KHz
Bit depth                                : 16 bits
Compression mode                         : Lossy
Stream size                              : 438 MiB (5%)
Title                                    : DVO
Language                                 : Russian
Default                                  : No
Forced                                   : No

Audio #3
ID                                       : 4
Format                                   : AC-3
Format/Info                              : Audio Coding 3
Mode extension                           : CM (complete main)
Codec ID                                 : A_AC3
Duration                                 : 1h 35mn
Bit rate mode                            : Constant
Bit rate                                 : 640 Kbps
Channel(s)                               : 6 channels
Channel positions                        : Front: L C R, Side: L R, LFE
Sampling rate                            : 48.0 KHz
Bit depth                                : 16 bits
Compression mode                         : Lossy
Delay relative to video                  : 4s 800ms
Stream size                              : 438 MiB (5%)
Language                                 : Ukrainian
Default                                  : No
Forced                                   : No

Audio #4
ID                                       : 5
Format                                   : DTS
Format/Info                              : Digital Theater Systems
Codec ID                                 : A_DTS
Duration                                 : 1h 35mn
Bit rate mode                            : Constant
Bit rate                                 : 1 510 Kbps
Channel(s)                               : 6 channels
Channel positions                        : Front: L C R, Side: L R, LFE
Sampling rate                            : 48.0 KHz
Bit depth                                : 24 bits
Compression mode                         : Lossy
Stream size                              : 1.01 GiB (12%)
Language                                 : English
Default                                  : No
Forced                                   : No

Text #1
ID                                       : 6
Format                                   : UTF-8
Codec ID                                 : S_TEXT/UTF8
Codec ID/Info                            : UTF-8 Plain Text
Language                                 : Russian
Default                                  : No
Forced                                   : No

Text #2
ID                                       : 7
Format                                   : UTF-8
Codec ID                                 : S_TEXT/UTF8
Codec ID/Info                            : UTF-8 Plain Text
Language                                 : English
Default                                  : No
Forced                                   : No

info [Профиль]  [ЛС] 

lampard960

Пол: Пол:Муж

Стаж: 4 года 11 месяцев

Сообщений: 619

Ангилья
Рейтинг

post 24-Июл-2012 11:05 (спустя 20 часов) [-]0[+]

[Цитировать] 

Благодарю

_________________
info [Профиль]  [ЛС] 

Constant

Пол: Пол:Муж

Стаж: 7 лет 2 месяца

Сообщений: 466

Россия
Рейтинг

post 24-Июл-2012 14:51 (спустя 3 часа) [-]0[+]

[Цитировать] 

Отличный мультфильм)))

_________________
Xbox 360 slim 250gb+kinect LT+2.0 Dashboard 2.0 16536
PC CPU FX8320 RAM 8gb 1600 GPU R9 270X SSD 120 HDD 2TB Power 750W
info [Профиль]  [ЛС] 
Показать сообщения:    
Ответить на тему

Текущее время: 03-Дек 06:30

Часовой пояс: GMT + 4



Вы не можете начинать темы
Вы не можете отвечать на сообщения
Вы не можете редактировать свои сообщения
Вы не можете удалять свои сообщения
Вы не можете голосовать в опросах
Вы не можете прикреплять файлы к сообщениям
Вы не можете скачивать файлы