Ошибка

Гражданин поэт. Прогон года (Вера Кричевская) [2012, Документальный, DVDRip]

Ответить на тему
 
Автор Сообщение

vetal747

Пол: Пол:Муж

Стаж: 7 лет 8 месяцев

Сообщений: 7

Россия
Рейтинг

post 07-Июл-2012 10:55 0[+]

[Цитировать] 

Гражданин поэт. Прогон года

Страна: Россия
Жанр: документальный
Год выпуска: 2012
Продолжительность: 01:29:52
Перевод: не требуется
Cубтитры: нет
Режиссер: Вера Кричевская
В ролях: Михаил Ефремов, Андрей Васильев, Дмитрий Быков
Описание: «Гражданин поэт. Прогон года» — это не продолжение одноименного сатирического проекта, ставшего бешено популярным в России в 2011—2012 гг. И даже не его итог. Это фильм-воспоминание о самом живом, мощном и интересном годе в политической жизни страны за последние 20 лет. Фильм-размышление о причинах стремительного пробуждения гражданской позиции миллионов людей. Фильм-послание в наше недалекое будущее

Тип релиза: DVDRip
Контейнер: AVI
Видео: 720x400 (1.80:1), 25 fps, XviD build 65 ~1862 kbps avg, 0.26 bit/pixel
Аудио: 48 kHz, AC3 Dolby Digital, 3/2 (L,C,R,l,r) + LFE ch, ~448 kbps
Complete name: Grazhdanin.poet.Progon.goda.2012.DVDRip.avi
Format: AVI
Format/Info: Audio Video Interleave
File size: 1.46 GiB
Duration: 1h 29mn
Overall bit rate: 2 320 Kbps

Video
ID: 0
Format: MPEG-4 Visual
Format profile: Advanced Simple@L5
Format settings, BVOP: Yes
Format settings, QPel: No
Format settings, GMC: No warppoints
Format settings, Matrix: Custom
Codec ID: XVID
Codec ID/Hint: XviD
Duration: 1h 29mn
Bit rate: 1 862 Kbps
Width: 720 pixels
Height : 400 pixels
Display aspect ratio: 16:9
Frame rate: 25.000 fps
Color space: YUV
Chroma subsampling: 4:2:0
Bit depth: 8 bits
Scan type: Progressive
Bits/(Pixel*Frame): 0.259
Stream size: 1.17 GiB (80%)
Writing library: XviD 65

Audio
ID: 1
Format: AC-3
Format/Info: Audio Coding 3
Mode extension: CM (complete main)
Codec ID: 2000
Duration: 1h 29mn
Bit rate mode: Constant
Bit rate: 448 Kbps
Channel(s): 6 channels
Channel positions: Front: L C R, Side: L R, LFE
Sampling rate: 48.0 KHz
Bit depth: 16 bits
Stream size: 288 MiB (19%)
Alignment: Split accross interleaves
Interleave, duration: 40 ms (1.00 video frame)
Interleave, preload duration: 500 ms
info [Профиль]  [ЛС] 

post 07-Июл-2012 13:16 (спустя 2 часа 21 минута) [-]0[+]

Топик был перенесен из форума Анонсы в форум Документальные фильмы и телепередачи

chingis
 
Показать сообщения:    
Ответить на тему

Текущее время: 04-Дек 06:00

Часовой пояс: GMT + 4



Вы не можете начинать темы
Вы не можете отвечать на сообщения
Вы не можете редактировать свои сообщения
Вы не можете удалять свои сообщения
Вы не можете голосовать в опросах
Вы не можете прикреплять файлы к сообщениям
Вы не можете скачивать файлы