Ошибка

Rammstein - Live aus St.Petersburg 2012 [2012г., Industrial Rock, HDCamRip]

Ответить на тему
 
Автор Сообщение

Zombiner

Пол: Пол:Муж

Стаж: 4 года 5 месяцев

Сообщений: 5

Россия
Рейтинг

post 01-Июл-2012 14:42 1[+]

[Цитировать] 

Rammstein - Live aus St. Petersburg 13.02.2012
Происхождение исполнителя: Germany
Год выпуска: 2012
Жанр: Industrial Metal
Режиссер: Александр Булатов
Продолжительность: 01:57:27 + 00:41:16 (бонусы)
Состав: Тилль Линдеманн (Вокал), Кристиан Лоренц (Клавиши), Кристоф Шнайдер (Ударные), Рихард Круспе (Соло-гитара), Оливер Ридель (Бас-гитара), Пауль Ландерс (Ритм-гитара)
Трейлер: Смотреть
Качество: HDCamRip (1080p)
Формат: BDMV
Видео: MPEG-4 AVC
Данные видео: 15616 кбит/с, 1920x1080, 25 кадр/с
Аудио: АС3
Данные аудио: 2 ch, 384 Кбит/с
Размер: 18.9 ГБ

Описание:
Это не официальная концертная запись группы, однако она обладает очень высоким качеством монтажа, видео и звука (звук не с камеры, а с многоканальных микрофонов XY). Первый концерт из трех, которые должны выйти в рамках поддержки концертов Российского тура. Следующие на очереди Москва 10 и 11 число.

Сетлист:
1. Intro
2. Sonne
3. Wollt Ihr Das Bett In Flammen Sehen?
4. Keine Lust
5. Sehnsucht
6. Asche zu Asche
7. Feuer Frei!
8. Mutter
9. Mein Teil
10. Du Riecht So Gut
11. Links 234
12. Du Hast
13. Haifisch

B-Stage
14. Buck Dich
15. Mann Gegen Mann
16. Ohne Dich

M-Stage
17. Mein Herz Brennt
18. Amerika
19. Ich Will
20. Engel
21. Pussy

+Bonus
1. Sonne (Slovakia, Bratislava, Zimny Stadion Ondreja Nepelu)
2. Buck Dich (France, Strasbourg, Zenith de Strasbourg)
3. Ohne Dich (France, Strasbourg, Zenith de Strasbourg)
4. Fruhling in Paris (France, Paris, Bercy)
5. Moskau (Russia, Moscow, Sport Complex Olimpiyskiy)

Extra bonus
1. Lied Von Der Unruhevollen Jugend (Remastered, Russia, St. Petersburg, SKK, 19/11/2001)
Rammstein - Live aus Sport Concert Complex Peterburgski 13/02/2012 Directed by VinZ

Я не буду начинать свою речь с банального "Wer wartet mit Besonnenheit..."и лучше расскажу вам немного о том, как шла работа над данным релизом.
Идея сделать мультикамерный концерт Санкт-Петербурга была всегда. Как только начался тур, Александр Булатов, он же VinZ, сразу сказал, "Я хочу и буду делать этот проект". Но потом мы все-таки решили, что успеем сделать один концерт до февральского сезона Российских концертов и взялись за Братиславу. После российских концертов уже все знали свои роли и обязанности, но не знали масштабов и не имели ни малейшего представления, что же получится в итоге. Концерт в Санкт-Петербурге особенный в первую очередь тем, что там практически не было контроля над тем, кто и что проносит в СКК. Совсем небыло. По этому там было так много фаеров и... *барабанная дробь* HD камер. В Москве же все было в точности наоборот (меня например заставили вообще все выложить из карманов и 2 раза обыскали. И это был VIP. Я представляю, как обыскивали фанатов, которые приобрели билеты на сектора и фан-зону. Но, тем не менее, некоторым все же удалось сделать невозможное, и от особого недостатка материала Москва не страдает. Но по сравнению с Петербургом, любой концерт тура и близко не сравнится с количеством, и главное КАЧЕСТВОМ материала.
Но все это видео ВАШЕ. Его предоставили нам именно ВЫ, уважаемые фанаты. Данный концерт - это проект невиданных доселе масштабов, в котором принимали участие более 100 человек из разных уголков России и стран СНГ. Каждый из нас по своему сделал свой вклад в это дело, поэтому, я называю его "Fans-to-Fans Edition". Его созданием занимались фанаты как для себя, так и для других поклонников Rammstein, которые там были, но хотят заново пережить все те светлые впечатления, которые подарил нам тот прекрасный вечер. А так же те, кому не удалось попасть туда по тем или иным причинам, но они хотели бы увидеть все то, что происходило в те незабываемые часы. И теперь у всех есть такая возможность, благодаря не только мне и VinZ'y но и всем вам, всем кто делился с нами материалом. Всем, кто помогал и добывал этот материал, а так же Александру Журавлеву за шикарный аудиобутлег. Меня переполняет чувство гордости за наше фан-сообщество в целом, а так же за то, что мы можем подарить всему миру сей концерт и дать достойный отпор мексиканским, уругвайским, немецким и французким фанатам.
Но на этом мой рассказ не закончен.
В первую очередь, как только я приехал домой, я начал размышлять над тем, как же нам собрать как можно больше видео со всех трех концертов и еще даже не подозревал о том, сколько всего нам удастся собрать. Около 50% видео мы до сих пор не выложили в сеть, т.к. некоторые начали их использовать и делать свои мультикамеры. Не подумайте, дело не в зависти или обиде. Просто если бы вы до выхода полноценного концерта уже увидели все это видео – оно бы уже не произвело такого впечатления, которое вы получите при просмотре данного концерта.
Я связался с администраторами из группы Rammstein Вконтакте (vk.com/rammstein) и предложил идею совместного проекта, чтобы они помогли собрать нам материал. Благодаря сумасшедшему количеству участников в группе, наплыв видео только рос, а для большего эффекта я писал практически каждому человеку, кто выкладывал видео, лично, с просьбой поделиться исходными файлами, что тоже дало очень весомые результаты. В итоге, мы собрали материала более чем на 300 гб, что отняло у нас около 1,5-2 месяца только на просмотр, и только после началась работа над монтажом. Для тех, кто когда-либо работал с монтажом видео - не секрет, что это очень трудоемкий процесс, который занимает огромнейшее количество времени, терпения и внимательности. Но помимо этого есть еще и личная жизнь, от которой никуда не денешься и нам пришлось откладывать релиз несколько раз, за что мы искренне просим прощения.
Чем больше VinZ мне демонстрировал готовых песен, тем больше я понимал, что грядет что-то невероятное, что-то, чего еще никто, в том числе и мы сами, еще не делали. Изобилие отличных кадров, крупных планов и интересных моментов, которых многие посетители концерта могли и не заметить. Я вам обещаю, что вы увидите очень много нового и интересного, даже если лично были на этом концерте. Например, не все заметили, что Тилль сказал "БОЛЬШОООЙ!" когда взял в руки большой огнемет на Mein Teil. Он не говорил этого в микрофон, однако это четко можно прочитать по его губам . А потом, когда Флаке не вылез из котла, он сказал - "Умер", опять же на русском языке. И это лишь малая толика того, что вы сможете лицезреть. Очень ярко на видео отражено, что Шнайдер был в бешенстве, когда они вышли на малую сцену, а Пауль пытался его успокоить. Это отлично видно на видео, но на концерте, под массой других впечатлений, можно было и не заметить. Но, как говорится, лучше один раз увидеть чем семь раз услышать.
Теперь о плохом. На этой неделе, когда у меня у самого был огромный завал по всем фронтам, начались проблемы и с мультикамерами. У Антона (он же DihlofozzZ) начались проблемы на работе, из за которых пришлось отодвинуть релиз примерно до 10го июля, у Darksun тоже начались проблемы в личной жизни, которые неизвестно когда закончатся, и по сей причине 11го числа тоже откладывается на неопределенный срок. А Петербург был готов, даже бонусный материал был готов. И почти наверняка мы бы не стали сейчас его выкладывать, но VinZ’у нужно уезжать на все оставшееся лето, и если мы не выложим его сейчас, то всем пришлось бы ждать до сентября, а так долго мучать фанатов нам совесть не позволяет. И вот в среду я понял, что если мы не сделаем этого в субботу, то в следующий раз нам удастся это сделать очень не скоро. Мне пришлось сидеть всю ночь и делать титры, чтобы не забыть всех тех, кто тем или иным образом принимал участие в создании, будь то предоставление видео или что-то другое. Следующую ночь рисовал обложки, а на следующую ночь их переделывал. Саша на скорую руку сделал трейлер, воплотив в нем мою давнюю идею с музыкой из Red Alert. Вдохновляла она меня давно, да все небыло подходящего случая использовать ее. Были сомнения, как воспримут ее поклонники, т.к. эта композиция все же не из репертуара группы, тем не менее, идею все оценили.
Кстати эту идею я подглядел из этого замечательного трейлера про Владимира Кличко http://www.youtube.com/watch?v=hWTYc1stLUM.

Но работа закончена, последние имена вписаны в титры и концерт уже выложен в сеть, и мы надеемся, что он превзойдет все ваши ожидания. Мы сами очень горды нашей работой, и надеемся, что и вам она очень понравится.
Во-первых, за высокое качество самого материала, а во-вторых - за исскуство VinZ'a, который с каждой новой работой становится все лучше и лучше. Санкт Петербург 2010, который был эталоном среди любительских мультикамер с 2010го по 2011 год, сейчас нам кажется чем-то незначительным, далеким от нынешнего уровня качества. Мы находим там много того, что сейчас можно бы было сделать лучше... И кстати… Именно это мы и сделаем, ближе к осени. Будет издан полный ремастеринг Rammstein - Live aus St. Petersburg 2010 by VinZ. Братислава была эталоном с конца 2011 года и до сегодняшнего дня. Теперь же, я вам гарантирую, эталоном в мастерстве создания мультикамер будет этот концерт, и навряд ли что-либо из того, что делает наша оппозиция, сможет его затмить. Это новая планка, которую ставит нам Александр Булатов, сломает шаблон о том, что мультикамеры - это лишь любительская вещь, которую можно посмотреть в ожидании чего-то большего. Это теперь то, чего стоит ждать на ровне, я не побоюсь этого слова, с официальными релизами группы.
Ну а теперь я желаю вам приятного просмотра! Приносим свои извинения за то, что концерт еще пока не доступен в более компактных, Rip форматах. Их стоит ожидать немного позже. Пожалуйста, наберитесь еще чуточку терпения. На YouTube концерт тоже в скором времени будет доступен. А пока - качайте BLU-RAY. Лично я рекомендую именно его, а не сжатые варианты, т.к. чем хуже качество - тем хуже восприятие концерта. Знаю это по личному опыту. И пожалуйста, не уходите с раздачи, дайте своим братьям и сестрам (с) тоже разделить эту радость с вами.

Rammclan.ru Administrator and Producer - Igor ROseNsteRN Kolesnik. 30.06.2012.

Disc Title: Rammstein - LaSP 2012
Disc Size: 20 335 593 929 bytes
Protection: AACS
BD-Java: No
Extras: 50Hz Content
BDInfo: 0.5.8

Notes:

BDINFO HOME:
Cinema Squid
http://www.cinemasquid.com/blu-ray/tools/bdinfo

INCLUDES FORUMS REPORT FOR:
AVS Forum Blu-ray Audio and Video Specifications Thread
http://www.avsforum.com/avs-vb/showthread.php?t=1155731

********************
PLAYLIST: 00000.MPLS
********************

<--- BEGIN FORUMS PASTE --->

Код:

                                                                                Total   Video
Title                                                           Codec   Length  Movie Size      Disc Size       Bitrate Bitrate Main Audio Track                          Secondary Audio Track
-----                                                           ------  ------- --------------  --------------  ------- ------- ------------------                        ---------------------
00000.MPLS                                                      AVC     1:56:21 14 675 187 648  20 335 593 929  16,82   15,62   DD AC3 2.0 384Kbps


Код:



DISC INFO:

Disc Title:     Rammstein - LaSP 2012
Disc Size:      20 335 593 929 bytes
Protection:     AACS
BD-Java:        No
Extras:         50Hz Content
BDInfo:         0.5.8

PLAYLIST REPORT:

Name:                   00000.MPLS
Length:                 1:56:21.839 (h:m:s.ms)
Size:                   14 675 187 648 bytes
Total Bitrate:          16,82 Mbps

VIDEO:

Codec                   Bitrate             Description
-----                   -------             -----------
MPEG-4 AVC Video        15616 kbps          1080i / 25 fps / 16:9 / High Profile 4.0

AUDIO:

Codec                           Language        Bitrate         Description
-----                           --------        -------         -----------
Dolby Digital Audio             Germanic (Other)384 kbps        2.0 / 48 kHz / 384 kbps

FILES:

Name            Time In         Length          Size            Total Bitrate
----            -------         ------          ----            -------------
00000.M2TS      0:00:00.000     1:56:21.839     14 675 187 648  16 815

CHAPTERS:

Number          Time In         Length          Avg Video Rate  Max 1-Sec Rate  Max 1-Sec Time  Max 5-Sec Rate  Max 5-Sec Time  Max 10Sec Rate  Max 10Sec Time  Avg Frame Size  Max Frame Size  Max Frame Time
------          -------         ------          --------------  --------------  --------------  --------------  --------------  --------------  --------------  --------------  --------------  --------------
1               0:00:00.000     0:07:16.280     15 624 kbps     25 923 kbps     00:05:23.479    18 002 kbps     00:01:22.760    16 906 kbps     00:00:16.720    78 112 bytes    345 981 bytes   00:01:19.960
2               0:07:16.280     0:04:32.680     15 546 kbps     23 639 kbps     00:07:48.040    17 893 kbps     00:07:28.200    16 779 kbps     00:08:01.800    77 729 bytes    280 986 bytes   00:07:32.119
3               0:11:48.960     0:05:06.080     15 613 kbps     36 891 kbps     00:15:14.680    20 969 kbps     00:11:52.280    19 931 kbps     00:11:52.280    78 066 bytes    464 391 bytes   00:11:52.720
4               0:16:55.040     0:04:02.039     15 635 kbps     26 477 kbps     00:20:39.360    18 503 kbps     00:16:59.000    17 184 kbps     00:16:59.000    78 175 bytes    386 128 bytes   00:20:53.840
5               0:20:57.080     0:04:24.920     15 198 kbps     24 207 kbps     00:24:22.920    18 188 kbps     00:21:58.280    16 873 kbps     00:21:57.360    75 988 bytes    228 634 bytes   00:21:28.640
6               0:25:22.000     0:04:09.960     16 005 kbps     33 700 kbps     00:25:31.600    22 037 kbps     00:25:31.000    19 555 kbps     00:25:31.000    80 025 bytes    247 406 bytes   00:25:31.840
7               0:29:31.960     0:03:34.160     15 466 kbps     23 374 kbps     00:32:55.080    17 571 kbps     00:30:01.880    17 101 kbps     00:29:57.680    77 331 bytes    283 822 bytes   00:31:15.160
8               0:33:06.120     0:05:07.519     15 819 kbps     26 825 kbps     00:38:09.600    19 540 kbps     00:33:36.280    19 176 kbps     00:33:31.280    79 094 bytes    295 857 bytes   00:38:11.320
9               0:38:13.640     0:07:49.040     15 538 kbps     29 159 kbps     00:43:30.040    18 690 kbps     00:44:50.520    17 579 kbps     00:44:49.480    77 690 bytes    439 567 bytes   00:45:33.560
10              0:46:02.680     0:05:27.080     15 721 kbps     23 428 kbps     00:50:15.520    18 605 kbps     00:46:30.160    17 737 kbps     00:46:27.120    78 603 bytes    351 449 bytes   00:47:45.440
11              0:51:29.760     0:05:04.919     15 566 kbps     24 497 kbps     00:53:50.920    17 750 kbps     00:56:14.640    16 756 kbps     00:53:58.800    77 828 bytes    309 233 bytes   00:53:51.080
12              0:56:34.680     0:04:19.440     15 642 kbps     24 330 kbps     00:58:32.920    18 237 kbps     00:56:38.080    16 867 kbps     00:56:38.560    78 208 bytes    273 280 bytes   00:58:32.960
13              1:00:54.120     0:06:44.880     15 653 kbps     26 765 kbps     01:07:27.360    17 828 kbps     01:07:33.000    17 319 kbps     01:07:27.000    78 265 bytes    312 513 bytes   01:07:27.480
14              1:07:39.000     0:04:34.239     15 598 kbps     24 711 kbps     01:09:43.919    17 752 kbps     01:10:11.639    16 802 kbps     01:07:46.080    77 990 bytes    274 641 bytes   01:09:44.280
15              1:12:13.240     0:03:45.960     15 631 kbps     22 846 kbps     01:15:11.719    17 705 kbps     01:12:51.599    16 672 kbps     01:13:45.519    78 153 bytes    233 104 bytes   01:13:26.559
16              1:15:59.200     0:03:55.519     15 606 kbps     25 128 kbps     01:18:04.959    17 846 kbps     01:18:52.479    16 623 kbps     01:18:52.439    78 028 bytes    277 363 bytes   01:19:17.080
17              1:19:54.719     0:08:51.239     15 619 kbps     26 417 kbps     01:20:46.280    18 309 kbps     01:26:01.959    16 877 kbps     01:25:37.160    78 097 bytes    319 086 bytes   01:28:03.879
18              1:28:45.959     0:04:54.920     15 604 kbps     29 357 kbps     01:33:33.879    17 556 kbps     01:30:22.320    16 656 kbps     01:30:56.400    78 021 bytes    276 895 bytes   01:33:34.559
19              1:33:40.879     0:04:53.280     15 615 kbps     22 923 kbps     01:38:03.120    17 956 kbps     01:37:30.120    16 739 kbps     01:37:30.120    78 076 bytes    278 714 bytes   01:35:29.879
20              1:38:34.160     0:04:21.199     15 590 kbps     23 698 kbps     01:40:24.559    18 110 kbps     01:38:42.280    16 883 kbps     01:42:37.320    77 951 bytes    302 914 bytes   01:40:07.080
21              1:42:55.360     0:05:19.519     15 658 kbps     24 232 kbps     01:46:36.759    18 343 kbps     01:47:43.400    16 659 kbps     01:46:27.799    78 289 bytes    271 063 bytes   01:44:25.240
22              1:48:14.879     0:06:04.160     15 621 kbps     27 377 kbps     01:50:30.280    18 137 kbps     01:51:47.759    17 004 kbps     01:54:09.000    78 107 bytes    326 773 bytes   01:50:31.200
23              1:54:19.040     0:02:02.799     15 508 kbps     30 798 kbps     01:55:56.040    18 502 kbps     01:55:56.040    16 819 kbps     01:55:55.960    77 539 bytes    286 584 bytes   01:55:38.040

STREAM DIAGNOSTICS:

File            PID             Type            Codec           Language                Seconds                 Bitrate                 Bytes           Packets
----            ---             ----            -----           --------                --------------          --------------          -------------   -----
00000.M2TS      4113 (0x1011)   0x1B            AVC                                     7046,800                15 542                  13 689 902 763  74 504 753
00000.M2TS      4352 (0x1100)   0x81            AC3             gem (Germanic (Other))  7046,800                384                     338 256 384     1 981 971

<---- END FORUMS PASTE ---->

QUICK SUMMARY:

Disc Title: Rammstein - LaSP 2012
Disc Size: 20 335 593 929 bytes
Protection: AACS
BD-Java: No
Playlist: 00000.MPLS
Size: 14 675 187 648 bytes
Length: 1:56:21.839
Total Bitrate: 16,82 Mbps
Video: MPEG-4 AVC Video / 15616 kbps / 1080i / 25 fps / 16:9 / High Profile 4.0
Audio: Germanic (Other) / Dolby Digital Audio / 2.0 / 48 kHz / 384 kbps

********************
PLAYLIST: 00001.MPLS
********************

<--- BEGIN FORUMS PASTE --->

Код:

                                                                                Total   Video
Title                                                           Codec   Length  Movie Size      Disc Size       Bitrate Bitrate Main Audio Track                          Secondary Audio Track
-----                                                           ------  ------- --------------  --------------  ------- ------- ------------------                        ---------------------
00001.MPLS                                                      AVC     0:38:04 4 786 857 984   20 335 593 929  16,77   15,57   DD AC3 2.0 384Kbps


Код:



DISC INFO:

Disc Title:     Rammstein - LaSP 2012
Disc Size:      20 335 593 929 bytes
Protection:     AACS
BD-Java:        No
Extras:         50Hz Content
BDInfo:         0.5.8

PLAYLIST REPORT:

Name:                   00001.MPLS
Length:                 0:38:04.040 (h:m:s.ms)
Size:                   4 786 857 984 bytes
Total Bitrate:          16,77 Mbps

VIDEO:

Codec                   Bitrate             Description
-----                   -------             -----------
MPEG-4 AVC Video        15568 kbps          1080i / 25 fps / 16:9 / High Profile 4.0

AUDIO:

Codec                           Language        Bitrate         Description
-----                           --------        -------         -----------
Dolby Digital Audio             Germanic (Other)384 kbps        2.0 / 48 kHz / 384 kbps

FILES:

Name            Time In         Length          Size            Total Bitrate
----            -------         ------          ----            -------------
00001.M2TS      0:00:00.000     0:38:04.040     4 786 857 984   16 766

CHAPTERS:

Number          Time In         Length          Avg Video Rate  Max 1-Sec Rate  Max 1-Sec Time  Max 5-Sec Rate  Max 5-Sec Time  Max 10Sec Rate  Max 10Sec Time  Avg Frame Size  Max Frame Size  Max Frame Time
------          -------         ------          --------------  --------------  --------------  --------------  --------------  --------------  --------------  --------------  --------------  --------------
1               0:00:00.000     0:05:16.200     15 619 kbps     30 925 kbps     00:00:03.400    20 212 kbps     00:01:36.520    19 174 kbps     00:01:36.520    78 084 bytes    325 020 bytes   00:01:36.600
2               0:05:16.200     0:04:33.640     15 494 kbps     25 481 kbps     00:05:42.320    17 686 kbps     00:05:55.000    17 221 kbps     00:05:33.320    77 472 bytes    305 956 bytes   00:05:42.359
3               0:09:49.840     0:08:17.920     15 680 kbps     25 596 kbps     00:09:50.960    20 987 kbps     00:09:50.960    18 244 kbps     00:09:50.800    78 402 bytes    294 529 bytes   00:11:40.040
4               0:18:07.760     0:06:54.960     15 574 kbps     29 813 kbps     00:19:07.160    21 759 kbps     00:19:06.880    17 972 kbps     00:22:13.360    77 871 bytes    272 024 bytes   00:21:00.040
5               0:25:02.720     0:05:58.359     15 710 kbps     24 421 kbps     00:30:58.800    22 469 kbps     00:25:10.600    19 296 kbps     00:25:19.440    78 552 bytes    332 108 bytes   00:27:25.640
6               0:31:01.080     0:05:16.320     15 540 kbps     25 193 kbps     00:34:41.440    19 550 kbps     00:34:25.080    16 988 kbps     00:34:19.040    77 699 bytes    246 614 bytes   00:35:56.640
7               0:36:17.400     0:01:46.639     14 678 kbps     24 971 kbps     00:36:17.400    17 704 kbps     00:37:45.640    16 760 kbps     00:37:46.920    73 392 bytes    246 697 bytes   00:36:55.400

STREAM DIAGNOSTICS:

File            PID             Type            Codec           Language                Seconds                 Bitrate                 Bytes           Packets
----            ---             ----            -----           --------                --------------          --------------          -------------   -----
00001.M2TS      4113 (0x1011)   0x1B            AVC                                     2284,000                15 569                  4 444 945 818   24 190 674
00001.M2TS      4352 (0x1100)   0x81            AC3             gem (Germanic (Other))  2284,000                384                     109 636 608     642 402

<---- END FORUMS PASTE ---->

QUICK SUMMARY:

Disc Title: Rammstein - LaSP 2012
Disc Size: 20 335 593 929 bytes
Protection: AACS
BD-Java: No
Playlist: 00001.MPLS
Size: 4 786 857 984 bytes
Length: 0:38:04.040
Total Bitrate: 16,77 Mbps
Video: MPEG-4 AVC Video / 15568 kbps / 1080i / 25 fps / 16:9 / High Profile 4.0
Audio: Germanic (Other) / Dolby Digital Audio / 2.0 / 48 kHz / 384 kbps

********************
PLAYLIST: 00002.MPLS
********************

<--- BEGIN FORUMS PASTE --->

Код:

                                                                                Total   Video
Title                                                           Codec   Length  Movie Size      Disc Size       Bitrate Bitrate Main Audio Track                          Secondary Audio Track
-----                                                           ------  ------- --------------  --------------  ------- ------- ------------------                        ---------------------
00002.MPLS                                                      AVC     0:04:48 605 878 080     20 335 593 929  16,78   15,58   DD AC3 2.0 384Kbps


Код:



DISC INFO:

Disc Title:     Rammstein - LaSP 2012
Disc Size:      20 335 593 929 bytes
Protection:     AACS
BD-Java:        No
Extras:         50Hz Content
BDInfo:         0.5.8

PLAYLIST REPORT:

Name:                   00002.MPLS
Length:                 0:04:48.919 (h:m:s.ms)
Size:                   605 878 080 bytes
Total Bitrate:          16,78 Mbps

VIDEO:

Codec                   Bitrate             Description
-----                   -------             -----------
MPEG-4 AVC Video        15576 kbps          1080i / 25 fps / 16:9 / High Profile 4.0

AUDIO:

Codec                           Language        Bitrate         Description
-----                           --------        -------         -----------
Dolby Digital Audio             Germanic (Other)384 kbps        2.0 / 48 kHz / 384 kbps

FILES:

Name            Time In         Length          Size            Total Bitrate
----            -------         ------          ----            -------------
00002.M2TS      0:00:00.000     0:04:48.919     605 878 080     16 774

CHAPTERS:

Number          Time In         Length          Avg Video Rate  Max 1-Sec Rate  Max 1-Sec Time  Max 5-Sec Rate  Max 5-Sec Time  Max 10Sec Rate  Max 10Sec Time  Avg Frame Size  Max Frame Size  Max Frame Time
------          -------         ------          --------------  --------------  --------------  --------------  --------------  --------------  --------------  --------------  --------------  --------------
1               0:00:00.000     0:04:48.919     15 578 kbps     31 302 kbps     00:00:07.039    23 658 kbps     00:00:03.999    19 042 kbps     00:03:44.600    77 882 bytes    309 191 bytes   00:00:56.800

STREAM DIAGNOSTICS:

File            PID             Type            Codec           Language                Seconds                 Bitrate                 Bytes           Packets
----            ---             ----            -----           --------                --------------          --------------          -------------   -----
00002.M2TS      4113 (0x1011)   0x1B            AVC                                     288,840                 15 583                  562 630 702     3 062 050
00002.M2TS      4352 (0x1100)   0x81            AC3             gem (Germanic (Other))  288,840                 384                     13 873 152      81 288

<---- END FORUMS PASTE ---->

QUICK SUMMARY:

Disc Title: Rammstein - LaSP 2012
Disc Size: 20 335 593 929 bytes
Protection: AACS
BD-Java: No
Playlist: 00002.MPLS
Size: 605 878 080 bytes
Length: 0:04:48.919
Total Bitrate: 16,78 Mbps
Video: MPEG-4 AVC Video / 15576 kbps / 1080i / 25 fps / 16:9 / High Profile 4.0
Audio: Germanic (Other) / Dolby Digital Audio / 2.0 / 48 kHz / 384 kbps

********************
PLAYLIST: 00004.MPLS
********************

<--- BEGIN FORUMS PASTE --->

Код:

                                                                                Total   Video
Title                                                           Codec   Length  Movie Size      Disc Size       Bitrate Bitrate Main Audio Track                          Secondary Audio Track
-----                                                           ------  ------- --------------  --------------  ------- ------- ------------------                        ---------------------
00004.MPLS                                                      AVC     0:00:21 46 387 200      20 335 593 929  16,96   15,71   DD AC3 2.0 384Kbps


Код:



DISC INFO:

Disc Title:     Rammstein - LaSP 2012
Disc Size:      20 335 593 929 bytes
Protection:     AACS
BD-Java:        No
Extras:         50Hz Content
BDInfo:         0.5.8

PLAYLIST REPORT:

Name:                   00004.MPLS
Length:                 0:00:21.880 (h:m:s.ms)
Size:                   46 387 200 bytes
Total Bitrate:          16,96 Mbps

VIDEO:

Codec                   Bitrate             Description
-----                   -------             -----------
MPEG-4 AVC Video        15707 kbps          1080i / 25 fps / 16:9 / High Profile 4.0

AUDIO:

Codec                           Language        Bitrate         Description
-----                           --------        -------         -----------
Dolby Digital Audio             Germanic (Other)384 kbps        2.0 / 48 kHz / 384 kbps

SUBTITLES:

Codec                           Language        Bitrate         Description
-----                           --------        -------         -----------
Interactive Graphics            Germanic (Other)12,036 kbps

FILES:

Name            Time In         Length          Size            Total Bitrate
----            -------         ------          ----            -------------
00004.M2TS      0:00:00.000     0:00:21.880     46 387 200      16 930

CHAPTERS:

Number          Time In         Length          Avg Video Rate  Max 1-Sec Rate  Max 1-Sec Time  Max 5-Sec Rate  Max 5-Sec Time  Max 10Sec Rate  Max 10Sec Time  Avg Frame Size  Max Frame Size  Max Frame Time
------          -------         ------          --------------  --------------  --------------  --------------  --------------  --------------  --------------  --------------  --------------  --------------
1               0:00:00.000     0:00:21.880     15 735 kbps     25 463 kbps     00:00:00.079    17 244 kbps     00:00:11.319    16 389 kbps     00:00:11.280    78 534 bytes    250 746 bytes   00:00:00.639

STREAM DIAGNOSTICS:

File            PID             Type            Codec           Language                Seconds                 Bitrate                 Bytes           Packets
----            ---             ----            -----           --------                --------------          --------------          -------------   -----
00004.M2TS      4113 (0x1011)   0x1B            AVC                                     21,840                  15 764                  43 036 536      234 219
00004.M2TS      4352 (0x1100)   0x81            AC3             gem (Germanic (Other))  21,840                  385                     1 052 160       6 165
00004.M2TS      5120 (0x1400)   0x91            IGS             gem (Germanic (Other))  21,840                  12                      32 979          187

<---- END FORUMS PASTE ---->

QUICK SUMMARY:

Disc Title: Rammstein - LaSP 2012
Disc Size: 20 335 593 929 bytes
Protection: AACS
BD-Java: No
Playlist: 00004.MPLS
Size: 46 387 200 bytes
Length: 0:00:21.880
Total Bitrate: 16,96 Mbps
Video: MPEG-4 AVC Video / 15707 kbps / 1080i / 25 fps / 16:9 / High Profile 4.0
Audio: Germanic (Other) / Dolby Digital Audio / 2.0 / 48 kHz / 384 kbps
Subtitle: Germanic (Other) / 12,036 kbps

info [Профиль]  [ЛС] 

romecheck

Пол: Пол:Муж

Стаж: 6 лет 8 месяцев

Сообщений: 10

Россия
Рейтинг

post 02-Июл-2012 22:46 (спустя 1 день 8 часов) [-]0[+]

[Цитировать] 

А размерчиком поменьше нет???
info [Профиль]  [ЛС] 

Genesis 11

Стаж: 6 лет 9 месяцев

Сообщений: 80

Рейтинг

post 02-Июл-2012 23:34 (спустя 47 минут) [-]0[+]

[Цитировать] 

А что это они делают на 5-ом скрине ?
info [Профиль]  [ЛС] 

Vitalik2146

Пол: Пол:Муж

Стаж: 7 лет 7 месяцев

Сообщений: 33

Россия
Рейтинг

post 03-Июл-2012 08:33 (спустя 8 часов) [-]0[+]

[Цитировать] 

Супер концерт ! Качество супер ! Молодцы ребята !!!! Авторам респект и уважуха !!!!!!!!!!!!!

_________________
Всё это матрица.....
info [Профиль]  [ЛС] 

Zombiner

Пол: Пол:Муж

Стаж: 4 года 5 месяцев

Сообщений: 5

Россия
Рейтинг

post 03-Июл-2012 15:03 (спустя 6 часов) [-]0[+]

[Цитировать] 

romecheck писал(а):

А размерчиком поменьше нет???
Через пару часиков выложу БДРип. Он на 7,37 вместе с бонусами.
info [Профиль]  [ЛС] 

PsychoSocial47

Пол: Пол:Муж

Стаж: 7 лет 2 месяца

Сообщений: 508

Предупреждений: 3

Россия
Рейтинг

post 13-Ноя-2012 18:34 (спустя 4 месяца 10 дней) [-]0[+]

[Цитировать] 

Га-га... А ведь есть люди совсем не уважающие их творчество. А по факту - 1) Брутальная, бодрая, местами красивая музыка. 2) Охренный, грубый голос Линдемана, плюс товарищи на подпевках иной раз так же брутальны и тем самым не менее круто звучат. 3) Их текста, их поведение, они как демоны, среди пиротехнического огня, поднявшиеся из ада что бы высмеивать людские пороки. Это группа по своему уникальна и шедевральна и на долгие времена! Кто бы что не ныл, а слушать их всегда одно удовольствие. Дай бог ещё долгих, творческих лет жизни, но что бы не сдулись. Улыбаюсь

_________________
Так выпьем же за хорошее кинцо!

ps. на PS3.
info [Профиль]  [ЛС] 
Показать сообщения:    
Ответить на тему

Текущее время: 03-Дек 21:46

Часовой пояс: GMT + 4



Вы не можете начинать темы
Вы не можете отвечать на сообщения
Вы не можете редактировать свои сообщения
Вы не можете удалять свои сообщения
Вы не можете голосовать в опросах
Вы не можете прикреплять файлы к сообщениям
Вы не можете скачивать файлы