Ошибка

Призрачный мир Эль Супербисто / The Haunted World of El Superbeasto (Роб Зомби / Rob Zombie) [2009 г., ужасы, комедия, мультфильм, BDRip 720p]

Ответить на тему
 
Автор Сообщение

Johann Weyer

Пол: Пол:Муж

Стаж: 6 лет 8 месяцев

Сообщений: 510

Германия
Рейтинг

post 07-Июн-2012 19:26 0[+]

[Цитировать] 

Призрачный мир Эль Супербисто / The Haunted World of El Superbeasto

Год выпуска: 2009
Страна: США, Film Roman Productions
Жанр: Анимационный, Ужасы, Комедия
Продолжительность: 01:17:32
Перевод: Профессиональный (многоголосый)

Режиссер: Роб Зомби / Rob Zombie
Роли озвучивали: Джо Аляски, Кен Фори, Том Папа, Эйприл Уинчелл, Ди Уоллес-Стоун, Лорейн Ньюмен, Кассандра Петерсон, Джесс Харнелл, Харланд Уильямс, Роб Полсен
Описание:
Фильм рассказывает о путешествии «известного» мексиканского рестлера Эль Супербисто и его девушки Сюзи Экс.
Доп. информация: IMDB: 5.8/10 лицам до 17 лет обязательно присутствие взрослого
Качество: BDRip-AVC 720p
Формат: MKV
Видео кодек: AVC
Аудио кодек: AC3
Видео: 1280х720 at 23.976 fps, 3393 kbps, 16:9, 0.154 bit/pixel, MPEG-4 AVC
Аудио:
1. Russian - 48 kHz, 6 ch, 448.00 kbps, AC3 (Front: L C R, Side: L R, LFE) (Профессиональный, многоголосый)
2. English - 48 kHz, 6 ch, 640.00 kbps, AC3 (Front: L C R, Side: L R, LFE)

Код:

General
Unique ID                                : 174908410173885335833172533116316705939 (0x8396226C7D16B09DB1CD029F62D06493)
Complete name                            : D:\Bebtu\Movies\Призрачный мир Эль Супербисто  [The Haunted World of El Superbeasto] (2009) BDRip.mkv
Format                                   : Matroska
Format version                           : Version 2
File size                                : 2.43 GiB
Duration                                 : 1h 17mn
Overall bit rate                         : 4 484 Kbps
Encoded date                             : UTC 2010-02-01 18:16:03
Writing application                      : mkvmerge v3.1.0 ('Happy up here') built on Jan 19 2010 12:09:24
Writing library                          : libebml v0.7.9 + libmatroska v0.8.1

Video
ID                                       : 1
Format                                   : AVC
Format/Info                              : Advanced Video Codec
Format profile                           : High@L3.1
Format settings, CABAC                   : Yes
Format settings, ReFrames                : 5 frames
Codec ID                                 : V_MPEG4/ISO/AVC
Duration                                 : 1h 17mn
Bit rate                                 : 3 393 Kbps
Width                                    : 1 280 pixels
Height                                   : 720 pixels
Display aspect ratio                     : 16:9
Frame rate                               : 23.976 fps
Color space                              : YUV
Chroma subsampling                       : 4:2:0
Bit depth                                : 8 bits
Scan type                                : Progressive
Bits/(Pixel*Frame)                       : 0.154
Stream size                              : 1.79 GiB (74%)
Writing library                          : x264 core 75 r1259 dd026f2
Encoding settings                        : cabac=1 / ref=5 / deblock=1:0:0 / analyse=0x3:0x113 / me=umh / subme=7 / psy=1 / psy_rd=1.0:0.0 / mixed_ref=1 / me_range=16 / chroma_me=1 / trellis=1 / 8x8dct=1 / cqm=0 / deadzone=21,11 / chroma_qp_offset=-2 / threads=12 / nr=0 / decimate=1 / mbaff=0 / bframes=3 / b_pyramid=0 / b_adapt=1 / b_bias=0 / direct=1 / wpredb=1 / keyint=250 / keyint_min=25 / scenecut=40 / rc_lookahead=40 / rc=2pass / mbtree=1 / bitrate=3393 / ratetol=1.0 / qcomp=0.60 / qpmin=10 / qpmax=51 / qpstep=4 / cplxblur=20.0 / qblur=0.5 / ip_ratio=1.40 / aq=1:1.00
Language                                 : English
Default                                  : No
Forced                                   : No

Audio #1
ID                                       : 2
Format                                   : AC-3
Format/Info                              : Audio Coding 3
Mode extension                           : CM (complete main)
Format settings, Endianness              : Big
Codec ID                                 : A_AC3
Duration                                 : 1h 17mn
Bit rate mode                            : Constant
Bit rate                                 : 448 Kbps
Channel(s)                               : 6 channels
Channel positions                        : Front: L C R, Side: L R, LFE
Sampling rate                            : 48.0 KHz
Bit depth                                : 16 bits
Compression mode                         : Lossy
Stream size                              : 248 MiB (10%)
Language                                 : Russian
Default                                  : Yes
Forced                                   : No

Audio #2
ID                                       : 3
Format                                   : AC-3
Format/Info                              : Audio Coding 3
Mode extension                           : CM (complete main)
Format settings, Endianness              : Big
Codec ID                                 : A_AC3
Duration                                 : 1h 17mn
Bit rate mode                            : Constant
Bit rate                                 : 640 Kbps
Channel(s)                               : 6 channels
Channel positions                        : Front: L C R, Side: L R, LFE
Sampling rate                            : 48.0 KHz
Bit depth                                : 16 bits
Compression mode                         : Lossy
Stream size                              : 355 MiB (14%)
Language                                 : English
Default                                  : No
Forced                                   : No

Text
ID                                       : 4
Format                                   : UTF-8
Codec ID                                 : S_TEXT/UTF8
Codec ID/Info                            : UTF-8 Plain Text
Language                                 : English
Default                                  : No
Forced                                   : No

Скриншоты:
http://s002.youpic.su/pictures/1339012800/034c2b569d94a190ff70b4c6d93b4c1b.png http://s002.youpic.su/pictures/1339012800/4b3d65e76f67d84056958453da183583.png http://s002.youpic.su/pictures/1339012800/dddb48190e60a30361f829cba4adceff.png http://s002.youpic.su/pictures/1339012800/3ed11f7e8318d6795fad6a896276a76a.png http://s002.youpic.su/pictures/1339012800/bd04ce50dc99ccc4b335795ca78f9459.png http://s002.youpic.su/pictures/1339012800/4cae90cbbaf25b2aa320c9c5324ceb82.png 
Оформление by Edward Elric
info [Профиль]  [ЛС] 

MeatMaker

Пол: Пол:Муж

Стаж: 6 лет 9 месяцев

Сообщений: 79

Рейтинг

post 07-Июн-2012 21:02 (спустя 1 час 35 минут) [-]-1[+]

[Цитировать] 

Цитата:

Фильм рассказывает о путешествии «известного» мексиканского рестлера Эль Супербисто и его девушки Сюзи Экс.
ЕМНИП, она его сестра...
info [Профиль]  [ЛС] 
Показать сообщения:    
Ответить на тему

Текущее время: 04-Дек 18:14

Часовой пояс: GMT + 4



Вы не можете начинать темы
Вы не можете отвечать на сообщения
Вы не можете редактировать свои сообщения
Вы не можете удалять свои сообщения
Вы не можете голосовать в опросах
Вы не можете прикреплять файлы к сообщениям
Вы не можете скачивать файлы