Ошибка

Жизненные циклы / Life Cycles (Дерек Франковский) [2010 г., документальный, спорт, BDRip 1080p]

Ответить на тему
 
Автор Сообщение

Бонза

Пол: Пол:Муж

Стаж: 6 лет 8 месяцев

Сообщений: 78

Россия
Рейтинг

post 04-Май-2012 09:48 2[+]

[Цитировать] 

Жизненные циклы / Life Cycles

Год выпуска: 2010
Страна: Канада
Жанр: документальный, спорт
Продолжительность: 00:47:02
Перевод: Профессиональный (одноголосый)
Язык субтитров: русский
Режиссер:
  • Дерек Франковский


В ролях:
  • Graham Agassiz, Mike Hopkins, Matt Hunter, Cameron McCaul, Riley McIntosh, Evan Schwartz, Brandon Semenuk, Thomas Vanderham, Graham Tracey (Narrator)

Описание: Stance Films и их новая работа Life Cycles, не имеют аналогов, такого еще не было. Теперь все имеют возможность увидеть самый ожидаемый байкерский фильм сезона 2010 года. Фильм расскажет захватывающую историю велосипеда, от его создания до его окончательной гибели.

Качество: BDRip 1080p
Формат: MKV
Видео кодек: H.264
Аудио кодек: AC3
Видео: 1920x960 (2.00:1), 23.976 fps, MPEG-4 AVC (H264), crf, ~12.9 Mbps avg, 0.293 bit/pixel
Аудио Rus: 48 kHz, AC3 Dolby Digital, 3/2 (L,C,R,l,r) + LFE ch, ~640.00 kbps avg
Аудио Eng: 48 kHz, AC3 Dolby Digital, 3/2 (L,C,R,l,r) + LFE ch, ~640.00 kbps avg
Cубтитры: Русские (srt)
General
Unique ID : 247199259918196010161499780541425495199 (0xB9F8D87F2F3C7A419FB4F6041175AC9F)
Complete name : Жизненные циклы.mkv
Format : Matroska
Format version : Version 2
File size : 4.77 GiB
Duration : 47mn 1s
Overall bit rate : 14.5 Mbps
Encoded date : UTC 2011-10-03 13:20:37
Writing application : mkvmerge v4.9.1 ('Ich will') сборка от Jul 11 2011 23:53:15
Writing library : libebml v1.2.1 + libmatroska v1.1.1

Video
ID : 1
Format : AVC
Format/Info : Advanced Video Codec
Format profile : High@L4.1
Format settings, CABAC : Yes
Format settings, ReFrames : 4 frames
Codec ID : V_MPEG4/ISO/AVC
Duration : 47mn 1s
Bit rate : 12.9 Mbps
Width : 1 920 pixels
Height : 960 pixels
Display aspect ratio : 2.000
Frame rate : 23.976 fps
Color space : YUV
Chroma subsampling : 4:2:0
Bit depth : 8 bits
Scan type : Progressive
Bits/(Pixel*Frame) : 0.293
Stream size : 4.25 GiB (89%)
Writing library : x264 core 115 r1995 c1e60b9
Encoding settings : cabac=1 / ref=4 / deblock=1:-3:-3 / analyse=0x3:0x113 / me=umh / subme=10 / psy=1 / psy_rd=1.00:0.00 / mixed_ref=1 / me_range=32 / chroma_me=1 / trellis=2 / 8x8dct=1 / cqm=0 / deadzone=21,11 / fast_pskip=0 / chroma_qp_offset=-2 / threads=3 / sliced_threads=0 / nr=0 / decimate=1 / interlaced=0 / bluray_compat=0 / constrained_intra=0 / bframes=9 / b_pyramid=2 / b_adapt=2 / b_bias=0 / direct=3 / weightb=1 / open_gop=0 / weightp=2 / keyint=250 / keyint_min=23 / scenecut=40 / intra_refresh=0 / rc_lookahead=60 / rc=crf / mbtree=0 / crf=17.0 / qcomp=0.60 / qpmin=0 / qpmax=69 / qpstep=4 / vbv_maxrate=50000 / vbv_bufsize=62500 / crf_max=0.0 / nal_hrd=none / ip_ratio=1.40 / pb_ratio=1.30 / aq=1:0.80
Language : English

Audio #1
ID : 2
Format : AC-3
Format/Info : Audio Coding 3
Mode extension : CM (complete main)
Codec ID : A_AC3
Duration : 47mn 1s
Bit rate mode : Constant
Bit rate : 640 Kbps
Channel(s) : 6 channels
Channel positions : Front: L C R, Side: L R, LFE
Sampling rate : 48.0 KHz
Bit depth : 16 bits
Compression mode : Lossy
Stream size : 215 MiB (4%)
Title : Е.Малуха
Language : Russian

Audio #2
ID : 3
Format : AC-3
Format/Info : Audio Coding 3
Mode extension : CM (complete main)
Codec ID : A_AC3
Duration : 47mn 1s
Bit rate mode : Constant
Bit rate : 640 Kbps
Channel(s) : 6 channels
Channel positions : Front: L C R, Side: L R, LFE
Sampling rate : 48.0 KHz
Bit depth : 16 bits
Compression mode : Lossy
Stream size : 215 MiB (4%)
Title : Оригинал
Language : English

Text
ID : 4
Format : UTF-8
Codec ID : S_TEXT/UTF8
Codec ID/Info : UTF-8 Plain Text
Title : Полные (Е.Малуха)
Language : Russian

Menu
00:00:00.000 : :Chapter 01
00:01:30.340 : :Chapter 02
00:03:27.248 : :Chapter 03
00:06:24.425 : :Chapter 04
00:10:00.891 : :Chapter 05
00:12:31.208 : :Chapter 06
00:16:52.845 : :Chapter 07
00:18:54.800 : :Chapter 08
00:20:43.951 : :Chapter 09
00:24:59.164 : :Chapter 10
00:26:50.775 : :Chapter 11
00:32:35.036 : :Chapter 12
00:34:47.835 : :Chapter 13
00:39:46.467 : :Chapter 14
00:41:03.961 : :Chapter 15
00:43:37.990 : :Chapter 16
00:46:57.981 : :Chapter 17
info [Профиль]  [ЛС] 

GreenPeace

Стаж: 7 лет 2 месяца

Сообщений: 15

Рейтинг

post 06-Май-2012 18:19 (спустя 2 дня 8 часов) [-]2[+]

[Цитировать] 

улетный и очень атмосферный фильм!!! фанатам велоспорта -смотреть обязательно! anime_40
info [Профиль]  [ЛС] 

AzoTPro

Пол: Пол:Муж

Стаж: 6 лет 8 месяцев

Сообщений: 28

Россия
Рейтинг

post 09-Май-2013 23:15 (спустя 1 год) [-]0[+]

[Цитировать] 

отличный фильм, всем смотреть!
info [Профиль]  [ЛС] 

Chieff

Пол: Пол:Муж

Стаж: 7 лет 1 месяц

Сообщений: 15

Россия
Рейтинг

post 24-Май-2013 10:56 (спустя 14 дней) [-]0[+]

[Цитировать] 

На знаю как где, но у меня Sams 8000. Круче этого фильма не видел ничего!!! Теперь показываю этот фильм, чтоб друзья оценили возможности телека!!! В самом начале грязь, как будто можно потрогать руками))) Настолько живая картинка!!! Всем смотреть и по возможности на хорошем ТВ!!!
info [Профиль]  [ЛС] 
Показать сообщения:    
Ответить на тему

Текущее время: 02-Дек 22:14

Часовой пояс: GMT + 4



Вы не можете начинать темы
Вы не можете отвечать на сообщения
Вы не можете редактировать свои сообщения
Вы не можете удалять свои сообщения
Вы не можете голосовать в опросах
Вы не можете прикреплять файлы к сообщениям
Вы не можете скачивать файлы