Ошибка

(Post-Hardcore, Metalcore) Asking Alexandria - Дискография - 2009-2011, FLAC (tracks+.cue), lossless

Ответить на тему
 
Автор Сообщение

Resistance

Пол: Пол:Муж

Стаж: 7 лет 2 месяца

Сообщений: 3639

Россия
Рейтинг

post 29-Апр-2012 19:27 6[+]

[Цитировать] 

pic="http://i35.fastpic.ru/big/2012/0429/da/da935417342efaa34e6c62688a1b6bda.jpg"
Asking Alexandria - Дискография
Жанр: Post-Hardcore, Metalcore || Происхождение исполнителя: UК || Год: 2009-2011
Аудио кодек: FLAC || Тип релиза: tracks+.cue || Битрейт аудио: lossless || Продолжительность: 03:53:08

Last.fm писал(а):

  Asking Alexandria — английская музыкальная группа, играющая в жанрах пост-хардкор, электроник (свой стиль члены группы определяют как «synthcore»). Основана группа в 2006 году в Дубае, гитаристом Беном Брюсом и вокалистом Джеймсом Мюррей.
  В августе 2006 они подписали соглашение с лейблом «Sonicwave International», а к январю 2007 — с лейблом «Hangmans Joke». Вскоре после этого группа выпускает EP под названием «The Irony of Your Perfection», который принес им известность в Европе. В июне 2009 Asking Alexandria выпускает свой дебютный альбом под названием «Stand Up and Scream». В 2010 году кавер на песню Akon «Right Now» входит в сборник «Punk Goes Pop 3». Их третий альбом «Reckless & Relentless» вышел 5 апреля 2011 года.
Лейбл:Sumerian Records
Кат. номер:SUM-022
01. Alerion (2:15)
02. Final Episode (4:02)
03. A Candlelit Dinner With Inamorta (4:04)
04. Nobody Don't Dance No More (4:00)
05. Hey There Mr. Brooks (4:10)
06. Hiatus (1:45)
07. If You Can't Ride Two Horses At Once... (3:46)
08. A Single Moment Of Sincerity (3:51)
09. Not The American Average (4:39)
10. I Used To Have A Best Friend (4:06)
11. A Prophecy (3:34)
12. I Was Once, Possibly, Maybe, Perhaps A Cowboy King (3:41)
13. When Everyday's The Weekend (4:23)

Код:

Exact Audio Copy V0.99 prebeta 5 from 4. May 2009

EAC extraction logfile from 15. September 2009, 21:34

Unknown Artist / Unknown Title

Used drive  : PIONEER DVD-RW  DVR-216D   Adapter: 4  ID: 0

Read mode               : Secure
Utilize accurate stream : Yes
Defeat audio cache      : Yes
Make use of C2 pointers : No

Read offset correction                      : 96
Overread into Lead-In and Lead-Out          : No
Fill up missing offset samples with silence : Yes
Delete leading and trailing silent blocks   : No
Null samples used in CRC calculations       : Yes
Used interface                              : Native Win32 interface for Win NT & 2000
Gap handling                                : Appended to previous track

Used output format              : User Defined Encoder
Selected bitrate                : 128 kBit/s
Quality                         : High
Add ID3 tag                     : No
Command line compressor         : C:\Program Files (x86)\Exact Audio Copy\Flac\flac.exe
Additional command line options : -V -8 -T "artist=%a" -T "title=%t" -T "album=%g" -T "date=%y" -T "tracknumber=%n" -T "genre=%m" %s 

TOC of the extracted CD

     Track |   Start  |  Length  | Start sector | End sector
    ---------------------------------------------------------
        1  |  0:00.00 |  2:14.69 |         0    |    10118   
        2  |  2:14.69 |  4:02.06 |     10119    |    28274   
        3  |  6:17.00 |  4:03.69 |     28275    |    46568   
        4  | 10:20.69 |  3:59.74 |     46569    |    64567   
        5  | 14:20.68 |  4:09.60 |     64568    |    83302   
        6  | 18:30.53 |  1:45.29 |     83303    |    91206   
        7  | 20:16.07 |  3:45.68 |     91207    |   108149   
        8  | 24:02.00 |  3:50.59 |    108150    |   125458   
        9  | 27:52.59 |  4:39.17 |    125459    |   146400   
       10  | 32:32.01 |  4:05.72 |    146401    |   164847   
       11  | 36:37.73 |  3:33.48 |    164848    |   180870   
       12  | 40:11.46 |  3:41.14 |    180871    |   197459   
       13  | 43:52.60 |  4:23.14 |    197460    |   217198   

Track  1

     Filename D:\My Music\EACrips\01 Track01.wav

     Pre-gap length  0:00:02.00

     Peak level 98.6 %
     Track quality 100.0 %
     Test CRC 6F88AB90
     Copy CRC 6F88AB90
     Copy OK

Track  2

     Filename D:\My Music\EACrips\02 Track02.wav

     Peak level 99.1 %
     Track quality 99.9 %
     Test CRC 0FB8CEE4
     Copy CRC 0FB8CEE4
     Copy OK

Track  3

     Filename D:\My Music\EACrips\03 Track03.wav

     Peak level 100.0 %
     Track quality 100.0 %
     Test CRC 488B55BA
     Copy CRC 488B55BA
     Copy OK

Track  4

     Filename D:\My Music\EACrips\04 Track04.wav

     Peak level 98.7 %
     Track quality 99.9 %
     Test CRC 72EC19CE
     Copy CRC 72EC19CE
     Copy OK

Track  5

     Filename D:\My Music\EACrips\05 Track05.wav

     Peak level 98.9 %
     Track quality 100.0 %
     Test CRC E1328E26
     Copy CRC E1328E26
     Copy OK

Track  6

     Filename D:\My Music\EACrips\06 Track06.wav

     Peak level 97.0 %
     Track quality 100.0 %
     Test CRC 08D70B2F
     Copy CRC 08D70B2F
     Copy OK

Track  7

     Filename D:\My Music\EACrips\07 Track07.wav

     Peak level 98.6 %
     Track quality 100.0 %
     Test CRC 6DD856B3
     Copy CRC 6DD856B3
     Copy OK

Track  8

     Filename D:\My Music\EACrips\08 Track08.wav

     Peak level 99.0 %
     Track quality 99.9 %
     Test CRC 5E4626B4
     Copy CRC 5E4626B4
     Copy OK

Track  9

     Filename D:\My Music\EACrips\09 Track09.wav

     Peak level 100.0 %
     Track quality 100.0 %
     Test CRC 8E3D1158
     Copy CRC 8E3D1158
     Copy OK

Track 10

     Filename D:\My Music\EACrips\10 Track10.wav

     Peak level 98.5 %
     Track quality 100.0 %
     Test CRC 96DF9FCD
     Copy CRC 96DF9FCD
     Copy OK

Track 11

     Filename D:\My Music\EACrips\11 Track11.wav

     Peak level 98.6 %
     Track quality 100.0 %
     Test CRC 76F0301E
     Copy CRC 76F0301E
     Copy OK

Track 12

     Filename D:\My Music\EACrips\12 Track12.wav

     Peak level 98.8 %
     Track quality 100.0 %
     Test CRC 7CF3A3BA
     Copy CRC 7CF3A3BA
     Copy OK

Track 13

     Filename D:\My Music\EACrips\13 Track13.wav

     Peak level 98.4 %
     Track quality 100.0 %
     Test CRC B36CE450
     Copy CRC B36CE450
     Copy OK

No errors occurred

End of status report

Код:

REM DISCID AA0B4F0D
REM COMMENT "ExactAudioCopy v0.99pb5"
FILE "01 Track01.wav" WAVE
  TRACK 01 AUDIO
    INDEX 01 00:00:00
FILE "02 Track02.wav" WAVE
  TRACK 02 AUDIO
    INDEX 01 00:00:00
FILE "03 Track03.wav" WAVE
  TRACK 03 AUDIO
    INDEX 01 00:00:00
FILE "04 Track04.wav" WAVE
  TRACK 04 AUDIO
    INDEX 01 00:00:00
FILE "05 Track05.wav" WAVE
  TRACK 05 AUDIO
    INDEX 01 00:00:00
FILE "06 Track06.wav" WAVE
  TRACK 06 AUDIO
    INDEX 01 00:00:00
FILE "07 Track07.wav" WAVE
  TRACK 07 AUDIO
    INDEX 01 00:00:00
FILE "08 Track08.wav" WAVE
  TRACK 08 AUDIO
    INDEX 01 00:00:00
FILE "09 Track09.wav" WAVE
  TRACK 09 AUDIO
    INDEX 01 00:00:00
FILE "10 Track10.wav" WAVE
  TRACK 10 AUDIO
    INDEX 01 00:00:00
FILE "11 Track11.wav" WAVE
  TRACK 11 AUDIO
    INDEX 01 00:00:00
FILE "12 Track12.wav" WAVE
  TRACK 12 AUDIO
    INDEX 01 00:00:00
FILE "13 Track13.wav" WAVE
  TRACK 13 AUDIO
    INDEX 01 00:00:00

Лейбл:Sumerian Records
Кат. номер:SUM-039
01. Youth Gone Wild (Skid Row Cover) (3:17)
02. 18 and Life (Skid Row Cover) (3:49)
03. A Single Moment of Sincerity (Bare Re-mix) (3:47)
04. Not The American Average (Voorny Re-mix) (4:22)
05. I Was Once, Possibly, Maybe, Perhaps A Cowboy King (Demo) (4:01)
06. Breathless (4:09)

Код:

Exact Audio Copy V0.99 prebeta 5 from 4. May 2009

EAC extraction logfile from 22. December 2010, 17:12

Asking Alexandria / Life Gone Wild EP

Used drive  : PHILIPS SPD2413P   Adapter: 2  ID: 0

Read mode               : Secure
Utilize accurate stream : Yes
Defeat audio cache      : Yes
Make use of C2 pointers : No

Read offset correction                      : 6
Overread into Lead-In and Lead-Out          : No
Fill up missing offset samples with silence : Yes
Delete leading and trailing silent blocks   : No
Null samples used in CRC calculations       : Yes
Used interface                              : Native Win32 interface for Win NT & 2000
Gap handling                                : Appended to previous track

Used output format              : User Defined Encoder
Selected bitrate                : 320 kBit/s
Quality                         : High
Add ID3 tag                     : No
Command line compressor         : C:\Program Files (x86)\Exact Audio Copy\Flac\flac.exe
Additional command line options : -V -8 -T "artist=%a" -T "title=%t" -T "album=%g" -T "date=%y" -T "tracknumber=%n" -T "genre=%m" %s 

TOC of the extracted CD

     Track |   Start  |  Length  | Start sector | End sector
    ---------------------------------------------------------
        1  |  0:00.00 |  3:17.36 |         0    |    14810   
        2  |  3:17.36 |  3:48.40 |     14811    |    31950   
        3  |  7:06.01 |  3:46.48 |     31951    |    48948   
        4  | 10:52.49 |  4:21.45 |     48949    |    68568   
        5  | 15:14.19 |  4:01.20 |     68569    |    86663   
        6  | 19:15.39 |  4:09.20 |     86664    |   105358   

Track  1

     Filename C:\Users\Jeff\Desktop\torrents\Asking Alexandria - 2010 - Life Gone Wild EP\01 - Youth Gone Wild (Skid Row Cover).wav

     Pre-gap length  0:00:02.00

     Peak level 100.0 %
     Track quality 100.0 %
     Test CRC 3B47B7F7
     Copy CRC 3B47B7F7
     Track not present in AccurateRip database
     Copy OK

Track  2

     Filename C:\Users\Jeff\Desktop\torrents\Asking Alexandria - 2010 - Life Gone Wild EP\02 - 18 and Life (Skid Row Cover).wav

     Peak level 100.0 %
     Track quality 100.0 %
     Test CRC 3B1CB34B
     Copy CRC 3B1CB34B
     Track not present in AccurateRip database
     Copy OK

Track  3

     Filename C:\Users\Jeff\Desktop\torrents\Asking Alexandria - 2010 - Life Gone Wild EP\03 - A Single Moment of Sincerity (Bare Re-mix).wav

     Peak level 100.0 %
     Track quality 100.0 %
     Test CRC 91370BF3
     Copy CRC 91370BF3
     Track not present in AccurateRip database
     Copy OK

Track  4

     Filename C:\Users\Jeff\Desktop\torrents\Asking Alexandria - 2010 - Life Gone Wild EP\04 - Not The American Average (Voorny Re-mix).wav

     Peak level 100.0 %
     Track quality 100.0 %
     Test CRC CD26D573
     Copy CRC CD26D573
     Track not present in AccurateRip database
     Copy OK

Track  5

     Filename C:\Users\Jeff\Desktop\torrents\Asking Alexandria - 2010 - Life Gone Wild EP\05 - I Was Once, Possibly, Maybe, Perhaps A Cowboy King (Demo).wav

     Peak level 100.0 %
     Track quality 100.0 %
     Test CRC 83AA4836
     Copy CRC 83AA4836
     Track not present in AccurateRip database
     Copy OK

Track  6

     Filename C:\Users\Jeff\Desktop\torrents\Asking Alexandria - 2010 - Life Gone Wild EP\06 - Breathless.wav

     Peak level 100.0 %
     Track quality 100.0 %
     Test CRC E348C224
     Copy CRC E348C224
     Track not present in AccurateRip database
     Copy OK

None of the tracks are present in the AccurateRip database

No errors occurred

End of status report

Код:

REM GENRE Metal
REM DATE 2010
REM DISCID 50057C06
REM COMMENT "ExactAudioCopy v0.99pb5"
PERFORMER "Asking Alexandria"
TITLE "Life Gone Wild EP"
FILE "01 - Youth Gone Wild (Skid Row Cover).wav" WAVE
  TRACK 01 AUDIO
    TITLE "Youth Gone Wild (Skid Row Cover)"
    PERFORMER "Asking Alexandria"
    INDEX 01 00:00:00
FILE "02 - 18 and Life (Skid Row Cover).wav" WAVE
  TRACK 02 AUDIO
    TITLE "18 and Life (Skid Row Cover)"
    PERFORMER "Asking Alexandria"
    INDEX 01 00:00:00
FILE "03 - A Single Moment of Sincerity (Bare Re-mix).wav" WAVE
  TRACK 03 AUDIO
    TITLE "A Single Moment of Sincerity (Bare Re-mix)"
    PERFORMER "Asking Alexandria"
    INDEX 01 00:00:00
FILE "04 - Not The American Average (Voorny Re-mix).wav" WAVE
  TRACK 04 AUDIO
    TITLE "Not The American Average (Voorny Re-mix)"
    PERFORMER "Asking Alexandria"
    INDEX 01 00:00:00
FILE "05 - I Was Once, Possibly, Maybe, Perhaps A Cowboy King (Demo).wav" WAVE
  TRACK 05 AUDIO
    TITLE "I Was Once, Possibly, Maybe, Perhaps A Cowboy King (Demo)"
    PERFORMER "Asking Alexandria"
    INDEX 01 00:00:00
FILE "06 - Breathless.wav" WAVE
  TRACK 06 AUDIO
    TITLE "Breathless"
    PERFORMER "Asking Alexandria"
    INDEX 01 00:00:00

Лейбл:Sumerian Records
Кат. номер:SUM050
01. Welcome (1:49)
02. Dear Insanity (3:10)
03. Closure (3:58)
04. A Lesson Never Learned (3:55)
05. To The Stage (3:31)
06. Dedication (1:03)
07. Someone, Somewhere (3:37)
08. Breathless (4:10)
09. The Match (4:16)
10. Another Bottle Down (3:34)
11. Reckless & Relentless (4:08)
12. Morte et Dabo (5:15)

Код:

Exact Audio Copy V0.99 prebeta 5 from 4. May 2009

EAC extraction logfile from 4. April 2011, 17:21

Asking Alexandria / Reckless & Relentless

Used drive  : PHILIPS SPD2413P   Adapter: 2  ID: 0

Read mode               : Secure
Utilize accurate stream : Yes
Defeat audio cache      : Yes
Make use of C2 pointers : No

Read offset correction                      : 6
Overread into Lead-In and Lead-Out          : No
Fill up missing offset samples with silence : Yes
Delete leading and trailing silent blocks   : No
Null samples used in CRC calculations       : Yes
Used interface                              : Native Win32 interface for Win NT & 2000
Gap handling                                : Appended to previous track

Used output format              : User Defined Encoder
Selected bitrate                : 320 kBit/s
Quality                         : High
Add ID3 tag                     : No
Command line compressor         : C:\Program Files (x86)\Exact Audio Copy\Flac\flac.exe
Additional command line options : -V -8 -T "artist=%a" -T "title=%t" -T "album=%g" -T "date=%y" -T "tracknumber=%n" -T "genre=%m" %s 

TOC of the extracted CD

     Track |   Start  |  Length  | Start sector | End sector
    ---------------------------------------------------------
        1  |  0:00.00 |  1:49.08 |         0    |     8182   
        2  |  1:49.08 |  3:09.43 |      8183    |    22400   
        3  |  4:58.51 |  3:58.12 |     22401    |    40262   
        4  |  8:56.63 |  3:54.58 |     40263    |    57870   
        5  | 12:51.46 |  3:30.46 |     57871    |    73666   
        6  | 16:22.17 |  1:03.04 |     73667    |    78395   
        7  | 17:25.21 |  3:36.48 |     78396    |    94643   
        8  | 21:01.69 |  4:09.74 |     94644    |   113392   
        9  | 25:11.68 |  4:15.62 |    113393    |   132579   
       10  | 29:27.55 |  3:34.14 |    132580    |   148643   
       11  | 33:01.69 |  4:08.14 |    148644    |   167257   
       12  | 37:10.08 |  5:14.73 |    167258    |   190880   

Track  1

     Filename C:\Users\Jeff\Desktop\torrents\Asking Alexandria - 2011 - Reckless & Relentless\01 - Welcome.wav

     Pre-gap length  0:00:02.00

     Peak level 96.6 %
     Track quality 100.0 %
     Test CRC 4E710AAE
     Copy CRC 4E710AAE
     Track not present in AccurateRip database
     Copy OK

Track  2

     Filename C:\Users\Jeff\Desktop\torrents\Asking Alexandria - 2011 - Reckless & Relentless\02 - Dear Insanity.wav

     Peak level 96.6 %
     Track quality 99.9 %
     Test CRC 7ED2C4D6
     Copy CRC 7ED2C4D6
     Track not present in AccurateRip database
     Copy OK

Track  3

     Filename C:\Users\Jeff\Desktop\torrents\Asking Alexandria - 2011 - Reckless & Relentless\03 - Closure.wav

     Peak level 96.7 %
     Track quality 100.0 %
     Test CRC F05C5ECF
     Copy CRC F05C5ECF
     Track not present in AccurateRip database
     Copy OK

Track  4

     Filename C:\Users\Jeff\Desktop\torrents\Asking Alexandria - 2011 - Reckless & Relentless\04 - A Lesson Never Learned.wav

     Peak level 97.1 %
     Track quality 99.9 %
     Test CRC A2377CB9
     Copy CRC A2377CB9
     Track not present in AccurateRip database
     Copy OK

Track  5

     Filename C:\Users\Jeff\Desktop\torrents\Asking Alexandria - 2011 - Reckless & Relentless\05 - To The Stage.wav

     Peak level 97.8 %
     Track quality 100.0 %
     Test CRC FF8AA661
     Copy CRC FF8AA661
     Track not present in AccurateRip database
     Copy OK

Track  6

     Filename C:\Users\Jeff\Desktop\torrents\Asking Alexandria - 2011 - Reckless & Relentless\06 - Dedication.wav

     Peak level 96.6 %
     Track quality 100.0 %
     Test CRC 2F8EEE50
     Copy CRC 2F8EEE50
     Track not present in AccurateRip database
     Copy OK

Track  7

     Filename C:\Users\Jeff\Desktop\torrents\Asking Alexandria - 2011 - Reckless & Relentless\07 - Someone, Somewhere.wav

     Peak level 96.6 %
     Track quality 100.0 %
     Test CRC 9778E81C
     Copy CRC 9778E81C
     Track not present in AccurateRip database
     Copy OK

Track  8

     Filename C:\Users\Jeff\Desktop\torrents\Asking Alexandria - 2011 - Reckless & Relentless\08 - Breathless.wav

     Peak level 96.6 %
     Track quality 100.0 %
     Test CRC D5E0CC15
     Copy CRC D5E0CC15
     Track not present in AccurateRip database
     Copy OK

Track  9

     Filename C:\Users\Jeff\Desktop\torrents\Asking Alexandria - 2011 - Reckless & Relentless\09 - The Match.wav

     Peak level 98.6 %
     Track quality 100.0 %
     Test CRC 9C6DEC8E
     Copy CRC 9C6DEC8E
     Track not present in AccurateRip database
     Copy OK

Track 10

     Filename C:\Users\Jeff\Desktop\torrents\Asking Alexandria - 2011 - Reckless & Relentless\10 - Another Bottle Down.wav

     Peak level 97.8 %
     Track quality 99.9 %
     Test CRC 36403398
     Copy CRC 36403398
     Track not present in AccurateRip database
     Copy OK

Track 11

     Filename C:\Users\Jeff\Desktop\torrents\Asking Alexandria - 2011 - Reckless & Relentless\11 - Reckless & Relentless.wav

     Peak level 96.6 %
     Track quality 100.0 %
     Test CRC D99C1E0C
     Copy CRC D99C1E0C
     Track not present in AccurateRip database
     Copy OK

Track 12

     Filename C:\Users\Jeff\Desktop\torrents\Asking Alexandria - 2011 - Reckless & Relentless\12 - Morte et Dabo.wav

     Peak level 96.6 %
     Track quality 100.0 %
     Test CRC 56A99A8E
     Copy CRC 56A99A8E
     Track not present in AccurateRip database
     Copy OK

None of the tracks are present in the AccurateRip database

No errors occurred

End of status report

Код:

REM DATE 2011
REM DISCID 9509F10C
REM COMMENT "ExactAudioCopy v0.99pb5"
PERFORMER "Asking Alexandria"
TITLE "Reckless & Relentless"
FILE "Asking Alexandria - 2011 - Reckless & Relentless\01 - Welcome.wav" WAVE
  TRACK 01 AUDIO
    TITLE "Welcome"
    PERFORMER "Asking Alexandria"
    INDEX 01 00:00:00
FILE "Asking Alexandria - 2011 - Reckless & Relentless\02 - Dear Insanity.wav" WAVE
  TRACK 02 AUDIO
    TITLE "Dear Insanity"
    PERFORMER "Asking Alexandria"
    INDEX 01 00:00:00
FILE "Asking Alexandria - 2011 - Reckless & Relentless\03 - Closure.wav" WAVE
  TRACK 03 AUDIO
    TITLE "Closure"
    PERFORMER "Asking Alexandria"
    INDEX 01 00:00:00
FILE "Asking Alexandria - 2011 - Reckless & Relentless\04 - A Lesson Never Learned.wav" WAVE
  TRACK 04 AUDIO
    TITLE "A Lesson Never Learned"
    PERFORMER "Asking Alexandria"
    INDEX 01 00:00:00
FILE "Asking Alexandria - 2011 - Reckless & Relentless\05 - To The Stage.wav" WAVE
  TRACK 05 AUDIO
    TITLE "To The Stage"
    PERFORMER "Asking Alexandria"
    INDEX 01 00:00:00
FILE "Asking Alexandria - 2011 - Reckless & Relentless\06 - Dedication.wav" WAVE
  TRACK 06 AUDIO
    TITLE "Dedication"
    PERFORMER "Asking Alexandria"
    INDEX 01 00:00:00
FILE "Asking Alexandria - 2011 - Reckless & Relentless\07 - Someone, Somewhere.wav" WAVE
  TRACK 07 AUDIO
    TITLE "Someone, Somewhere"
    PERFORMER "Asking Alexandria"
    INDEX 01 00:00:00
FILE "Asking Alexandria - 2011 - Reckless & Relentless\08 - Breathless.wav" WAVE
  TRACK 08 AUDIO
    TITLE "Breathless"
    PERFORMER "Asking Alexandria"
    INDEX 01 00:00:00
FILE "Asking Alexandria - 2011 - Reckless & Relentless\09 - The Match.wav" WAVE
  TRACK 09 AUDIO
    TITLE "The Match"
    PERFORMER "Asking Alexandria"
    INDEX 01 00:00:00
FILE "Asking Alexandria - 2011 - Reckless & Relentless\10 - Another Bottle Down.wav" WAVE
  TRACK 10 AUDIO
    TITLE "Another Bottle Down"
    PERFORMER "Asking Alexandria"
    INDEX 01 00:00:00
FILE "Asking Alexandria - 2011 - Reckless & Relentless\11 - Reckless & Relentless.wav" WAVE
  TRACK 11 AUDIO
    TITLE "Reckless & Relentless"
    PERFORMER "Asking Alexandria"
    INDEX 01 00:00:00
FILE "Asking Alexandria - 2011 - Reckless & Relentless\12 - Morte et Dabo.wav" WAVE
  TRACK 12 AUDIO
    TITLE "Morte et Dabo"
    PERFORMER "Asking Alexandria"
    INDEX 01 00:00:00

Лейбл:Sumerian Records
Кат. номер:SUM050
01. Welcome (1:49)
02. Dear Insanity (3:10)
03. Closure (3:58)
04. A Lesson Never Learned (3:55)
05. To the Stage (3:31)
06. Dedication (1:03)
07. Someone, Somewhere (3:37)
08. Breathless (4:10)
09. The Match (4:16)
10. Another Bottle Down (3:34)
11. Reckless & Relentless (4:08)
12. Morte et Dabo (5:15)
13. When Everyday's the Weekend (Big Chocolate Remix) (3:51)
14. Nobody Don't Dance No More (Noah D Remix) (3:49)
15. If You Can't Ride Two Horses at Once, You Should Get Out of the Circus (Noah D Remix) (3:53)
16. I Was Once Possibly Maybe Perhaps a Cowboy King (Robotsonics Remix) (5:31)
17. A Prophecy (Big Chocolate Remix) (4:26)

Код:

Exact Audio Copy V1.0 beta 1 from 15. November 2010

EAC extraction logfile from 13. April 2011, 18:55

Asking Alexandria / Reckless & Relentless

Used drive  : TSSTcorpCD/DVDW SH-S182D   Adapter: 1  ID: 1

Read mode               : Secure
Utilize accurate stream : Yes
Defeat audio cache      : Yes
Make use of C2 pointers : No

Read offset correction                      : 6
Overread into Lead-In and Lead-Out          : No
Fill up missing offset samples with silence : Yes
Delete leading and trailing silent blocks   : No
Null samples used in CRC calculations       : Yes
Used interface                              : Native Win32 interface for Win NT & 2000
Gap handling                                : Appended to previous track

Used output format              : User Defined Encoder
Selected bitrate                : 1024 kBit/s
Quality                         : High
Add ID3 tag                     : No
Command line compressor         : C:\Program Files (x86)\Exact Audio Copy\Flac\flac.exe
Additional command line options : -V -8 -T "artist=%a" -T "title=%t" -T "album=%g" -T "date=%y" -T "tracknumber=%n" -T "genre=%m" %s

TOC of the extracted CD

     Track |   Start  |  Length  | Start sector | End sector
    ---------------------------------------------------------
        1  |  0:00.00 |  1:49.08 |         0    |     8182   
        2  |  1:49.08 |  3:09.43 |      8183    |    22400   
        3  |  4:58.51 |  3:58.12 |     22401    |    40262   
        4  |  8:56.63 |  3:54.58 |     40263    |    57870   
        5  | 12:51.46 |  3:30.46 |     57871    |    73666   
        6  | 16:22.17 |  1:03.04 |     73667    |    78395   
        7  | 17:25.21 |  3:36.48 |     78396    |    94643   
        8  | 21:01.69 |  4:09.74 |     94644    |   113392   
        9  | 25:11.68 |  4:15.62 |    113393    |   132579   
       10  | 29:27.55 |  3:34.14 |    132580    |   148643   
       11  | 33:01.69 |  4:08.14 |    148644    |   167257   
       12  | 37:10.08 |  5:14.73 |    167258    |   190880   
       13  | 42:25.06 |  3:51.18 |    190881    |   208223   
       14  | 46:16.24 |  3:48.39 |    208224    |   225362   
       15  | 50:04.63 |  3:52.62 |    225363    |   242824   
       16  | 53:57.50 |  5:30.69 |    242825    |   267643   
       17  | 59:28.44 |  4:26.09 |    267644    |   287602   

Track  1

     Filename C:\Users\Derek\Desktop\EACRIP\Asking Alexandria - 2011 - Reckless & Relentless\01 - Welcome.wav

     Pre-gap length  0:00:02.00

     Peak level 96.6 %
     Extraction speed 2.1 X
     Track quality 100.0 %
     Test CRC 4E710AAE
     Copy CRC 4E710AAE
     Track not present in AccurateRip database
     Copy OK

Track  2

     Filename C:\Users\Derek\Desktop\EACRIP\Asking Alexandria - 2011 - Reckless & Relentless\02 - Dear Insanity.wav

     Peak level 96.6 %
     Extraction speed 2.2 X
     Track quality 99.9 %
     Test CRC 7ED2C4D6
     Copy CRC 7ED2C4D6
     Track not present in AccurateRip database
     Copy OK

Track  3

     Filename C:\Users\Derek\Desktop\EACRIP\Asking Alexandria - 2011 - Reckless & Relentless\03 - Closure.wav

     Peak level 96.7 %
     Extraction speed 2.9 X
     Track quality 100.0 %
     Test CRC F05C5ECF
     Copy CRC F05C5ECF
     Track not present in AccurateRip database
     Copy OK

Track  4

     Filename C:\Users\Derek\Desktop\EACRIP\Asking Alexandria - 2011 - Reckless & Relentless\04 - A Lesson Never Learned.wav

     Peak level 97.1 %
     Extraction speed 2.7 X
     Track quality 99.9 %
     Test CRC A2377CB9
     Copy CRC A2377CB9
     Track not present in AccurateRip database
     Copy OK

Track  5

     Filename C:\Users\Derek\Desktop\EACRIP\Asking Alexandria - 2011 - Reckless & Relentless\05 - To the Stage.wav

     Peak level 97.8 %
     Extraction speed 3.3 X
     Track quality 100.0 %
     Test CRC FF8AA661
     Copy CRC FF8AA661
     Track not present in AccurateRip database
     Copy OK

Track  6

     Filename C:\Users\Derek\Desktop\EACRIP\Asking Alexandria - 2011 - Reckless & Relentless\06 - Dedication.wav

     Peak level 96.6 %
     Extraction speed 2.5 X
     Track quality 100.0 %
     Test CRC 2F8EEE50
     Copy CRC 2F8EEE50
     Track not present in AccurateRip database
     Copy OK

Track  7

     Filename C:\Users\Derek\Desktop\EACRIP\Asking Alexandria - 2011 - Reckless & Relentless\07 - Someone, Somewhere.wav

     Peak level 96.6 %
     Extraction speed 3.5 X
     Track quality 100.0 %
     Test CRC 9778E81C
     Copy CRC 9778E81C
     Track not present in AccurateRip database
     Copy OK

Track  8

     Filename C:\Users\Derek\Desktop\EACRIP\Asking Alexandria - 2011 - Reckless & Relentless\08 - Breathless.wav

     Peak level 96.6 %
     Extraction speed 3.8 X
     Track quality 100.0 %
     Test CRC D5E0CC15
     Copy CRC D5E0CC15
     Track not present in AccurateRip database
     Copy OK

Track  9

     Filename C:\Users\Derek\Desktop\EACRIP\Asking Alexandria - 2011 - Reckless & Relentless\09 - The Match.wav

     Peak level 98.6 %
     Extraction speed 4.1 X
     Track quality 100.0 %
     Test CRC 9C6DEC8E
     Copy CRC 9C6DEC8E
     Track not present in AccurateRip database
     Copy OK

Track 10

     Filename C:\Users\Derek\Desktop\EACRIP\Asking Alexandria - 2011 - Reckless & Relentless\10 - Another Bottle Down.wav

     Peak level 97.8 %
     Extraction speed 3.6 X
     Track quality 99.9 %
     Test CRC 36403398
     Copy CRC 36403398
     Track not present in AccurateRip database
     Copy OK

Track 11

     Filename C:\Users\Derek\Desktop\EACRIP\Asking Alexandria - 2011 - Reckless & Relentless\11 - Reckless & Relentless.wav

     Peak level 96.6 %
     Extraction speed 4.4 X
     Track quality 100.0 %
     Test CRC D99C1E0C
     Copy CRC D99C1E0C
     Track not present in AccurateRip database
     Copy OK

Track 12

     Filename C:\Users\Derek\Desktop\EACRIP\Asking Alexandria - 2011 - Reckless & Relentless\12 - Morte et Dabo.wav

     Peak level 96.6 %
     Extraction speed 4.7 X
     Track quality 100.0 %
     Test CRC 2B4860C6
     Copy CRC 2B4860C6
     Track not present in AccurateRip database
     Copy OK

Track 13

     Filename C:\Users\Derek\Desktop\EACRIP\Asking Alexandria - 2011 - Reckless & Relentless\13 - When Everyday's the Weekend (Big Chocolate Remix).wav

     Peak level 96.6 %
     Extraction speed 4.7 X
     Track quality 100.0 %
     Test CRC C2920C36
     Copy CRC C2920C36
     Track not present in AccurateRip database
     Copy OK

Track 14

     Filename C:\Users\Derek\Desktop\EACRIP\Asking Alexandria - 2011 - Reckless & Relentless\14 - Nobody Don't Dance No More (Noah D Remix).wav

     Peak level 96.6 %
     Extraction speed 4.8 X
     Track quality 100.0 %
     Test CRC 5616114A
     Copy CRC 5616114A
     Track not present in AccurateRip database
     Copy OK

Track 15

     Filename C:\Users\Derek\Desktop\EACRIP\Asking Alexandria - 2011 - Reckless & Relentless\15 - If You Can't Ride Two Horses at Once, You Should Get Out of the Circus (Noah D Remix).wav

     Peak level 96.6 %
     Extraction speed 5.0 X
     Track quality 100.0 %
     Test CRC 5B72EB75
     Copy CRC 5B72EB75
     Track not present in AccurateRip database
     Copy OK

Track 16

     Filename C:\Users\Derek\Desktop\EACRIP\Asking Alexandria - 2011 - Reckless & Relentless\16 - I Was Once Possibly Maybe Perhaps a Cowboy King (Robotsonics Remix).wav

     Peak level 96.6 %
     Extraction speed 5.4 X
     Track quality 100.0 %
     Test CRC C9C5A9CB
     Copy CRC C9C5A9CB
     Track not present in AccurateRip database
     Copy OK

Track 17

     Filename C:\Users\Derek\Desktop\EACRIP\Asking Alexandria - 2011 - Reckless & Relentless\17 - A Prophecy (Big Chocolate Remix).wav

     Peak level 96.6 %
     Extraction speed 5.4 X
     Track quality 100.0 %
     Test CRC E7BA4B6F
     Copy CRC E7BA4B6F
     Track not present in AccurateRip database
     Copy OK

None of the tracks are present in the AccurateRip database

No errors occurred

End of status report

Код:

REM GENRE Hardcore
REM DATE 2011
REM DISCID E80EFA11
REM COMMENT "ExactAudioCopy v1.0b1"
FILE "Asking Alexandria - 2011 - Reckless & Relentless\01 - Welcome.wav" WAVE
  TRACK 01 AUDIO
    INDEX 01 00:00:00
FILE "Asking Alexandria - 2011 - Reckless & Relentless\02 - Dear Insanity.wav" WAVE
  TRACK 02 AUDIO
    INDEX 01 00:00:00
FILE "Asking Alexandria - 2011 - Reckless & Relentless\03 - Closure.wav" WAVE
  TRACK 03 AUDIO
    INDEX 01 00:00:00
FILE "Asking Alexandria - 2011 - Reckless & Relentless\04 - A Lesson Never Learned.wav" WAVE
  TRACK 04 AUDIO
    INDEX 01 00:00:00
FILE "Asking Alexandria - 2011 - Reckless & Relentless\05 - To the Stage.wav" WAVE
  TRACK 05 AUDIO
    INDEX 01 00:00:00
FILE "Asking Alexandria - 2011 - Reckless & Relentless\06 - Dedication.wav" WAVE
  TRACK 06 AUDIO
    INDEX 01 00:00:00
FILE "Asking Alexandria - 2011 - Reckless & Relentless\07 - Someone, Somewhere.wav" WAVE
  TRACK 07 AUDIO
    INDEX 01 00:00:00
FILE "Asking Alexandria - 2011 - Reckless & Relentless\08 - Breathless.wav" WAVE
  TRACK 08 AUDIO
    INDEX 01 00:00:00
FILE "Asking Alexandria - 2011 - Reckless & Relentless\09 - The Match.wav" WAVE
  TRACK 09 AUDIO
    INDEX 01 00:00:00
FILE "Asking Alexandria - 2011 - Reckless & Relentless\10 - Another Bottle Down.wav" WAVE
  TRACK 10 AUDIO
    INDEX 01 00:00:00
FILE "Asking Alexandria - 2011 - Reckless & Relentless\11 - Reckless & Relentless.wav" WAVE
  TRACK 11 AUDIO
    INDEX 01 00:00:00
FILE "Asking Alexandria - 2011 - Reckless & Relentless\12 - Morte et Dabo.wav" WAVE
  TRACK 12 AUDIO
    INDEX 01 00:00:00
FILE "Asking Alexandria - 2011 - Reckless & Relentless\13 - When Everyday's the Weekend (Big Chocolate Remix).wav" WAVE
  TRACK 13 AUDIO
    INDEX 01 00:00:00
FILE "Asking Alexandria - 2011 - Reckless & Relentless\14 - Nobody Don't Dance No More (Noah D Remix).wav" WAVE
  TRACK 14 AUDIO
    INDEX 01 00:00:00
FILE "Asking Alexandria - 2011 - Reckless & Relentless\15 - If You Can't Ride Two Horses at Once, You Should Get Out of the Circus (Noah D Remix).wav" WAVE
  TRACK 15 AUDIO
    INDEX 01 00:00:00
FILE "Asking Alexandria - 2011 - Reckless & Relentless\16 - I Was Once Possibly Maybe Perhaps a Cowboy King (Robotsonics Remix).wav" WAVE
  TRACK 16 AUDIO
    INDEX 01 00:00:00
FILE "Asking Alexandria - 2011 - Reckless & Relentless\17 - A Prophecy (Big Chocolate Remix).wav" WAVE
  TRACK 17 AUDIO
    INDEX 01 00:00:00

Лейбл:Sumerian Record
Кат. номер:SUM050
01. Welcome (1:49)
02. Dear Insanity (3:10)
03. Closure (3:58)
04. A Lesson Never Learned (3:55)
05. To The Stage (3:31)
06. Dedication (1:03)
07. Someone, Somewhere (3:37)
08. Breathless (4:10)
09. The Match (4:16)
10. Another Bottle Down (3:34)
11. Reckless & Relentless (4:08)
12. Morte et Dabo (5:15)
13. The Final Episode (Let's Change The Channel) [Borgore Remix] (4:12)
14. A Candlelit Dinner With Inamorta (Run DMT Remix) (4:14)
15. A Prophecy (Big Chocolate Electro Remix) (4:17)

Код:

Exact Audio Copy V0.99 prebeta 5 from 4. May 2009

EAC extraction logfile from 7. April 2011, 20:09

Asking Alexandria / Reckless & Relentless

Used drive  : MATSHITADVD+-RW UJ-875S   Adapter: 0  ID: 0

Read mode               : Secure
Utilize accurate stream : Yes
Defeat audio cache      : Yes
Make use of C2 pointers : No

Read offset correction                      : 102
Overread into Lead-In and Lead-Out          : No
Fill up missing offset samples with silence : Yes
Delete leading and trailing silent blocks   : No
Null samples used in CRC calculations       : Yes
Used interface                              : Native Win32 interface for Win NT & 2000
Gap handling                                : Appended to previous track

Used output format              : User Defined Encoder
Selected bitrate                : 320 kBit/s
Quality                         : High
Add ID3 tag                     : No
Command line compressor         : C:\Program Files (x86)\Exact Audio Copy\Flac\flac.exe
Additional command line options : -V -8 -T "artist=%a" -T "title=%t" -T "album=%g" -T "date=%y" -T "tracknumber=%n" -T "genre=%m" %s

TOC of the extracted CD

     Track |   Start  |  Length  | Start sector | End sector
    ---------------------------------------------------------
        1  |  0:00.00 |  1:49.08 |         0    |     8182   
        2  |  1:49.08 |  3:09.43 |      8183    |    22400   
        3  |  4:58.51 |  3:58.12 |     22401    |    40262   
        4  |  8:56.63 |  3:54.58 |     40263    |    57870   
        5  | 12:51.46 |  3:30.46 |     57871    |    73666   
        6  | 16:22.17 |  1:03.04 |     73667    |    78395   
        7  | 17:25.21 |  3:36.48 |     78396    |    94643   
        8  | 21:01.69 |  4:09.74 |     94644    |   113392   
        9  | 25:11.68 |  4:15.62 |    113393    |   132579   
       10  | 29:27.55 |  3:34.14 |    132580    |   148643   
       11  | 33:01.69 |  4:08.14 |    148644    |   167257   
       12  | 37:10.08 |  5:14.73 |    167258    |   190880   
       13  | 42:25.06 |  4:11.60 |    190881    |   209765   
       14  | 46:36.66 |  4:13.54 |    209766    |   228794   
       15  | 50:50.45 |  4:16.68 |    228795    |   248062   

Track  1

     Filename C:\EACrips\01 - Asking Alexandria - Welcome.wav

     Pre-gap length  0:00:02.00

     Peak level 96.6 %
     Track quality 100.0 %
     Test CRC 4E710AAE
     Copy CRC 4E710AAE
     Track not present in AccurateRip database
     Copy OK

Track  2

     Filename C:\EACrips\02 - Asking Alexandria - Dear Insanity.wav

     Peak level 96.6 %
     Track quality 99.9 %
     Test CRC 7ED2C4D6
     Copy CRC 7ED2C4D6
     Track not present in AccurateRip database
     Copy OK

Track  3

     Filename C:\EACrips\03 - Asking Alexandria - Closure.wav

     Peak level 96.7 %
     Track quality 100.0 %
     Test CRC F05C5ECF
     Copy CRC F05C5ECF
     Track not present in AccurateRip database
     Copy OK

Track  4

     Filename C:\EACrips\04 - Asking Alexandria - A Lesson Never Learned.wav

     Peak level 97.1 %
     Track quality 99.9 %
     Test CRC A2377CB9
     Copy CRC A2377CB9
     Track not present in AccurateRip database
     Copy OK

Track  5

     Filename C:\EACrips\05 - Asking Alexandria - To The Stage.wav

     Peak level 97.8 %
     Track quality 100.0 %
     Test CRC FF8AA661
     Copy CRC FF8AA661
     Track not present in AccurateRip database
     Copy OK

Track  6

     Filename C:\EACrips\06 - Asking Alexandria - Dedication.wav

     Peak level 96.6 %
     Track quality 100.0 %
     Test CRC 2F8EEE50
     Copy CRC 2F8EEE50
     Track not present in AccurateRip database
     Copy OK

Track  7

     Filename C:\EACrips\07 - Asking Alexandria - Someone, Somewhere.wav

     Peak level 96.6 %
     Track quality 100.0 %
     Test CRC 9778E81C
     Copy CRC 9778E81C
     Track not present in AccurateRip database
     Copy OK

Track  8

     Filename C:\EACrips\08 - Asking Alexandria - Breathless.wav

     Peak level 96.6 %
     Track quality 100.0 %
     Test CRC D5E0CC15
     Copy CRC D5E0CC15
     Track not present in AccurateRip database
     Copy OK

Track  9

     Filename C:\EACrips\09 - Asking Alexandria - The Match.wav

     Peak level 98.6 %
     Track quality 100.0 %
     Test CRC 9C6DEC8E
     Copy CRC 9C6DEC8E
     Track not present in AccurateRip database
     Copy OK

Track 10

     Filename C:\EACrips\10 - Asking Alexandria - Another Bottle Down.wav

     Peak level 97.8 %
     Track quality 99.9 %
     Test CRC 36403398
     Copy CRC 36403398
     Track not present in AccurateRip database
     Copy OK

Track 11

     Filename C:\EACrips\11 - Asking Alexandria - Reckless & Relentless.wav

     Peak level 96.6 %
     Track quality 100.0 %
     Test CRC D99C1E0C
     Copy CRC D99C1E0C
     Track not present in AccurateRip database
     Copy OK

Track 12

     Filename C:\EACrips\12 - Asking Alexandria - Morte et Dabo.wav

     Peak level 96.6 %
     Track quality 100.0 %
     Test CRC 4368F924
     Copy CRC 4368F924
     Track not present in AccurateRip database
     Copy OK

Track 13

     Filename C:\EACrips\13 - Asking Alexandria - The Final Episode (Let's Change The Channel) [Borgore Remix].wav

     Peak level 96.6 %
     Track quality 100.0 %
     Test CRC 35BB1A99
     Copy CRC 35BB1A99
     Track not present in AccurateRip database
     Copy OK

Track 14

     Filename C:\EACrips\14 - Asking Alexandria - A Candlelit Dinner With Inamorta (Run DMT Remix).wav

     Peak level 96.6 %
     Track quality 100.0 %
     Test CRC 21EE4FDA
     Copy CRC 21EE4FDA
     Track not present in AccurateRip database
     Copy OK

Track 15

     Filename C:\EACrips\15 - Asking Alexandria - A Prophecy (Big Chocolate Electro Remix).wav

     Peak level 96.6 %
     Track quality 100.0 %
     Test CRC AFCB9FB1
     Copy CRC AFCB9FB1
     Track not present in AccurateRip database
     Copy OK

None of the tracks are present in the AccurateRip database

No errors occurred

End of status report

Код:

REM DATE 2011
REM DISCID CB0CEB0F
REM COMMENT "ExactAudioCopy v0.99pb5"
FILE "01 - Asking Alexandria - Welcome.wav" WAVE
  TRACK 01 AUDIO
    INDEX 01 00:00:00
FILE "02 - Asking Alexandria - Dear Insanity.wav" WAVE
  TRACK 02 AUDIO
    INDEX 01 00:00:00
FILE "03 - Asking Alexandria - Closure.wav" WAVE
  TRACK 03 AUDIO
    INDEX 01 00:00:00
FILE "04 - Asking Alexandria - A Lesson Never Learned.wav" WAVE
  TRACK 04 AUDIO
    INDEX 01 00:00:00
FILE "05 - Asking Alexandria - To The Stage.wav" WAVE
  TRACK 05 AUDIO
    INDEX 01 00:00:00
FILE "06 - Asking Alexandria - Dedication.wav" WAVE
  TRACK 06 AUDIO
    INDEX 01 00:00:00
FILE "07 - Asking Alexandria - Someone, Somewhere.wav" WAVE
  TRACK 07 AUDIO
    INDEX 01 00:00:00
FILE "08 - Asking Alexandria - Breathless.wav" WAVE
  TRACK 08 AUDIO
    INDEX 01 00:00:00
FILE "09 - Asking Alexandria - The Match.wav" WAVE
  TRACK 09 AUDIO
    INDEX 01 00:00:00
FILE "10 - Asking Alexandria - Another Bottle Down.wav" WAVE
  TRACK 10 AUDIO
    INDEX 01 00:00:00
FILE "11 - Asking Alexandria - Reckless & Relentless.wav" WAVE
  TRACK 11 AUDIO
    INDEX 01 00:00:00
FILE "12 - Asking Alexandria - Morte et Dabo.wav" WAVE
  TRACK 12 AUDIO
    INDEX 01 00:00:00
FILE "13 - Asking Alexandria - The Final Episode (Let's Change The Channel) [Borgore Remix].wav" WAVE
  TRACK 13 AUDIO
    INDEX 01 00:00:00
FILE "14 - Asking Alexandria - A Candlelit Dinner With Inamorta (Run DMT Remix).wav" WAVE
  TRACK 14 AUDIO
    INDEX 01 00:00:00
FILE "15 - Asking Alexandria - A Prophecy (Big Chocolate Electro Remix).wav" WAVE
  TRACK 15 AUDIO
    INDEX 01 00:00:00

info [Профиль]  [ЛС] 

ber7erker

Пол: Пол:Муж

Стаж: 7 лет 2 месяца

Сообщений: 23

Россия
Рейтинг

post 29-Апр-2012 20:37 (спустя 1 час 10 минут) [-]0[+]

[Цитировать] 

Как музыка, кого напоминает?

_________________
info [Профиль]  [ЛС] 

San4eZ

Пол: Пол:Муж

Стаж: 4 года 10 месяцев

Сообщений: 12

Россия
Рейтинг

post 29-Апр-2012 20:45 (спустя 7 минут) [-]0[+]

[Цитировать] 

Благодарю, обалденная группа kolob_123

_________________
info [Профиль]  [ЛС] 

hytos

Пол: Пол:Муж

Стаж: 7 лет 1 месяц

Сообщений: 1241

Рейтинг

post 29-Апр-2012 21:09 (спустя 23 минуты) [-]2[+]

[Цитировать] 

info [Профиль]  [ЛС] 

Resistance

Пол: Пол:Муж

Стаж: 7 лет 2 месяца

Сообщений: 3639

Россия
Рейтинг

post 29-Апр-2012 22:11 (спустя 1 час 2 минуты) [-]0[+]

[Цитировать] 

hytos
Под спойлер картинку и та девушка действительно сгорит в аду Катаюсь по полу от смеха
info [Профиль]  [ЛС] 

hytos

Пол: Пол:Муж

Стаж: 7 лет 1 месяц

Сообщений: 1241

Рейтинг

post 29-Апр-2012 22:17 (спустя 6 минут) [-]0[+]

[Цитировать] 

hytos
прости, что-то я забыл про спойлер, но я был вынужден скинуть Смеюсь

добавлено спустя 1 минута 27 секунд:

Oneguns
а в их дискографию разве не входит dj сборник 2011 года?
info [Профиль]  [ЛС] 

Resistance

Пол: Пол:Муж

Стаж: 7 лет 2 месяца

Сообщений: 3639

Россия
Рейтинг

post 29-Апр-2012 22:27 (спустя 10 минут) [-]0[+]

[Цитировать] 

hytos
Ага, называется Stepped Up and Scratched, но я его не добалял, потому что нет нормального рипа, только сценовый лосслесс.
info [Профиль]  [ЛС] 

Leo5oO

Пол: Пол:Муж

Стаж: 5 лет

Сообщений: 32

Рейтинг

post 30-Апр-2012 03:21 (спустя 4 часа) [-]0[+]

[Цитировать] 

Спасибо ребяточки, обажаю группу !

_________________
info [Профиль]  [ЛС] 
Показать сообщения:    
Ответить на тему

Текущее время: 09-Дек 11:52

Часовой пояс: GMT + 4



Вы не можете начинать темы
Вы не можете отвечать на сообщения
Вы не можете редактировать свои сообщения
Вы не можете удалять свои сообщения
Вы не можете голосовать в опросах
Вы не можете прикреплять файлы к сообщениям
Вы не можете скачивать файлы