Ошибка

Матрица: Трилогия / The Matrix: Trilogy (Лана Вачовски, Энди Вачовски / Lana Wachowski, Andy Wachowski) [1999, 2003г., фантастика, боевик, приключения, BDRemux 1080p]

Ответить на тему
 
Автор Сообщение

FoXsikkk

Пол: Пол:Муж

Стаж: 5 лет 4 месяца

Сообщений: 82

Россия
Рейтинг

post 15-Апр-2012 19:01 6[+]

[Цитировать] 

pic="http://img814.imageshack.us/img814/4002/84883627.png"
Матрица / The Matrix

Год выпуска: 1999
Страна: США, Австралия
Слоган: «The World's population thinks it's real. On March 31st, they will see the Real World.»
Жанр: фантастика, боевик, приключения
Продолжительность: 02:16:17
Перевод: Профессиональный (полное дублирование)
Cубтитры: Russian, English
Режиссер: Энди Вачовски / Andy Wachowski, Лана Вачовски / Lana Wachowski
Сценарий: Энди Вачовски / Andy Wachowski, Лана Вачовски / Lana Wachowski
Продюсер: Джоэл Силвер / Joel Silver, Брюс Берман / Bruce Berman, Лана Вачовски / Lana Wachowski, Дэн Краччиоло / Dan Cracchiolo, Кэрол Хьюз / Carol Hughes
Оператор: Билл Поуп / Bill Pope
Композитор: Дон Дэвис / Don Davis
В ролях: Киану Ривз (Neo,), Лоренс Фишбёрн (Morpheus), Кэрри-Энн Мосс (Trinity), Хьюго Уивинг (Agent Smith), Глория Фостер (Oracle), Джо Пантольяно (Cypher), Маркус Чонг (Tank), Джулиан Араханга (Apoc), Мэтт Доран (Mouse), Белинда МакКлори (Switch), Энтони Рэй Паркер (Dozer), Пол Годдард (Agent Brown)
Роли дублировали: Всеволод Кузнецов (Neo), Владимир Вихров (Morpheus), Елена Соловьева (Trinity), Владимир Антоник (Agent Smith), Светлана Старикова (Oracle), Леонид Белозорович (Cypher), Андрей Бархударов (Tank), Борис Шувалов (Apoc), Андрей Казанцев (Mouse), Алексей Мясников (Dozer), Андрей Градов (Agent Brown), Никита Прозоровский (Agent Jones)
Бюджет: $63 000 000
Маркетинг: $30 000 000
Сборы в США: $171 479 930
Сборы в мире: $460 379 930
Мировая премьера: 31 марта 1999
Релиз на DVD: 24 февраля 2011, «CP-Digital»
Релиз на Blu-ray: 10 февраля 2011, «CP-Digital»
Описание: Мир Матрицы - это иллюзия, существующая только в бесконечном сне обреченного человечества. Холодный мир будущего, в котором люди - всего лишь батарейки в компьютерных системах.
Рейтинг:
kinopoisk.ru: 8.483 (108 319)
Топ250: 35
imdb.com: 8.70 (541 022)
Top 250: #20
MPAA: R - Лицам до 17 лет обязательно присутствие взрослого
Качество: BDRemux 1080p
Формат: MKV
Видео кодек: VC-1
Аудио кодек: DTS-HD, AC3
Видео: 1920x1080 (16:9); 19400 Kbps; 23,976 fps; 0,391 bpp
  • AC3; 48 kHz, 640 Kbps; CBR; 6 ch |Дубляж|
  • DTS-HD; 48 kHz, 2269|DTS Core: 1510 kbps; VBR; 6 ch; 16 bit |Профессиональный двухголосый закадровый, Гланц, Королёва|
  • DTS-HD; 48 kHz, 2270|DTS Core: 1510 kbps; VBR; 6 ch; 16 bit |Авторский одноголосый закадровый, А. Гаврилов|
  • DTS-HD; 48 kHz, 2271|DTS Core: 1510 kbps; VBR; 6 ch; 16 bit |Авторский одноголосый закадровый, Диктор CDV|
  • DTS-HD; 48 kHz, 2271|DTS Core: 1510 kbps; VBR; 6 ch; 16 bit |Профессиональный многоголосый, закадровый|
  • English; DTS-HD; 48 kHz, 2270|DTS Core: 1510 kbps; VBR; 6 ch; 16 bit

  • На роль Нео претендовали Юэн МакГрегор и Леонардо ДиКаприо. В свою очередь, Вэл Килмер претендовал на роль Морфеуса. Уилл Смит также вполне мог сыграть Нео, однако предпочел сняться в неудавшемся «Диком, диком Весте».
  • В первый день работы над картиной снималась сцена в офисе, в которой Нео пытается скрыться от преследующих его агентов.
  • Роль агента Смита по замыслу братьев Вачовски должен был исполнить француз Жан Рено. Однако последний предпочел поработать в другом Голливудском блокбастере «Годзилла».
  • Во время съемок одной из сцен актриса Керри-Энн Мосс вывихнула лодыжку, однако решила не ставить в известность съемочную группу, дабы не лишиться знаковой в её карьере роли.
  • Перед началом съемок ведущие актеры провели в тренировках целых 4 месяца, изучая основы восточных единоборств. Длилось это обучение с октября 1997 года по март 1998 года. Актеры не ожидали таких нагрузок и были полностью уверены, что для получения практических навыков хватит и нескольких недель.
  • Как только картина вышла на экраны и поразила зрителей эффектом замирающей камеры, тут же возникло множество людей, утверждающих, что именно они первыми перенесли это изобретение на большой экран. Французский режиссер Мишель Гондри использовал этот эффект в рекламе страховой компании, а чуть позднее в клипе поп-звезды Бьорк. Архитектор Мэттью Банистер подробно описал данную проблему в своей научной работе. Он предположил, что движение и время в кадре могут идти как параллельно, так и отдельно друг от друга. Однако в то время, аппаратура не позволяла провести данный эксперимент. И, наконец, художник, Тим МакМиллан продемонстрировал эту технику на одном из Британских каналов в 1993 году. Возможно, каждый из них изобрел этот эффект по отдельности, возможно кто-то воспользовался идеями других. Так или иначе, для большинства обывателей, революционерами все равно останутся братья Вачовски.
  • В картине немало обращений к сказкам Льюиса Кэрола «Алиса в стране чудес» и «Алиса в зазеркалье».
  • Забавные анаграммы (переставив буквы во фразах можно получить новую фразу) замечены в саундтреке к фильму. Композиции, звучащие во время тренировочного поединка Нео и Морфеуса, под названиями «Bow Whisk Orchestra» и «Switch or Break Show» являются анаграммами к «Wachowski Brothers» (Братья Вачовски — режиссеры картины). Также в картине звучат следующие композиции: «Exit Mr. Hat» и «Threat Mix». Оба этих трека являются анаграммами к названию фильма — «The Matrix». Кроме того, после того как Нео начинают называть избранным (The One), анаграмму можно заметить и здесь — Neo ~ One.
  • Номер комнаты ТРИнити — 303 , а номер комнаты «избранного» (The One — «один») — 101.
  • Во второй раз в своей актерской карьере Лоуренсу Фишборну довелось сыграть капитана корабля. В 1997 году в картине «Event Horizon» он сыграл капитана Миллера.
  • Незадолго до начала съемок Кеану Ривз серьезно повредил шейные позвонки. В течение 4 месяцев подготовительных тренировок он был вынужден носить на шее фиксирующий бандаж.
  • К середине 2002 года (спустя 3 года после выхода Матрицы) эффект «медленно летящей пули» был использован в 20 различных фильмах.
  • Первоначально, сцену, в которой Нео уклоняется от пуль, выпускаемых в него агентами, хотели снимать по старинке, используя манекенов и различные технические устройства. Однако после того, как было потрачено несколько километров кинопленки и израсходовано множество манекенов, было принято решение прибегнуть к компьютерной графике. Для этого была специально разработана новая компьютерная программа, которая после выхода картины в прокат, стала объектом мечтаний для многих режиссеров высокобюджетных картин.
  • Внимательный зритель сможет заметить дату на одном из мониторов в самом начале фильма — 18 февраля 98 года. Ближе к концу картины на экране высвечивается уже иная дата — 18 сентября 99 года. Таким образом, события, описанные в картине, проходят в течение 19 месяцев.
  • В конце картины герой Кеану Ривза произносит финальный монолог. Примечателен тот факт, что ранее за всю свою актерскую карьеру Кеану никогда не произносил более 5 предложений подряд.
  • Съемки картины полностью проходили в Австралии. Однако, как выяснилось уже в ходе съемочного процесса, в Австралии практически нет мест, походящих на американские гетто. В результате все декорации пришлось изготавливать на месте.
  • Съемки сцены драки между Нео и Агентом Смитом в подземке несколько затянулись. Никто из участников группы не ожидал, что на этот эпизод будет затрачено такое количество времени. Сотни неудачных дублей, и в итоге съемки этой битвы заняли на 10 суток больше намеченного.
  • Киноделы из Warner Bros. дали зеленый свет проекту уже во время так называемого «post production» (монтаж, наложение эффектов, озвучка). Во время съемок уверенность в конечном успехе была, пожалуй, лишь у самих братьев Вачовски.
  • Харизматичные очки главных персонажей картины любезно предоставил лейбл Blinde. В тендере приняли участие 3 компании-производителя солнцезащитных очков. Удивительно, но тендер был проигран такими гигантами рынка как Ray-Ban и Arnette. Узнав результаты тендера, основатель компании Blinde Ричард Уолкер, незамедлительно вылетел в Австралию, чтобы вместе с костюмерами подобрать очки на каждого актера.
  • Пружинящие мобильные телефоны были предоставлены одним из лидеров рынка — компанией Nokia. В ходе съемок были использованы две модели — Nokia 8110 и Nokia Stilleto. Эти телефоны были выпущены в ограниченном количестве и поступили в продажу лишь в часть европейских стран и Австралию.
  • Кеану Ривз вложил собственные 38 миллионов долларов в производство спецэффектов для двух сиквелов.
  • Братья Вачовски уверяют, что их проект задумывался как трилогия ещё в 1993 году.
  • В эпизоде, где Тринити и Нео в поисках Морфиуса оказываются на крыше, один из пилотов вертолета трансформируется в агента Джонса. При этом левый висок Джонса приходится на затылок пилота. Однако, после выстрела Тринити именно в этот висок Джонса, пулевое отверстие у пилота, покинутого «программой» агента, почему оказывается во лбу.
  • В тренировочной программе рукопашного боя перед тем как Нео начинает нападать на Морфеуса, он потирает свой нос большим пальцем руки, что является воспроизведением известного движения Брюса Ли. Данный элемент отсутствовал в сценарии и является импровизацией Киану Ривза.
  • Пистолеты, которые использует Нео в вестибюле, являются точной копией MP5K. Однако в отличие от настоящего оружия, копии весили всего лишь 150-200 грамм.
  • Николас Кейдж отклонил предложение сыграть Нео.
  • Кандидатура Тома Круза рассматривалась на роль Нео.
  • В картине использовалось множество декораций из «Темного города» (1998).
  • Сцена, в которой Нео встречается с одаренными детьми в квартире Оракула, - дань уважения «Акире» (1988).
  • После встречи с Тринити в ночном клубе Нео просыпается в 9:18.
  • Нео останавливает лифт на 41 этаже в здании, где держат Морфеуса.
  • Тринити пилотирует вертолет B212.
  • Звонок Нео в концовке фильма датирован 14:32:21 восемнадцатого сентября 2199.
  • Братья Вачовски предложили Хьюго Уивингу сыграть Агента Смита, после того как увидели его актерскую работу в «Доказательстве» (1991).
  • По словам Дона Дэвиса, Джонни Депп был первоначальным выбором братьев Вачовски на роль Нео, однако студия хотела, чтобы Брэд Питт или Вэл Килмер сыграл главную роль.
  • Гари Олдман и Сэмюэль Л. Джексон рассматривались на роль Морфеуса.
  • Для съёмок сцены телефонного разговора между Нео и Морфеусом в здании «Meta Cortechs», Киану Ривз на самом деле вылез из окна без страховки, не пользуясь услугами каскадеров.
  • В сценарии о внешнем виде Тринити сказано достаточно просто – женщина в черной коже. Однако Ким Барретт (художник по костюмам) значительно расширила такую узкую характеристику.
  • Когда Нео находится в лифте на пути к Оракулу, на стене справа от него можно заметить буквы «KYM», что, скорее всего, является ссылкой на Ким Барретт (художника по костюмам).
  • Символы на экранах компьютеров состоят из перевернутых букв, чисел и японских иероглифов письма «катакана».
  • В фильме можно заметить немало различных вывесок и табличек с реально существующими улицами в Чикаго.
  • Съёмки сцен с вертолетом чуть не привели к закрытию всего проекта, т.к. съёмочная группа нарушила сразу несколько законов, пролетев на вертолетах через закрытое для полетов воздушное пространство. Однако впоследствии законы были изменены, чтобы продолжились съёмки фильма.
  • Пистолеты агентов - Desert Eagle .50 AE.
  • В квартире Оракула на экране телевизора можно заметить белых кроликов из «Ночи Лепуса» (1972).
  • В сцене допроса Нео можно заметить некоторые детали личного дела Томаса Андерсона: дата рождения – 11 марта 1962 года; место рождения - Lower Downtown, Capitol City; девичья фамилия матери – Мишель МакКэйхи; имя отца – Джон Андерсон; Нео получил образование в «Central West Junior High» и «Owen Paterson High». В этой же сцене можно заметить некоторую информацию из паспорта Нео: место рождения – Capital City USA; дата рождения – 13 сентября 1971; паспорт выдан 12 сентября 1991; срок действия паспорта истекает 11 сентября 2001.
  • Мотоцикл Тринити - Triumph Speed Triple.
  • Автомобиль, на котором передвигаются главные герои внутри Матрицы, - 1965 Lincoln Continental.
  • Номер комнаты Нео 101. Точно такой же номер был у места в книге Джорджа Оруэлла «1984», где люди подвергались пыткам и, в конце концов, начинали верить в то, что не является правдой.
  • Съёмочный период составил 118 дней.
  • Книга, в которой Нео прячет компьютерные диски, называется «Симулякры и симуляция».
  • Для сцены «Женщина в красном», в которой Морфеус проводит Нео через компьютерную симуляцию Матрицы, было задействовано множество близнецов, чтобы создать иллюзию всё время повторяющейся программы.
  • В одной из сцен фильма можно заметить телефонный номер с почти полностью видимым кодом города (3?2) 555-0690. В США существует три города с похожими кодами: Чикаго (312), Делавэр (302) и северо-западный полуостров во Флориде (352). В сценарии данный телефонный номер указан, как 312-555-0690.
  • Кэрри-Энн Мосс снималась в телесериале «Матрица» (1993).
  • Все карты города, показанные в фильме, - это карты Чикаго.
  • Метрополитен Матрицы называется «CityRail». Точно такое же название у сети пригородных железных дорог Сиднея.
  • По словам костюмера Глории Бавы, изначально плащ Нео должен был быть серебряно-серого цвета.
  • По словам братьев Вачовски, все животные в Матрице – изображения, созданные с помощью компьютера.
  • Изначально сцену преследования Тринити агентами братья Вачовски хотели снимать на настоящих крышах домов, а не в студийных павильонах.
  • Изначально братья Вачовски хотели получить около $80 миллионов на постановку фильма, однако студия выделила только десять. Получив деньги, братья решили полностью вложить их в первые десять минут фильма (сцена с Кэрри-Энн Мосс). Финальный результат настолько впечатлил студию, что оставшуюся часть денег братья получили без всяких проблем.
  • Количество погибших: 39.
  • Роль Морфеуса была предложена Шону Коннери, однако он отказался из-за того, что совершенно ничего не понял в сценарии.
  • Все сцены, действие которых происходит внутри Матрицы, имеют зеленоватый оттенок, в то время как сцены в реальном мире выполнены в нормальных цветах.
  • Братья Вачовски писали сценарий на протяжении пяти с половиной лет. Было написано четырнадцать версий сценария.
  • В фильме содержится множество ссылок на «Алису в зазеркалье» Льюиса Кэрролла, Маркса, Кафку, дзэн-буддизм и «Одиссею» Гомера.
  • До начала съёмок все актеры, занятые в главных ролях, и основные члены съёмочной группы в обязательном порядке должны были прочитать книгу Жана Бодрийяра «Симулякры и симуляция».
  • Студия настаивала, чтобы в фильме обязательно присутствовали диалоги, объясняющие концепцию Матрицы, т.к. по мнению студийных боссов, сценарий попадал под категорию «сценарий, который никто не поймет».
  • Из фильма намеренно убрали голубой цвет, чтобы показать насколько мрачным является мир Матрицы.
  • Для съёмок начальной сцены фильма потребовалось шесть месяцев тренировок и только четыре дня съёмочного процесса.
  • «Матрица» стала первым фильмом, съёмки которого проходили на новой студии «Fox Studios» в Сиднее.
  • Когда братья Вачовски продали сценарий «Убийц» (1995) продюсеру Джоэлю Силверу, они также рассказали ему о сюжете «Матрицы». Силверу понравилась общая идея, однако он ни за что бы не доверил постановку такого сложного проекта новичкам-режиссерам, не снявшим до этого ни одного фильма. Поэтому он посоветовал им снять для начала что-нибудь более простое в техническом плане. Братья сделали «Связь» (1996), получившую восторженные отзывы как от зрителей, так и от критиков. Успех дебютного фильма, доказавшего, что братья могут придумывать не только захватывающие истории, но и создавать запоминающийся визуальный ряд, убедил студию дать добро на постановку «Матрицы».
  • При съемках сцены «Полет пули» задействовали 120 специальных камер для того, чтобы создать панорамный показ полета пули, выпущенной агентом, и движения уклоняющегося от нее Нео.

Код:

General
Unique ID                                : 218254957196250804328061354678081333761 (0xA4326031A51993709B1B4C4CF0F8AA01)
Complete name                            : The Matrix 1,2,3\The_Matrix_BD_remux\The Matrix.mkv
Format                                   : Matroska
Format version                           : Version 2
File size                                : 27.1 GiB
Duration                                 : 2h 16mn
Overall bit rate mode                    : Variable
Overall bit rate                         : 28.4 Mbps
Encoded date                             : UTC 2010-10-03 10:47:08
Writing application                      : mkvmerge v3.3.0 ('Language') built on Mar 24 2010 14:59:24
Writing library                          : libebml v0.8.0 + libmatroska v0.9.0

Video
ID                                       : 1
Format                                   : VC-1
Format profile                           : AP@L3
Codec ID                                 : WVC1
Codec ID/Hint                            : Microsoft
Duration                                 : 2h 16mn
Bit rate                                 : 19.4 Mbps
Width                                    : 1 920 pixels
Height                                   : 1 080 pixels
Display aspect ratio                     : 16:9
Frame rate                               : 23.976 fps
Chroma subsampling                       : 4:2:0
Bit depth                                : 8 bits
Scan type                                : Progressive
Compression mode                         : Lossy
Bits/(Pixel*Frame)                       : 0.391
Stream size                              : 18.5 GiB (68%)
Default                                  : Yes
Forced                                   : No

Audio #1
ID                                       : 2
Format                                   : DTS
Format/Info                              : Digital Theater Systems
Format profile                           : MA / Core
Codec ID                                 : A_DTS
Duration                                 : 2h 16mn
Bit rate mode                            : Variable
Bit rate                                 : 1 561 Kbps / 1 510 Kbps
Channel(s)                               : 6 channels
Channel positions                        : Front: L C R, Side: L R, LFE
Sampling rate                            : 48.0 KHz
Bit depth                                : 16 bits
Compression mode                         : Lossless / Lossy
Title                                    : Glanz
Language                                 : Russian
Default                                  : Yes
Forced                                   : No

Audio #2
ID                                       : 3
Format                                   : DTS
Format/Info                              : Digital Theater Systems
Format profile                           : MA / Core
Codec ID                                 : A_DTS
Duration                                 : 2h 16mn
Bit rate mode                            : Variable
Bit rate                                 : 1 561 Kbps / 1 510 Kbps
Channel(s)                               : 6 channels
Channel positions                        : Front: L C R, Side: L R, LFE
Sampling rate                            : 48.0 KHz
Bit depth                                : 16 bits
Compression mode                         : Lossless / Lossy
Title                                    : Gavrilov
Language                                 : Russian
Default                                  : No
Forced                                   : No

Audio #3
ID                                       : 4
Format                                   : DTS
Format/Info                              : Digital Theater Systems
Format profile                           : MA / Core
Codec ID                                 : A_DTS
Duration                                 : 2h 16mn
Bit rate mode                            : Variable
Bit rate                                 : 1 561 Kbps / 1 510 Kbps
Channel(s)                               : 6 channels
Channel positions                        : Front: L C R, Side: L R, LFE
Sampling rate                            : 48.0 KHz
Bit depth                                : 16 bits
Compression mode                         : Lossless / Lossy
Title                                    : Diktor CDV
Language                                 : Russian
Default                                  : No
Forced                                   : No

Audio #4
ID                                       : 5
Format                                   : DTS
Format/Info                              : Digital Theater Systems
Format profile                           : MA / Core
Codec ID                                 : A_DTS
Duration                                 : 2h 16mn
Bit rate mode                            : Variable
Bit rate                                 : 1 561 Kbps / 1 510 Kbps
Channel(s)                               : 6 channels
Channel positions                        : Front: L C R, Side: L R, LFE
Sampling rate                            : 48.0 KHz
Bit depth                                : 16 bits
Compression mode                         : Lossless / Lossy
Title                                    : Multi Voice Over
Language                                 : Russian
Default                                  : No
Forced                                   : No

Audio #5
ID                                       : 6
Format                                   : AC-3
Format/Info                              : Audio Coding 3
Mode extension                           : CM (complete main)
Codec ID                                 : A_AC3
Duration                                 : 2h 16mn
Bit rate mode                            : Constant
Bit rate                                 : 640 Kbps
Channel(s)                               : 6 channels
Channel positions                        : Front: L C R, Side: L R, LFE
Sampling rate                            : 48.0 KHz
Bit depth                                : 16 bits
Compression mode                         : Lossy
Stream size                              : 624 MiB (2%)
Title                                    : Dubbung
Language                                 : Russian
Default                                  : No
Forced                                   : No

Audio #6
ID                                       : 7
Format                                   : DTS
Format/Info                              : Digital Theater Systems
Format profile                           : MA / Core
Codec ID                                 : A_DTS
Duration                                 : 2h 16mn
Bit rate mode                            : Variable
Bit rate                                 : 1 561 Kbps / 1 510 Kbps
Channel(s)                               : 6 channels
Channel positions                        : Front: L C R, Side: L R, LFE
Sampling rate                            : 48.0 KHz
Bit depth                                : 16 bits
Compression mode                         : Lossless / Lossy
Title                                    : Original
Language                                 : English
Default                                  : No
Forced                                   : No

Text #1
ID                                       : 8
Format                                   : UTF-8
Codec ID                                 : S_TEXT/UTF8
Codec ID/Info                            : UTF-8 Plain Text
Language                                 : Russian
Default                                  : Yes
Forced                                   : No

Text #2
ID                                       : 9
Format                                   : UTF-8
Codec ID                                 : S_TEXT/UTF8
Codec ID/Info                            : UTF-8 Plain Text
Language                                 : English
Default                                  : No
Forced                                   : No

Menu
00:00:00.000                             : en:00:00:00.000
00:03:25.789                             : en:00:03:25.789
00:06:35.645                             : en:00:06:35.645
00:09:42.665                             : en:00:09:42.665
00:11:58.301                             : en:00:11:58.301
00:16:47.423                             : en:00:16:47.423
00:21:33.542                             : en:00:21:33.542
00:25:08.590                             : en:00:25:08.590
00:28:51.146                             : en:00:28:51.146
00:32:25.193                             : en:00:32:25.193
00:35:21.870                             : en:00:35:21.870
00:38:40.902                             : en:00:38:40.902
00:44:22.577                             : en:00:44:22.577
00:46:33.541                             : en:00:46:33.541
00:48:57.852                             : en:00:48:57.852
00:53:31.291                             : en:00:53:31.291
00:56:32.139                             : en:00:56:32.139
00:59:01.288                             : en:00:59:01.288
01:01:08.582                             : en:01:01:08.582
01:05:16.496                             : en:01:05:16.496
01:07:46.813                             : en:01:07:46.813
01:12:33.432                             : en:01:12:33.432
01:17:49.582                             : en:01:17:49.582
01:21:03.108                             : en:01:21:03.108
01:25:05.350                             : en:01:25:05.350
01:29:45.130                             : en:01:29:45.130
01:31:27.565                             : en:01:31:27.565
01:37:25.256                             : en:01:37:25.256
01:41:04.976                             : en:01:41:04.976
01:44:20.337                             : en:01:44:20.337
01:47:00.497                             : en:01:47:00.497
01:50:18.529                             : en:01:50:18.529
01:52:56.687                             : en:01:52:56.687
01:56:36.907                             : en:01:56:36.907
01:58:49.372                             : en:01:58:49.372
02:02:27.423                             : en:02:02:27.423
02:05:41.784                             : en:02:05:41.784
02:08:46.802                             : en:02:08:46.802
02:09:30.262                             : en:02:09:30.262
02:11:20.164                             : en:02:11:20.164

Оскар, 2000 год
Победитель (4):
Лучший звук
Лучший монтаж
Лучший монтаж звука
Лучшие визуальные эффекты
Матрица перезагрузка / The Matrix Reloaded

Год выпуска: 2003
Страна: США, Австралия
Слоган: «Одни машины помогают нам жить, другие – пытаются нас убить»
Жанр: фантастика, боевик, приключения
Продолжительность: 02:18:15
Перевод: Профессиональный (полное дублирование)
Cубтитры: Russian, English
Режиссер: Энди Вачовски / Andy Wachowski, Лана Вачовски / Lana Wachowski
Сценарий: Энди Вачовски / Andy Wachowski, Лана Вачовски / Lana Wachowski
Продюсер: Джоэл Силвер / Joel Silver, Брюс Берман / Bruce Berman, Лана Вачовски / Lana Wachowski, Дэвид Форбс / David Forbes, Грант Хилл / Grant Hill
Оператор: Билл Поуп / Bill Pope
Композитор: Дон Дэвис / Don Davis
В ролях: Киану Ривз (Neo,), Хьюго Уивинг (Agent Smith), Кэрри-Энн Мосс (Trinity), Лоренс Фишбёрн (Morpheus), Моника Беллуччи (Persephone), Ламбер Вильсон (Merovingian), Энтони Вон (Ghost), Гарри Дж. Ленникс (Commander Lock), Рэндолл Дак Ким (The Keymaker), Глория Фостер (The Oracle), Колин Чоу (Seraph), Рэй Энтони (Power Station Guard)
Роли дублировали: Всеволод Кузнецов (Neo), Владимир Антоник (Agent Smith), Елена Соловьева (Trinity), Владимир Вихров (Morpheus), Ольга Плетнева (Persephone), Андрей Градов (Merovingian), Алексей Рязанцев (Commander Lock), Владимир Еремин (The Keymaker), Светлана Старикова (The Oracle), Александр Рахленко (Seraph), Игорь Тарадайкин (Bane), Рудольф Панков (The Architect)
Бюджет: $150 000 000
Маркетинг: $50 000 000
Сборы в США: $281 576 461
Сборы в России: $11 490 500
Сборы в мире: $738 599 701
Мировая премьера: 7 мая 2003
Релиз на DVD: 24 февраля 2011, «CP-Digital»
Релиз на Blu-ray: 10 февраля 2011, «CP-Digital»
Описание: Борцы за свободу Нео, Тринити и Морфеус продолжают руководить восстанием людей против Армии Машин. Для уничтожения системы репрессий и эксплуатации они вынуждены прибегнуть не только к арсеналу превосходного оружия, но и к своим выдающимся навыкам.
Участие в миссии по спасению человеческой расы от ее полного истребления приносит им более глубокое понимание конструкции Матрицы и осознание центральной роли Нео в судьбе человечества.
Рейтинг:
kinopoisk.ru: 7.701 (42 800)
imdb.com: 7.10 (217 930)
MPAA: R - Лицам до 17 лет обязательно присутствие взрослого
Качество: BDRemux 1080p
Формат: MKV
Видео кодек: VC-1
Аудио кодек: DTS-HD, AC3
Видео: 1920x1080 (16:9); 17700 kbps; 23,976 fps; 0,356 bpp
  • AC3; 48 kHz, 640 Kbps; CBR; 6 ch |Дубляж|
  • DTS-HD; 48 kHz, 2424|DTS Core: 1510 kbps; VBR; 6 ch; 16 bit |Профессиональный двухголосый закадровый, Гланц, Королёва (2008)|
  • DTS-HD; 48 kHz, 2422|DTS Core: 1510 kbps; VBR; 6 ch; 16 bit |Профессиональный двухголосый закадровый, Гланц, Королёва (2003)|
  • DTS-HD; 48 kHz, 2422|DTS Core: 1510 kbps; VBR; 6 ch; 16 bit |Авторский одноголосый закадровый, А. Гаврилов|
  • DTS-HD; 48 kHz, 2421|DTS Core: 1510 kbps; VBR; 6 ch; 16 bit |Профессиональный двухголосый закадровый|
  • English; DTS-HD; 48 kHz, 2424|DTS Core: 1510 kbps; VBR; 6 ch; 16 bit

  • Фильм был запрещён в Египте, потому что «подстрекает верить в религии, на которых он основан».
  • «Смит» (Smith) буквально означает «кузнец». Регистрационный номер автомобиля, на котором Смит подъезжает к месту встречи повстанцев (cцена «Я ищу Нео») — IS5416, по-видимому, означает цитату из книги пророка Исаии, глава 54, стих 16: «Вот, Я сотворил кузнеца, который раздувает угли в огне и производит орудие для своего дела, — и Я творю губителя для истребления».
  • Фильм был занесен в «Книгу рекордов Гиннеса» как «самый растиражированный фильм», т.к. он был выпущен в прокат количеством в 8517 копий.
  • Обучение актеров боевым искусствам началось в ноябре 2000 года и продолжалось 8 месяцев.
  • Сцена боя Нео с многочисленными копиями агента Смита снималась в течение 27 дней. В ней участвовали как живые люди, так и компьютерные образы.
  • Имя Меровинджиан в действительности является названием правящей элиты Франции 7 века н.э. Это также – название одной из ветви церкви гностиков, а также имя предполагаемого потомства Иисуса и Марии Магдалины, данное рыцарями Тамплиеров.
  • Титры с указанием создателей картины и актеров составляют 1943 имени.
  • По условиям контракта братья Вачовски на время работы двух продолжений «Матрицы» не должны были давать никаких интервью средствам массовой информации.
  • Во время производства картины актриса Керри-Энн Мосс сломала ногу, Лоренс Фишберн – руку, а у Хьюго Уивинга повредился шейный позвонок.
  • Компания «General Motors» пожертвовала 300 автомобилей для использования в съемках картины, и к их финалу все 300 были разбиты.
  • 17-минутная сцена боя со свитой Меровинджиано и погони Близнецов стоил около 40 миллионов долларов. Сюда входит и постройка трехполосного шоссе длинной 1,4 мили для сцены погони (после съемок сцены погони, длившейся три месяца, шоссе было разрушено).
  • Флот Зиона составлял 12 судов, 10 из которых упоминаются в трех фильмах о Матрице, а также компьютерной игре «Вход в Матрицу», а еще 2 – в концептуальных художественных работах.
  • Быстро текущие сверху вниз зеленые глифы (знаки) на компьютерных экранах являются измененными буквами и числами японского письма «катакана».
  • Глориа Фостер (Gloria Foster), актриса, исполнившая роль Оракула в первой «Матрице» скончалась от диабета 29 сентября 2001 года. К этому времени были сняты почти все сцены с ее участием для «Матрицы 2», однако для «Матрицы 3» материал снят не был, так что ее заменила Мэри Элис (Mary Alice).
  • После трагической гибели в авиационной катастрофе 25 августа 2001 года певицы Аалии (Aaliyah), которая должна была сыграть в фильме Зи (Zee), жену водителя корабля Морфеуса, на ее место была приглашена относительно неизвестная актриса Нона Гейе (Nona M. Gaye) – дочь актера Марвина Гейе (Marvin Gaye).
  • Во время съемок в Австралии по договоренности с местными властями на 4 часа было перекрыто все движение в Сиднее. Это было предпринято для обеспечения безопасности при съемках сцены с вертолетом, который пролетал над городом на предельно низкой высоте. На улицах не только перекрыли движение, но и эвакуировали людей из некоторых небоскребов.
  • За участие в двух продолжениях «Матрицы» Киану Ривз по контракту получает 30 миллионов долларов или 15% от сборов обеих серий.
  • В России фильм вышел на экраны 22 мая 2003 года сразу в 157 кинотеатрах.
  • Официально в России премьера фильма состоялась 22 мая 2003 года, но 21-го фильм был бесплатно показан на презентации в Москве и Санкт-Петербурге нового сервера «Microsoft Windows Server 2003».
  • Гонорар братьев Вачовски – режиссеров и сценаристов картины – 10 миллионов долларов и неназванная доля от проката двух фильмов.
  • «Матрица 2» и «Матрица 3» и параллельно с ними компьютерная игра «Вход в Матрицу» (Enter the Matrix) создавались сразу в период с марта 2001 года по 21 августа 2002-го.
  • Фильм снимался в городах Сидней и Редферн (Австралия), а также в городе Окленд (США, штат Калифорния).
  • Машина на которой едут Морфеус,Тринити и Мастер Ключей в сцене погони на шоссе имеет номер «DA 203». В Книге пророка Даниила (англ. Daniel, Dan. 2:3), глава 2, стих 3 читаем: «И сказал им царь: сон снился мне, и тревожится дух мой; желаю знать этот сон»
  • По слухам, Ева Мендес, Саманта Мамба, Брэнди Норвуд и Татьяна Али рассматривались на роль Зи, после смерти Алии.
  • Ларе Датте предлагали роль в двух сиквелах «Матрицы», но она отказалась, т.к. ей не понравился сценарий.
  • Киану Ривз отказался от причитающейся ему доли от продажи билетов, равной примерно $38 миллионам, после того как продюсеры засомневались, что картина никогда не окупит затраты на спецэффекты.
  • Стоимость спецэффектов $100 миллионов.
  • Съёмки автомобильной погони на шоссе продолжались около трех месяцев.
  • Когда Тринити взламывает компьютер на электростанции, она вводит пароль Z1ON0101. Взлом показан очень реалистично. Тринити использует реально существующую программу Nmap version 2.54BETA25, предназначенную для сканирования портов удаленного доступа. По адресу 10.2.22 утилита находит открытый порт, используемый сервисом SSH. Более того, Тринити использует для атаки реальную и довольно известную “дыру” сервиса SSH CRC32. Правда, Тринити атакует “дыру” эксплоитом sshnuke, а это уже плод фантазии режиссера.
  • Красное кресло, в котором сидит Морфеус, объясняя план по получению доступа к Источнику, - это то же самое кресло, в котором Морфеус объяснял Нео, что такое Матрица в первом фильме.
  • Два шоссе, упоминающихся в фильме, идут под номерами 101 и 303. Точно такие же номера были у квартиры Нео и комнаты отеля соответственно в «Матрице» (1999).
  • На грузовике, использованном в сцене автомобильной погони, написано «Big Endian Eggs», что является ссылкой на «Приключения Гулливера».
  • В фильме содержится множество ссылок на число 101.
  • Братьям Вачовски предлагали поставить «Бэтман: Начало» (2005), но они отказались, чтобы сделать сиквелы «Матрицы».
  • Так как Cadillac Escalade EXT еще не был выпущен из производства на момент съёмок фильма, компания General Motors была вынуждена добавить части корпуса Cadillac из стекловолокна на прототип Chevrolet Avalanche, чтобы создать автомобиль близнецов в фильме.
  • В подземном гараже, где герои фильма выбирают машину, можно заметить множество «Кадиллаков», включая 1950s El Dorado и прототип 2004 XLR.
  • Во время съёмок в центре Окленда должны были быть убраны все красные и синие цвета, поэтому были перекрашены все бордюры вдоль тротуаров. Также в кадр не должна была попасть зелень либо какая-либо другая растительность, поэтому съёмки проходили зимой, пока на деревьях не появилась листва.
  • Кэрри-Энн Мосс в некоторых сценах сама сидела за рулем мотоцикла во время погони по шоссе.
  • Роль Серафима была специально написана для Джета Ли. После того как он отклонил предложение, роль переписали под Мишель Йео, но и она отказалась.
  • Кэрри-Энн Мосс потребовалось шесть месяцев, чтобы добиться идеального исполнения удара скорпиона в начале фильма.
  • Французский акцент Ламбера Вильсона, сыгравшего Меровиджиана специально преувеличен. Уилсон прекрасно говорит по-английски, но по просьбе режиссеров в фильме он говорил с очень сильным французским акцентом.
  • Когда Нео дерется с клонами Смита, было использовано несколько нестандартных звуковых эффектов: в один из моментов слышен звук опрокидывающихся домино; в концовке драки, когда Нео бросает Смита в толпу его клонов, слышен звук шара для боулинга, сбивающего кегли.
  • Во время драки Нео с клонами Смита присутствуют четыре полностью компьютерные сцены, где не было задействовано ни одно живого актера. Создатели использовали камеры Sony HDR-900 High Definition, чтобы отсканировать изображения Нео и Смита для сцены драки.
  • Лоренс Фишбёрн, Джада Пинкетт Смит и Энтони Вонг согласились сниматься в фильме, не читая сценария.
  • Оружие близнецов – уже давно вышедшие из употребления опасные бритвы.
  • Мониторы в комнате Архитектора точно такие же, как и мониторы в комнате для допросов в «Матрице» (1999).
  • Лоренс Фишбёрн предложил, чтобы его персонаж снял очки для сцены драки между Морфеусом и агентом на крыше грузовика, чтобы, с одной стороны, напомнить зрителям о схватке Морфеуса с Агентом Смитом в первом фильме, а с другой – ярче подчеркнуть уязвимость своего героя.
  • Пистолет Персефоны - COP .357. Точно такое же оружие использует Леон Ковалски (Брайон Джеймс) в «Бегущем по лезвию» (1982).
  • Изначально автомобильную погоню хотели снимать на шоссе в Акроне, Огайо. Однако впоследствии создателям фильма пришлось отказаться от данной идеи, т.к. требовалось, по меньшей мере, один час для остановки движения на шоссе.
  • Фильм, который идет по ТВ, в сцене, где Персефона стреляет в одного из парней Меровиджиана, - «Невесты Дракулы» (1960). Моника Беллуччи, исполнившая роль Персефоны, также сыграла невесту Дракулы в «Дракуле» (1992), где также снялся Киану Ривз.
  • Зритель не может расслышать монолога алтер эго Нео на экранах мониторов в комнате Архитектора, однако если включить субтитры на DVD, то можно услышать следующие выкрики: «Ты не можешь меня контролировать! Я размажу тебя на мелкие кусочки! Я убью тебя! Ты не можешь меня заставить, ты старый белый ублюдок!
  • Коммандер Лок – единственный из повстанцев, у кого есть имя в реальном мире.
  • Братья Вачовски предложили роль Персефоны Монике Беллуччи, после того как посмотрели «Малену» (2000).
  • В сцене драки между Нео и тремя агентами в начале фильма, Нео швыряет одного из агентов в фонарный столб, сделанный компанией «Darrow Industries», что является ссылкой на художника по эскизам для фильма Джефри Дэрроу.
  • Изначально создатели хотели выпустить в прокат «Перезагрузку» и «Революцию» с промежутком в несколько недель, а не месяцев.
  • Идея того, что все программы «рождаются» из Источника, сущности чистого света, и возвращаются в него, после того как они выполнили свое предназначение, создана на основе индийского бога Брахма.
  • На 1 января 2009 года «Перезагрузка» - самый кассовый фильм с рейтингом R (международные сборы - $735,000,000).
  • В комнате Архитектора, на многих мониторах идут сцены из «Бараки» (1992).
  • Компания «Samsung» сделала 10,000 мобильных телефонов, таких же как и в фильме (модель SPH-N270), которые были распроданы в кратчайшие сроки.
  • Изначально Шон Коннери должен был сыграть Архитектора, однако он отказался, т.к. не мог понять идею фильма.

Код:

General
Unique ID                                : 183162875291614078757406845431394832272 (0x89CBE2F9AFD326B3B5A962E4163B8F90)
Complete name                            : The Matrix 1,2,3\The_Matrix_Reloaded_BD_remux\The Matrix Reloaded.mkv
Format                                   : Matroska
Format version                           : Version 2
File size                                : 25.7 GiB
Duration                                 : 2h 18mn
Overall bit rate mode                    : Variable
Overall bit rate                         : 26.7 Mbps
Encoded date                             : UTC 2011-04-02 12:50:21
Writing application                      : mkvmerge v4.5.0 ('Speed of Light') сборка от Feb  1 2011 02:10:32
Writing library                          : libebml v1.2.0 + libmatroska v1.1.0

Video
ID                                       : 1
Format                                   : VC-1
Format profile                           : AP@L3
Codec ID                                 : WVC1
Codec ID/Hint                            : Microsoft
Duration                                 : 2h 18mn
Bit rate                                 : 17.7 Mbps
Width                                    : 1 920 pixels
Height                                   : 1 080 pixels
Display aspect ratio                     : 16:9
Frame rate                               : 23.976 fps
Chroma subsampling                       : 4:2:0
Bit depth                                : 8 bits
Scan type                                : Progressive
Compression mode                         : Lossy
Bits/(Pixel*Frame)                       : 0.356
Stream size                              : 17.1 GiB (66%)
Default                                  : Yes
Forced                                   : No

Audio #1
ID                                       : 2
Format                                   : DTS
Format/Info                              : Digital Theater Systems
Format profile                           : MA / Core
Codec ID                                 : A_DTS
Duration                                 : 2h 18mn
Bit rate mode                            : Variable
Bit rate                                 : 1 561 Kbps / 1 510 Kbps
Channel(s)                               : 6 channels
Channel positions                        : Front: L C R, Side: L R, LFE
Sampling rate                            : 48.0 KHz
Bit depth                                : 16 bits
Compression mode                         : Lossless / Lossy
Title                                    : P. Glanz (2008)
Language                                 : Russian
Default                                  : Yes
Forced                                   : No

Audio #2
ID                                       : 3
Format                                   : DTS
Format/Info                              : Digital Theater Systems
Format profile                           : MA / Core
Codec ID                                 : A_DTS
Duration                                 : 2h 18mn
Bit rate mode                            : Variable
Bit rate                                 : 1 561 Kbps / 1 510 Kbps
Channel(s)                               : 6 channels
Channel positions                        : Front: L C R, Side: L R, LFE
Sampling rate                            : 48.0 KHz
Bit depth                                : 16 bits
Compression mode                         : Lossless / Lossy
Title                                    : P. Glanz (2003)
Language                                 : Russian
Default                                  : No
Forced                                   : No

Audio #3
ID                                       : 4
Format                                   : DTS
Format/Info                              : Digital Theater Systems
Format profile                           : MA / Core
Codec ID                                 : A_DTS
Duration                                 : 2h 18mn
Bit rate mode                            : Variable
Bit rate                                 : 1 561 Kbps / 1 510 Kbps
Channel(s)                               : 6 channels
Channel positions                        : Front: L C R, Side: L R, LFE
Sampling rate                            : 48.0 KHz
Bit depth                                : 16 bits
Compression mode                         : Lossless / Lossy
Title                                    : A. Gavrilov
Language                                 : Russian
Default                                  : No
Forced                                   : No

Audio #4
ID                                       : 5
Format                                   : DTS
Format/Info                              : Digital Theater Systems
Format profile                           : MA / Core
Codec ID                                 : A_DTS
Duration                                 : 2h 18mn
Bit rate mode                            : Variable
Bit rate                                 : 1 561 Kbps / 1 510 Kbps
Channel(s)                               : 6 channels
Channel positions                        : Front: L C R, Side: L R, LFE
Sampling rate                            : 48.0 KHz
Bit depth                                : 16 bits
Compression mode                         : Lossless / Lossy
Title                                    : DVO
Language                                 : Russian
Default                                  : No
Forced                                   : No

Audio #5
ID                                       : 6
Format                                   : AC-3
Format/Info                              : Audio Coding 3
Mode extension                           : CM (complete main)
Codec ID                                 : A_AC3
Duration                                 : 2h 18mn
Bit rate mode                            : Constant
Bit rate                                 : 640 Kbps
Channel(s)                               : 6 channels
Channel positions                        : Front: L C R, Side: L R, LFE
Sampling rate                            : 48.0 KHz
Bit depth                                : 16 bits
Compression mode                         : Lossy
Stream size                              : 633 MiB (2%)
Title                                    : dubbing
Language                                 : Russian
Default                                  : No
Forced                                   : No

Audio #6
ID                                       : 7
Format                                   : DTS
Format/Info                              : Digital Theater Systems
Format profile                           : MA / Core
Codec ID                                 : A_DTS
Duration                                 : 2h 18mn
Bit rate mode                            : Variable
Bit rate                                 : 1 561 Kbps / 1 510 Kbps
Channel(s)                               : 6 channels
Channel positions                        : Front: L C R, Side: L R, LFE
Sampling rate                            : 48.0 KHz
Bit depth                                : 16 bits
Compression mode                         : Lossless / Lossy
Title                                    : original
Language                                 : English
Default                                  : No
Forced                                   : No

Text #1
ID                                       : 8
Format                                   : UTF-8
Codec ID                                 : S_TEXT/UTF8
Codec ID/Info                            : UTF-8 Plain Text
Title                                    : from BD
Language                                 : Russian
Default                                  : Yes
Forced                                   : No

Text #2
ID                                       : 9
Format                                   : UTF-8
Codec ID                                 : S_TEXT/UTF8
Codec ID/Info                            : UTF-8 Plain Text
Title                                    : from BD
Language                                 : English
Default                                  : No
Forced                                   : No

Menu
00:00:00.000                             : en:00:00:00.000
00:03:50.230                             : en:00:03:50.230
00:08:55.368                             : en:00:08:55.368
00:12:16.903                             : en:00:12:16.903
00:16:24.317                             : en:00:16:24.317
00:19:43.182                             : en:00:19:43.182
00:23:29.408                             : en:00:23:29.408
00:27:26.812                             : en:00:27:26.812
00:32:01.253                             : en:00:32:01.253
00:33:43.188                             : en:00:33:43.188
00:37:57.442                             : en:00:37:57.442
00:40:55.620                             : en:00:40:55.620
00:43:44.956                             : en:00:43:44.956
00:50:42.706                             : en:00:50:42.706
00:55:08.472                             : en:00:55:08.472
01:00:03.099                             : en:01:00:03.099
01:02:49.766                             : en:01:02:49.766
01:08:52.295                             : en:01:08:52.295
01:13:06.882                             : en:01:13:06.882
01:16:21.410                             : en:01:16:21.410
01:20:31.827                             : en:01:20:31.827
01:22:47.129                             : en:01:22:47.129
01:26:12.501                             : en:01:26:12.501
01:29:52.887                             : en:01:29:52.887
01:32:50.899                             : en:01:32:50.899
01:37:10.825                             : en:01:37:10.825
01:40:51.379                             : en:01:40:51.379
01:44:57.791                             : en:01:44:57.791
01:48:12.152                             : en:01:48:12.152
01:52:25.572                             : en:01:52:25.572
01:55:42.936                             : en:01:55:42.936
01:57:37.550                             : en:01:57:37.550
02:01:51.471                             : en:02:01:51.471
02:04:18.451                             : en:02:04:18.451
02:07:04.116                             : en:02:07:04.116
02:16:29.681                             : en:02:16:29.681
Матрица революция / The Matrix Revolutions

Год выпуска: 2003
Страна: США, Австралия
Слоган: «Все что имеет начало, имеет и конец»
Жанр: фантастика, боевик, приключения
Продолжительность: 02:09:15
Перевод: Профессиональный (полное дублирование)
Cубтитры: Russian, English
Режиссер: Энди Вачовски / Andy Wachowski, Лана Вачовски / Lana Wachowski
Сценарий: Энди Вачовски / Andy Wachowski, Лана Вачовски / Lana Wachowski
Продюсер: Брюс Берман / Bruce Berman, Грант Хилл / Grant Hill, Эндрю Мэйсон / Andrew Mason, Фил Устерхаус / Phil Oosterhouse, Вики Попплуэлл / Vicki Popplewell
Оператор: Билл Поуп / Bill Pope
Композитор: Дон Дэвис / Don Davis
В ролях: Киану Ривз (Neo,), Кэрри-Энн Мосс (Trinity), Лоренс Фишбёрн (Morpheus), Хьюго Уивинг (Agent Smith), Моника Беллуччи (Persephone), Брюс Спенс (Trainman), Джада Пинкетт Смит (Niobe), Хэролд Перрино (Link), Гарри Дж. Ленникс (Lock), Хельмут Бакайтис (The Architect), Мэри Элис (The Oracle), Танвир К. Атвал (Sati)
Роли дублировали: Всеволод Кузнецов (Neo), Елена Соловьева (Trinity), Владимир Вихров (Morpheus), Владимир Антоник (Agent Smith), Ольга Плетнева (Persephone), Рогволд Суховерко (Trainman), Денис Беспалый (Link), Алексей Рязанцев (Lock), Рудольф Панков (The Architect), Светлана Старикова (The Oracle), Игорь Тарадайкин (Bane), Александр Рахленко (Seraph)
Бюджет: $150 000 000
Маркетинг: $35 000 000
Сборы в США: $139 313 948
Сборы в России: $11 899 577
Сборы в мире: $424 988 211
Мировая премьера: 27 октября 2003
Релиз на DVD: 24 февраля 2011, «CP-Digital»
Релиз на Blu-ray: 10 февраля 2011, «CP-Digital»
Описание: Пока армия Машин пытается уничтожить Зион, его жители из последних сил держат оборону. Но удастся ли им предотвратить полное вторжение в город кишащей орды беспощадных машин до того, как Нео соберет все свои силы и положит конец войне?
Рейтинг:
kinopoisk.ru: 7.523 (36 762)
imdb.com: 6.50 (183 448)
MPAA: R - Лицам до 17 лет обязательно присутствие взрослого
Качество: BDRemux 1080p
Формат: MKV
Видео кодек: VC-1
Аудио кодек: DTS-HD, AC3
Видео: 1920x1080 (16:9); 16900 Kbps; 23,976 fps; 0,340 bpp
  • AC3; 48 kHz, 640 Kbps; CBR; 6 ch |Дубляж|
  • DTS-HD; 48 kHz, 2428|DTS Core: 1510 kbps; VBR; 6 ch; 16 bit |Профессиональный двухголосый закадровый, Гланц, Королёва|
  • DTS-HD; 48 kHz, 2428|DTS Core: 1510 kbps; VBR; 6 ch; 16 bit |Авторский одноголосый закадровый, А. Гаврилов|
  • DTS-HD; 48 kHz, 2430|DTS Core: 1510 kbps; VBR; 6 ch; 16 bit |Профессиональный многоголосый, закадровый|
  • English; DTS-HD; 48 kHz, 2427|DTS Core: 1510 kbps; VBR; 6 ch; 16 bit

  • Премьера фильма состоялась одновременно в крупнейших городах мирах: 5 ноября в 6:00 в Лос-Анджелесе (по местному времени), 9:00 в Нью-Йорке, 14:00 в Лондоне, 17:00 в Москве, 23:00 в Токио, в 1:00 в Сиднее, а также еще в 50 странах по всему миру.
  • Команде по спецэффектам потребовалось два месяца, чтобы разработать машины для имитации идеально-ровно падающих капель дождя.
  • Вдохновением для финальной схватки между Смитом и Нео создателям послужил финальный бой в «Спрятаться негде» (1999).
  • Улица, на которой Нео и Смит дерутся в концовке фильма, - это та же самая улица, с которой Нео звонил в концовке «Матрицы» (1999).
  • Когда Нео идет к Оракулу на заднем фоне играет «I'm Beginning to See the Light», та же самая композиция в другой версии играет в схожей сцене в «Матрице» (1999).
  • Оракул курит сигареты «Double Destiny».
  • Когда Тринити преследует Проводника, то можно заметить рекламу «Powerade». Когда «Матрица: Перезагрузка» появилась на экранах, в США вышли рекламные ролики «Powerade» в стиле «Матрицы».
  • Черный кот в концовке фильма – это тот же самый кот в дежа-вю сцене в «Матрице» (1999).
  • Во время финальной схватки между Нео и Смитом и во время финальных титров, повторяется санскритская слока в европейском стиле: «Asatoma Sat Gamaya, Tamasoma Jyotir Gamaya, Mrityorma Anritam Gamaya», - что при дословном переводе означает: «Веди меня из нереальности в реальность, веди меня из тьмы в свет, веди меня из временного в вечность».
  • Корабль, который упоминается, как «Молот», на самом деле называется «Мьёлльнир», по названию молота Тора (бога грома, бурь и плодородия в германско-скандинавской мифологии).
  • Йен Блисс получил роль в фильме частично из-за своего внешнего сходства с Хьюго Уивингом.
  • В фильме содержится 804 кадра со спецэффектами.
  • Название станции между Миром машин и Матрицей - Mobil Ave. Mobil – анаграмма от Limbo, что в переводе означает чистилище, место между раем и адом.
  • В финальной сцене фильма зритель впервые за всю трилогию видит зеленые цвета и голубое небо внутри Матрицы.
  • Многие «дождевые капли» в финальном бое между Нео и Смитом – это на самом деле однолинейный матричный код, схожий с тем, что видят герои на экранах компьютеров, когда наблюдают за Матрицей. Данный эффект был специально добавлен, чтобы показать, что Матрица начала дестабилизироваться. Эффект очень хорошо заметен на крупных экранах кинотеатров, но его также можно увидеть и на экранах домашних телевизоров: во время крупных планов обратите внимание на капли, «прыгающие» словно элетростатистические помехи.
  • Название музыкальной темы финального боя между Нео и Смитом – «Neodämmerung» - происходит из немецкого слова «Gotterdämmerung» (дословно «сумерки богов»). Это также название части оперы Вагнера «Кольцо Нибелунгов». В «Gotterdämmerung» речь шла о финальной битве между богами, которая привела к их уничтожению. Зная, что произойдет, боги сражались за выживание человечества. Название музтемы не только подходит под сюжетную составляющую сцены, но и также подчеркивает влияние музыки Вагнера на запись саундтрека фильма.

Код:

General
Unique ID                                : 254225493262538395093471409736674809088 (0xBF420C8BECEE1EA8858133BBC45D9500)
Complete name                            : The Matrix 1,2,3\The_Matrix_Revolutions_BD_remux\The Matrix Revolutions.mkv
Format                                   : Matroska
Format version                           : Version 2
File size                                : 21.9 GiB
Duration                                 : 2h 9mn
Overall bit rate mode                    : Variable
Overall bit rate                         : 24.2 Mbps
Encoded date                             : UTC 2011-01-15 15:18:06
Writing application                      : mkvmerge v3.3.0 ('Language') built on Mar 24 2010 14:59:24
Writing library                          : libebml v0.8.0 + libmatroska v0.9.0

Video
ID                                       : 1
Format                                   : VC-1
Format profile                           : AP@L3
Codec ID                                 : WVC1
Codec ID/Hint                            : Microsoft
Duration                                 : 2h 9mn
Bit rate                                 : 16.9 Mbps
Width                                    : 1 920 pixels
Height                                   : 1 080 pixels
Display aspect ratio                     : 16:9
Frame rate                               : 23.976 fps
Chroma subsampling                       : 4:2:0
Bit depth                                : 8 bits
Scan type                                : Progressive
Compression mode                         : Lossy
Bits/(Pixel*Frame)                       : 0.340
Stream size                              : 15.2 GiB (70%)
Default                                  : No
Forced                                   : No

Audio #1
ID                                       : 2
Format                                   : DTS
Format/Info                              : Digital Theater Systems
Format profile                           : MA / Core
Codec ID                                 : A_DTS
Duration                                 : 2h 9mn
Bit rate mode                            : Variable
Bit rate                                 : 1 561 Kbps / 1 510 Kbps
Channel(s)                               : 6 channels
Channel positions                        : Front: L C R, Side: L R, LFE
Sampling rate                            : 48.0 KHz
Bit depth                                : 16 bits
Compression mode                         : Lossless / Lossy
Title                                    : Glanz
Language                                 : Russian
Default                                  : Yes
Forced                                   : No

Audio #2
ID                                       : 3
Format                                   : DTS
Format/Info                              : Digital Theater Systems
Format profile                           : MA / Core
Codec ID                                 : A_DTS
Duration                                 : 2h 9mn
Bit rate mode                            : Variable
Bit rate                                 : 1 561 Kbps / 1 510 Kbps
Channel(s)                               : 6 channels
Channel positions                        : Front: L C R, Side: L R, LFE
Sampling rate                            : 48.0 KHz
Bit depth                                : 16 bits
Compression mode                         : Lossless / Lossy
Title                                    : Gavrilov
Language                                 : Russian
Default                                  : No
Forced                                   : No

Audio #3
ID                                       : 4
Format                                   : DTS
Format/Info                              : Digital Theater Systems
Format profile                           : MA / Core
Codec ID                                 : A_DTS
Duration                                 : 2h 9mn
Bit rate mode                            : Variable
Bit rate                                 : 1 561 Kbps / 1 510 Kbps
Channel(s)                               : 6 channels
Channel positions                        : Front: L C R, Side: L R, LFE
Sampling rate                            : 48.0 KHz
Bit depth                                : 16 bits
Compression mode                         : Lossless / Lossy
Title                                    : MVO
Language                                 : Russian
Default                                  : No
Forced                                   : No

Audio #4
ID                                       : 5
Format                                   : AC-3
Format/Info                              : Audio Coding 3
Mode extension                           : CM (complete main)
Codec ID                                 : A_AC3
Duration                                 : 2h 9mn
Bit rate mode                            : Constant
Bit rate                                 : 640 Kbps
Channel(s)                               : 6 channels
Channel positions                        : Front: L C R, Side: L R, LFE
Sampling rate                            : 48.0 KHz
Bit depth                                : 16 bits
Compression mode                         : Lossy
Stream size                              : 592 MiB (3%)
Title                                    : Dubbing
Language                                 : Russian
Default                                  : No
Forced                                   : No

Audio #5
ID                                       : 6
Format                                   : DTS
Format/Info                              : Digital Theater Systems
Format profile                           : MA / Core
Codec ID                                 : A_DTS
Duration                                 : 2h 9mn
Bit rate mode                            : Variable
Bit rate                                 : 1 561 Kbps / 1 510 Kbps
Channel(s)                               : 6 channels
Channel positions                        : Front: L C R, Side: L R, LFE
Sampling rate                            : 48.0 KHz
Bit depth                                : 16 bits
Compression mode                         : Lossless / Lossy
Title                                    : Original
Language                                 : English
Default                                  : No
Forced                                   : No

Text #1
ID                                       : 7
Format                                   : UTF-8
Codec ID                                 : S_TEXT/UTF8
Codec ID/Info                            : UTF-8 Plain Text
Language                                 : Russian
Default                                  : Yes
Forced                                   : No

Text #2
ID                                       : 8
Format                                   : UTF-8
Codec ID                                 : S_TEXT/UTF8
Codec ID/Info                            : UTF-8 Plain Text
Language                                 : English
Default                                  : No
Forced                                   : No

Menu
00:00:00.000                             : en:00:00:00.000
00:03:55.402                             : en:00:03:55.402
00:07:33.119                             : en:00:07:33.119
00:10:19.953                             : en:00:10:19.953
00:14:44.383                             : en:00:14:44.383
00:17:58.744                             : en:00:17:58.744
00:23:33.245                             : en:00:23:33.245
00:30:06.304                             : en:00:30:06.304
00:35:35.633                             : en:00:35:35.633
00:39:34.205                             : en:00:39:34.205
00:42:58.910                             : en:00:42:58.910
00:46:43.300                             : en:00:46:43.300
00:49:02.606                             : en:00:49:02.606
00:51:53.610                             : en:00:51:53.610
00:58:00.644                             : en:00:58:00.644
01:00:19.115                             : en:01:00:19.115
01:02:29.746                             : en:01:02:29.746
01:08:00.910                             : en:01:08:00.910
01:10:29.225                             : en:01:10:29.225
01:14:33.803                             : en:01:14:33.803
01:18:23.365                             : en:01:18:23.365
01:23:08.984                             : en:01:23:08.984
01:25:55.817                             : en:01:25:55.817
01:29:13.348                             : en:01:29:13.348
01:31:51.673                             : en:01:31:51.673
01:36:51.472                             : en:01:36:51.472
01:41:55.276                             : en:01:41:55.276
01:44:53.120                             : en:01:44:53.120
01:48:06.647                             : en:01:48:06.647
01:51:30.851                             : en:01:51:30.851
01:55:05.899                             : en:01:55:05.899
01:57:31.211                             : en:01:57:31.211
02:00:12.372                             : en:02:00:12.372

info [Профиль]  [ЛС] 

FuriouSAngeL

Пол: Пол:Муж

Стаж: 5 лет 5 месяцев

Сообщений: 1830

Германия
Рейтинг

post 15-Апр-2012 19:37 (спустя 35 минут) [-]11[+]

[Цитировать] 

Однозначно, одна из Лучших трилогий, снятых когда-либо людьми kolob_123

_________________
info [Профиль]  [ЛС] 

Driver

Пол: Пол:Муж

Стаж: 6 лет 2 месяца

Сообщений: 2259

Россия
Рейтинг

post 15-Апр-2012 19:40 (спустя 2 минуты) [-]3[+]

[Цитировать] 

Хороший повод пересмотреть трилогию по новой, спасибо Подмигиваю

_________________
PS3 Slim 320Gb (Rogero CFW 4.30 2.00) | Xbox360 Arcade 250 Gb LT+2.0 | Win 7 Ultimate x64 SP-1|Intel Core i5 750 (3.8GHz)|ASUS P7P55D-E PRO|4x2 Гб DDR3-1333 DDR3 SDRAM OCZ|GigaByte GeForce GTX 670 2048MB (320.49 WHQL)|5.5Tb+4.5Tb external|Thermaltake Element V|FSP Epsilon 800W Hi-Fi:Quadral Quintas 6000 5.0 Black + Yamaha RX-v571 Black + Dune HD Duo + 3D LED Samsung UE46 ES8000S
info [Профиль]  [ЛС] 

saha22

Стаж: 6 лет 3 месяца

Сообщений: 189

Предупреждений: 1

Израиль
Рейтинг

post 15-Апр-2012 20:00 (спустя 20 минут) [-]2[+]

[Цитировать] 

Цитата:

Лана Вачовски / Lana Wachowski
anime_4 anime_26 anime_49 anime_77

_________________
info [Профиль]  [ЛС] 

DeNiSKa

Пол: Пол:Муж

Стаж: 6 лет 2 месяца

Сообщений: 833

Россия
Рейтинг

post 15-Апр-2012 20:06 (спустя 6 минут) [-]0[+]

[Цитировать] 

спасибо,не успел в свое время я посмотреть,будем приобщаться...
info [Профиль]  [ЛС] 

Dr1nk

Стаж: 5 лет 5 месяцев

Сообщений: 7

Рейтинг

post 15-Апр-2012 20:20 (спустя 13 минут) [-]0[+]

[Цитировать] 

Самый любимый фильм Сердце Раз 10 смотрел его и буду смотреть!
info [Профиль]  [ЛС] 

Ristarchik

Пол: Пол:Муж

Стаж: 5 лет 5 месяцев

Сообщений: 400

Россия
Рейтинг

post 15-Апр-2012 20:41 (спустя 20 минут) [-]0[+]

[Цитировать] 

можно ещё раз пересмотреть, и снова, и снова... фантастика и мистика переплетены очень удачно... а главное - сюжет!

_________________
Всё, что вы видите, может быть неправдой! Даже если вы сплюнете три раза через правое плечо!!
Моя скромная раздачка
Мой M A L (MyAnimeList)
info [Профиль]  [ЛС] 

Danzel87

Пол: Пол:Муж

Стаж: 4 года 10 месяцев

Сообщений: 87

Предупреждений: 1

Россия
Рейтинг

post 15-Апр-2012 23:24 (спустя 2 часа 43 минуты) [-]0[+]

[Цитировать] 

Спасибо!!!

_________________
PlayStation 3 Slim 160Gb (CFW 4.78 Habib)
Xbox 360 Slim 250Gb (Freeboot 17502)
Intel Core i7 2600k, SLI GeForce GTX 780 Ti, DDR3 4x4096 Мб(16 Гб), HDD 2Тб + 2Тб + 2Тб, P8P67 EVO(B3), Windows 10, Acer HN274HBbmiiid 3D (1920x1080@120Hz)
info [Профиль]  [ЛС] 

KitoBoyRus

Стаж: 5 лет 5 месяцев

Сообщений: 62

Россия
Рейтинг

post 16-Апр-2012 11:06 (спустя 11 часов) [-]0[+]

[Цитировать] 

Лучше бы эти фильмы в 3d переделали,чем титаники с королями львов...
info [Профиль]  [ЛС] 

Ka1n21

Пол: Пол:Муж

Стаж: 3 года 9 месяцев

Сообщений: 4

Рейтинг

post 02-Июл-2013 19:44 (спустя 1 год 2 месяца) [-]1[+]

[Цитировать] 

встаньте на раздачу

добавлено спустя 8 часов 25 секунд:

встаньте на раздачу. третий день качаю(
info [Профиль]  [ЛС] 

Штайн

Пол: Пол:Муж

Стаж: 6 лет 11 месяцев

Сообщений: 40

Россия
Рейтинг

post 01-Ноя-2014 15:08 (спустя 1 год 3 месяца) [-]0[+]

[Цитировать] 

Спасибо огромное, то что я и искал )))

_________________
info [Профиль]  [ЛС] 

Pasha72

Пол: Пол:Муж

Стаж: 3 года 6 месяцев

Сообщений: 3

Россия
Рейтинг

post 05-Янв-2015 17:45 (спустя 2 месяца 4 дня) [-]0[+]

[Цитировать] 

встаньте на раздачу! Улыбаюсь
info [Профиль]  [ЛС] 
Показать сообщения:    
Ответить на тему

Текущее время: 03-Дек 08:43

Часовой пояс: GMT + 4



Вы не можете начинать темы
Вы не можете отвечать на сообщения
Вы не можете редактировать свои сообщения
Вы не можете удалять свои сообщения
Вы не можете голосовать в опросах
Вы не можете прикреплять файлы к сообщениям
Вы не можете скачивать файлы