Ошибка
Загрузка...

(NewAge & Meditative) Deuter - Terra Magica Planet Of Light - 1995, FLAC (tracks+.cue)+cover, lossless

Ответить на тему
 
Автор Сообщение

simed

Пол: Пол:Муж

Стаж: 5 лет 7 месяцев

Сообщений: 2

Украина
Рейтинг

post 12-Апр-2012 16:32 1[+]

[Цитировать] 

Deuter - Terra Magica Planet Of Light


pic="http://s002.youpic.su/pictures/1334174400/a1809c55b4206e4ffcb57595c8e2a8e6.jpg"


Жанр: NewAge & Meditative
Год издания данного носителя: 1995
Страна-производитель носителя: USA
Лейбл: Higher Octave
Каталоговый номер: HOMCD 7075
Аудио кодек: FLAC
Тип рипа: tracks+.cue
Битрейт аудио: lossless
Продолжительность: 1:03:18
Источник (релизер): Собственный рип с оригинального диска
Полиграфия: Присутствует
Треклист:

01. Flowers of the Amazon
02. Tree of Light
03. Afrique
04. Heaven And Earth
05. Chi
06. Night in Ubud
07. Grey Wolf
08. Magic Island
09. Shen
10. City of Light
Exact Audio Copy V1.0 beta 3 from 29. August 2011 

EAC extraction logfile from 10. April 2012, 23:29

Deuter / Terra Magica - Planet of Light

Used drive : Optiarc DVD RW AD-7260S Adapter: 6 ID: 0

Read mode : Secure
Utilize accurate stream : Yes
Defeat audio cache : Yes
Make use of C2 pointers : No

Read offset correction : 48
Overread into Lead-In and Lead-Out : No
Fill up missing offset samples with silence : Yes
Delete leading and trailing silent blocks : No
Null samples used in CRC calculations : Yes
Used interface : Native Win32 interface for Win NT & 2000
Gap handling : Appended to previous track

Used output format : User Defined Encoder
Selected bitrate : 1024 kBit/s
Quality : High
Add ID3 tag : Yes
Command line compressor : C:Program Files (x86)Exact Audio CopyFlacflac.exe
Additional command line options : -V -8 -T "Genre=%genre%" -T "Artist=%artist%" -T "Title=%title%" -T "Album=%albumtitle%" -T "Date=%year%" -T "Tracknumber=%tracknr%" -T "Comment=%comment%" %source%

TOC of the extracted CD

Track | Start | Length | Start sector | End sector
---------------------------------------------------------
1 | 0:00.00 | 3:31.65 | 0 | 15889
2 | 3:31.65 | 8:11.25 | 15890 | 52739
3 | 11:43.15 | 7:24.70 | 52740 | 86109
4 | 19:08.10 | 6:51.55 | 86110 | 116989
5 | 25:59.65 | 6:25.57 | 116990 | 145921
6 | 32:25.47 | 7:39.58 | 145922 | 180404
7 | 40:05.30 | 8:08.50 | 180405 | 217054
8 | 48:14.05 | 5:02.45 | 217055 | 239749
9 | 53:16.50 | 4:39.22 | 239750 | 260696
10 | 57:55.72 | 6:17.68 | 260697 | 289039

Track 1

Filename D:TorrentOutNew AgeLosslessDeuter�01 Terra Magica - Planet of Light - OptiarcDeuter - Terra Magica - Planet of Light�1 Flowers of the Amazon.wav

Pre-gap length 0:00:02.00

Peak level 89.3 %
Extraction speed 2.4 X
Track quality 100.0 %
Test CRC B11E04A7
Copy CRC B11E04A7
Accurately ripped (confidence 2) [1BCE4C0F] (AR v1)
Copy OK

Track 2

Filename D:TorrentOutNew AgeLosslessDeuter�01 Terra Magica - Planet of Light - OptiarcDeuter - Terra Magica - Planet of Light�2 Tree of Light.wav

Peak level 90.7 %
Extraction speed 2.8 X
Track quality 99.9 %
Test CRC B74CCEBD
Copy CRC B74CCEBD
Accurately ripped (confidence 2) [D90C99EB] (AR v1)
Copy OK

Track 3

Filename D:TorrentOutNew AgeLosslessDeuter�01 Terra Magica - Planet of Light - OptiarcDeuter - Terra Magica - Planet of Light�3 Afrique.wav

Pre-gap length 0:00:00.01

Peak level 83.4 %
Extraction speed 3.4 X
Track quality 100.0 %
Test CRC EA7F425F
Copy CRC EA7F425F
Accurately ripped (confidence 2) [A8AD521E] (AR v1)
Copy OK

Track 4

Filename D:TorrentOutNew AgeLosslessDeuter�01 Terra Magica - Planet of Light - OptiarcDeuter - Terra Magica - Planet of Light�4 Heaven And Earth.wav

Pre-gap length 0:00:00.01

Peak level 82.3 %
Extraction speed 3.8 X
Track quality 100.0 %
Test CRC DF60231B
Copy CRC DF60231B
Accurately ripped (confidence 2) [9EB545C4] (AR v1)
Copy OK

Track 5

Filename D:TorrentOutNew AgeLosslessDeuter�01 Terra Magica - Planet of Light - OptiarcDeuter - Terra Magica - Planet of Light�5 Chi.wav

Pre-gap length 0:00:00.01

Peak level 99.8 %
Extraction speed 3.7 X
Track quality 99.9 %
Test CRC E65E42D8
Copy CRC E65E42D8
Accurately ripped (confidence 2) [49F53355] (AR v1)
Copy OK

Track 6

Filename D:TorrentOutNew AgeLosslessDeuter�01 Terra Magica - Planet of Light - OptiarcDeuter - Terra Magica - Planet of Light�6 Night in Ubud.wav

Pre-gap length 0:00:00.01

Peak level 76.4 %
Extraction speed 4.1 X
Track quality 99.9 %
Test CRC 6462C837
Copy CRC 6462C837
Accurately ripped (confidence 2) [14E3F5D3] (AR v1)
Copy OK

Track 7

Filename D:TorrentOutNew AgeLosslessDeuter�01 Terra Magica - Planet of Light - OptiarcDeuter - Terra Magica - Planet of Light�7 Grey Wolf.wav

Pre-gap length 0:00:00.01

Peak level 76.6 %
Extraction speed 4.4 X
Track quality 99.9 %
Test CRC 73009A45
Copy CRC 73009A45
Accurately ripped (confidence 2) [365E6604] (AR v1)
Copy OK

Track 8

Filename D:TorrentOutNew AgeLosslessDeuter�01 Terra Magica - Planet of Light - OptiarcDeuter - Terra Magica - Planet of Light�8 Magic Island.wav

Pre-gap length 0:00:00.01

Peak level 42.9 %
Extraction speed 4.8 X
Track quality 100.0 %
Test CRC F2BCE7B2
Copy CRC F2BCE7B2
Accurately ripped (confidence 2) [4E88B384] (AR v1)
Copy OK

Track 9

Filename D:TorrentOutNew AgeLosslessDeuter�01 Terra Magica - Planet of Light - OptiarcDeuter - Terra Magica - Planet of Light�9 Shen.wav

Pre-gap length 0:00:00.01

Peak level 70.8 %
Extraction speed 4.9 X
Track quality 100.0 %
Test CRC C57CD657
Copy CRC C57CD657
Accurately ripped (confidence 2) [840F6562] (AR v1)
Copy OK

Track 10

Filename D:TorrentOutNew AgeLosslessDeuter�01 Terra Magica - Planet of Light - OptiarcDeuter - Terra Magica - Planet of Light10 City of Light.wav

Pre-gap length 0:00:00.01

Peak level 92.8 %
Extraction speed 5.3 X
Track quality 100.0 %
Test CRC F4761EFC
Copy CRC F4761EFC
Accurately ripped (confidence 2) [F263E53A] (AR v1)
Copy OK

All tracks accurately ripped

No errors occurred

End of status report

==== Log checksum CCCD19ECBAD110E6BE1AA079CAD81EC72551C72628A03DF1D2659539DB60118D ====
PERFORMER "Deuter" 
TITLE "Terra Magica - Planet of Light"
FILE "01 Flowers of the Amazon.wav" WAVE
TRACK 01 AUDIO
TITLE "Flowers of the Amazon"
PERFORMER "Deuter"
INDEX 01 00:00:00
FILE "02 Tree of Light.wav" WAVE
TRACK 02 AUDIO
TITLE "Tree of Light"
PERFORMER "Deuter"
INDEX 01 00:00:00
TRACK 03 AUDIO
TITLE "Afrique"
PERFORMER "Deuter"
INDEX 00 08:11:24
FILE "03 Afrique.wav" WAVE
INDEX 01 00:00:00
TRACK 04 AUDIO
TITLE "Heaven And Earth"
PERFORMER "Deuter"
INDEX 00 07:24:69
FILE "04 Heaven And Earth.wav" WAVE
INDEX 01 00:00:00
TRACK 05 AUDIO
TITLE "Chi"
PERFORMER "Deuter"
INDEX 00 06:51:54
FILE "05 Chi.wav" WAVE
INDEX 01 00:00:00
TRACK 06 AUDIO
TITLE "Night in Ubud"
PERFORMER "Deuter"
INDEX 00 06:25:56
FILE "06 Night in Ubud.wav" WAVE
INDEX 01 00:00:00
TRACK 07 AUDIO
TITLE "Grey Wolf"
PERFORMER "Deuter"
INDEX 00 07:39:57
FILE "07 Grey Wolf.wav" WAVE
INDEX 01 00:00:00
TRACK 08 AUDIO
TITLE "Magic Island"
PERFORMER "Deuter"
INDEX 00 08:08:49
FILE "08 Magic Island.wav" WAVE
INDEX 01 00:00:00
TRACK 09 AUDIO
TITLE "Shen"
PERFORMER "Deuter"
INDEX 00 05:02:44
FILE "09 Shen.wav" WAVE
INDEX 01 00:00:00
TRACK 10 AUDIO
TITLE "City of Light"
PERFORMER "Deuter"
INDEX 00 04:39:21
FILE "10 City of Light.wav" WAVE
INDEX 01 00:00:00
info [Профиль]  [ЛС] 

volhoff

Пол: Пол:Муж

Стаж: 5 лет

Сообщений: 33

Россия
Рейтинг

post 20-Апр-2017 11:47 (спустя 5 лет) [-]0[+]

[Цитировать] 

раздайте плз

_________________
Три слоя лени над уровнем жизни.
info [Профиль]  [ЛС] 
Показать сообщения:    
Ответить на тему

Текущее время: 22-Окт 08:23

Часовой пояс: GMT + 4



Вы не можете начинать темы
Вы не можете отвечать на сообщения
Вы не можете редактировать свои сообщения
Вы не можете удалять свои сообщения
Вы не можете голосовать в опросах
Вы не можете прикреплять файлы к сообщениям
Вы не можете скачивать файлы