Ошибка

Свидание с Крымом (Павел Литвинов) [2008 г., Документальный, Путешествие, Туризм, DVDRip]

Ответить на тему
 
Автор Сообщение

mir978

Пол: Пол:Муж

Стаж: 4 года 9 месяцев

Сообщений: 213

Украина
Рейтинг

post 12-Апр-2012 12:36 1[+]

[Цитировать] 

Свидание с Крымом


Год выпуска: 2008
Страна: Украина
Студия: Союз "сталкер", г. Судак
Жанр: Документальный, Путешествие, Туризм
Продолжительность: 02:38:48
Перевод: Не требуется (Язык комментариев )
Текст: Игорь Шматко
Продюсер:
  • Павел Литвинов
Операторы:
  • Макс Перебенов, Павел Литвинов, Дмитрий Труш

Описание: Свидание с Крымом - это более 50-ти экскурсионных объектов:
Симферополь, Неаполь Скифский, Долина Привидений, Алушта, Утёс, Карасан, Партенит, Аю-Даг.
Артек, Гурзуф, Никитский сад, Ялта, Воронцовский дворец, Ай-Петри, Водопад “Учан-Су”,
Массандровский дворец, Ливадия, Ласточкино гнездо, Симеиз, Кацивели, Форос, Байдарские ворота, Ласпи.
Севастополь, Херсонес, Балаклава, Инкерман.
Саки, Евпатория, Черноморское, Мыс “Тарханкут”, “Джангуль”
Мангуп-Кале, Бахчисарай, Успенский монастырь, Чуфут-Кале, Большой Каньон
Восточный Крым, водопад “Джур-Джур"
Судак, Новый Свет, Солнечная долина
Карадаг, Коктебель, Феодосия
Керчь, Крепость “Эни-Кале”, крепость “Керчь”
Азов, Арабатская крепость

Качество: DVDRip
Формат: AVI
Видео кодек: XviD
Аудио кодек: AC3
Видео: 704x416 25.00fps 1641kbps
Аудио: AC3 48000Hz 2ch 192kbps


General
Complete name : D:\Фильмы\Svidanie.s.Krymom.2008.DVDRip.avi
Format : AVI
Format/Info : Audio Video Interleave
Format profile : OpenDML
File size : 2.05 GiB
Duration : 2h 38mn
Overall bit rate : 1 847 Kbps
Writing library : VirtualDubMod build 2550/release

Video
ID : 0
Format : MPEG-4 Visual
Format profile : Advanced Simple@L5
Format settings, BVOP : 2
Format settings, QPel : No
Format settings, GMC : No warppoints
Format settings, Matrix : Default (MPEG)
Codec ID : XVID
Codec ID/Hint : XviD
Duration : 2h 38mn
Bit rate : 1 642 Kbps
Width : 704 pixels
Height : 416 pixels
Display aspect ratio : 1.692
Frame rate : 25.000 fps
Color space : YUV
Chroma subsampling : 4:2:0
Bit depth : 8 bits
Scan type : Progressive
Compression mode : Lossy
Bits/(Pixel*Frame) : 0.224
Stream size : 1.82 GiB (89%)
Writing library : XviD 1.2.1 (UTC 2008-12-04)

Audio
ID : 1
Format : AC-3
Format/Info : Audio Coding 3
Mode extension : CM (complete main)
Codec ID : 2000
Duration : 2h 38mn
Bit rate mode : Constant
Bit rate : 192 Kbps
Channel(s) : 2 channels
Channel positions : Front: L R
Sampling rate : 48.0 KHz
Bit depth : 16 bits
Compression mode : Lossy
Stream size : 218 MiB (10%)
Alignment : Split accross interleaves
Interleave, duration : 40 ms (1.00 video frame)
Interleave, preload duration : 500 ms
info [Профиль]  [ЛС] 
Показать сообщения:    
Ответить на тему

Текущее время: 03-Дек 08:39

Часовой пояс: GMT + 4



Вы не можете начинать темы
Вы не можете отвечать на сообщения
Вы не можете редактировать свои сообщения
Вы не можете удалять свои сообщения
Вы не можете голосовать в опросах
Вы не можете прикреплять файлы к сообщениям
Вы не можете скачивать файлы