Ошибка

(Rap) Tech N9ne - Klusterfuk [EP], 2012, FLAC (tracks+ .cue), lossless

Ответить на тему
 
Автор Сообщение

Raxent

Пол: Пол:Муж

Стаж: 6 лет 11 месяцев

Сообщений: 219

Рейтинг

post 11-Апр-2012 14:05 6[+]

[Цитировать] 

Tech N9ne - Klusterfuk [EP]

Год: 2012
Жанр: Rap
Страна: США
Аудиокодека: FLAC
Тип рипа: tracks + .cue
Битрейт: lossless
Продолжительность: 00:23:29
Источник: what.cd (T3)
Трэклист:
01. Tech N9ne - Klusterfuk [00:04:15]
02. Tech N9ne - Blur [00:04:40]
03. Tech N9ne - Can't Stand Me [00:02:44]
04. Tech N9ne - Ugly Duckling [00:04:36]
05. Tech N9ne - Awkward [00:03:29]
06. Tech N9ne - Dkny [00:03:43]


Код:

Exact Audio Copy V1.0 beta 3 from 29. August 2011

EAC extraction logfile from 12. March 2012, 18:17

Tech N9ne / Klusterfuk

Used drive  : ATAPI   iHBS212   2   Adapter: 1  ID: 0

Read mode               : Secure
Utilize accurate stream : Yes
Defeat audio cache      : Yes
Make use of C2 pointers : No

Read offset correction                      : 6
Overread into Lead-In and Lead-Out          : No
Fill up missing offset samples with silence : Yes
Delete leading and trailing silent blocks   : No
Null samples used in CRC calculations       : Yes
Used interface                              : Native Win32 interface for Win NT & 2000
Gap handling                                : Appended to previous track

Used output format              : User Defined Encoder
Selected bitrate                : 1024 kBit/s
Quality                         : High
Add ID3 tag                     : No
Command line compressor         : C:\Program Files (x86)\Exact Audio Copy\Flac\flac.exe
Additional command line options : -8 -V -T "ARTIST=%artist%" -T "TITLE=%title%" -T "ALBUM=%albumtitle%" -T "DATE=%year%" -T "TRACKNUMBER=%tracknr%" -T "GENRE=%genre%" -T "PERFORMER=%albuminterpret%" -T "COMPOSER=%composer%" %haslyrics%--tag-from-file=LYRICS="%lyricsfile%"%haslyrics% -T "ALBUMARTIST=%albumartist%" -T "DISCNUMBER=%cdnumber%" -T "TOTALDISCS=%totalcds%" -T "TOTALTRACKS=%numtracks%" -T "COMMENT=%comment%" %source% -o %dest%

TOC of the extracted CD

     Track |   Start  |  Length  | Start sector | End sector
    ---------------------------------------------------------
        1  |  0:00.00 |  4:15.00 |         0    |    19124
        2  |  4:15.00 |  4:40.33 |     19125    |    40157
        3  |  8:55.33 |  2:44.56 |     40158    |    52513
        4  | 11:40.14 |  4:36.19 |     52514    |    73232
        5  | 16:16.33 |  3:29.55 |     73233    |    88962
        6  | 19:46.13 |  3:43.62 |     88963    |   105749

Track  1

     Filename D:\EAC FLAC Rips\Tech N9ne - Klusterfuk EP (2012) [FLAC]\01 - - Klusterfuk.wav

     Pre-gap length  0:00:02.00

     Peak level 99.7 %
     Extraction speed 1.9 X
     Track quality 100.0 %
     Test CRC B75DA83A
     Copy CRC B75DA83A
     Track not present in AccurateRip database
     Copy OK

Track  2

     Filename D:\EAC FLAC Rips\Tech N9ne - Klusterfuk EP (2012) [FLAC]\02 - - Blur.wav

     Peak level 99.7 %
     Extraction speed 2.2 X
     Track quality 100.0 %
     Test CRC 421D37BA
     Copy CRC 421D37BA
     Track not present in AccurateRip database
     Copy OK

Track  3

     Filename D:\EAC FLAC Rips\Tech N9ne - Klusterfuk EP (2012) [FLAC]\03 - - Can't Stand Me.wav

     Peak level 99.7 %
     Extraction speed 2.2 X
     Track quality 100.0 %
     Test CRC 3CC9B055
     Copy CRC 3CC9B055
     Track not present in AccurateRip database
     Copy OK

Track  4

     Filename D:\EAC FLAC Rips\Tech N9ne - Klusterfuk EP (2012) [FLAC]\04 - - Ugly Duckling.wav

     Peak level 99.7 %
     Extraction speed 2.6 X
     Track quality 100.0 %
     Test CRC 6A15857C
     Copy CRC 6A15857C
     Track not present in AccurateRip database
     Copy OK

Track  5

     Filename D:\EAC FLAC Rips\Tech N9ne - Klusterfuk EP (2012) [FLAC]\05 - - Awkward.wav

     Peak level 99.7 %
     Extraction speed 2.6 X
     Track quality 100.0 %
     Test CRC 6EC2ACFA
     Copy CRC 6EC2ACFA
     Track not present in AccurateRip database
     Copy OK

Track  6

     Filename D:\EAC FLAC Rips\Tech N9ne - Klusterfuk EP (2012) [FLAC]\06 - - Dkny.wav

     Peak level 100.0 %
     Extraction speed 2.8 X
     Track quality 100.0 %
     Test CRC 0FA7E9AA
     Copy CRC 0FA7E9AA
     Track not present in AccurateRip database
     Copy OK

None of the tracks are present in the AccurateRip database

No errors occurred

End of status report

---- CUETools DB Plugin V2.1.3

[CTDB TOCID: XJGUEsHQI20rCCmdKlkQcG2M04o-] disk not present in database, Submit result: XJGUEsHQI20rCCmdKlkQcG2M04o- has been uploaded

==== Log checksum 926EC78806BF02BCB4E6833CBDA92E51B33E461CB4473D0939E339BBC2200E14 ====

Код:

REM GENRE Rap
REM DATE 2012
REM DISCID 52058206
REM COMMENT "ExactAudioCopy v1.0b3"
PERFORMER "Tech N9ne"
TITLE "Klusterfuk"
FILE "01 - - Klusterfuk.wav" WAVE
  TRACK 01 AUDIO
    TITLE "Klusterfuk"
    PERFORMER " "
    ISRC USZXT1200781
    INDEX 01 00:00:00
FILE "02 - - Blur.wav" WAVE
  TRACK 02 AUDIO
    TITLE "Blur"
    PERFORMER " "
    ISRC USZXT1200782
    INDEX 01 00:00:00
FILE "03 - - Can't Stand Me.wav" WAVE
  TRACK 03 AUDIO
    TITLE "Can't Stand Me"
    PERFORMER " "
    ISRC USZXT1200792
    INDEX 01 00:00:00
FILE "04 - - Ugly Duckling.wav" WAVE
  TRACK 04 AUDIO
    TITLE "Ugly Duckling"
    PERFORMER " "
    ISRC USZXT1200793
    INDEX 01 00:00:00
FILE "05 - - Awkward.wav" WAVE
  TRACK 05 AUDIO
    TITLE "Awkward"
    PERFORMER " "
    ISRC USZXT1200794
    INDEX 01 00:00:00
FILE "06 - - Dkny.wav" WAVE
  TRACK 06 AUDIO
    TITLE "Dkny"
    PERFORMER " "
    ISRC USZXT1200795
    INDEX 01 00:00:00


info [Профиль]  [ЛС] 

post 11-Апр-2012 14:05 (спустя 32 секунды) [-]0[+]

Топик был перенесен из форума Оформление раздач в форум Зарубежный Rap, Hip-Hop, R'n'B (lossless)

saGambit
 
Показать сообщения:    
Ответить на тему

Текущее время: 07-Дек 22:19

Часовой пояс: GMT + 4



Вы не можете начинать темы
Вы не можете отвечать на сообщения
Вы не можете редактировать свои сообщения
Вы не можете удалять свои сообщения
Вы не можете голосовать в опросах
Вы не можете прикреплять файлы к сообщениям
Вы не можете скачивать файлы