Ошибка

(Hip-Hop) Chamillionaire - Ammunition [EP], 2012, FLAC (tracks+.cue), lossless

Ответить на тему
 
Автор Сообщение

Raxent

Пол: Пол:Муж

Стаж: 6 лет 11 месяцев

Сообщений: 219

Рейтинг

post 11-Апр-2012 13:56 6[+]

[Цитировать] 

Chamillionaire - Ammunition [EP]

Год: 2012
Жанр: Hip-Hop
Страна: США
Аудиокодек: FLAC
Тип рипа: tracks+.cue
Битрейт: lossless
Продолжительность: 00:33:17
Источник: what.cd (trick)
Трэклист:
01. Chamillionaire - Your Connect [00:01:17]
02. Chamillionaire - Running Laps [00:04:35]
03. Chamillionaire - You Gon Learn feat. Saigon (Early Service) [00:04:18]
04. Chamillionaire - All Mine [00:03:26]
05. Chamillionaire - On My Way feat. Lee Lonn [00:04:39]
06. Chamillionaire - Lets Get That [00:03:41]
07. Chamillionaire - Wont Change feat. Tami Latrell [00:04:24]
08. Chamillionaire - You Gon Learn (Late Service) [00:02:38]
09. Chamillionaire - Never Enough feat. Angel [00:04:14]


Код:

Exact Audio Copy V1.0 beta 1 from 15. November 2010

EAC extraction logfile from 2. April 2012, 20:42

Chamillionaire / Ammunition

Used drive  : PIONEER DVD-RW  DVR-110D   Adapter: 0  ID: 0

Read mode               : Secure
Utilize accurate stream : Yes
Defeat audio cache      : Yes
Make use of C2 pointers : No

Read offset correction                      : 48
Overread into Lead-In and Lead-Out          : No
Fill up missing offset samples with silence : Yes
Delete leading and trailing silent blocks   : No
Null samples used in CRC calculations       : Yes
Used interface                              : Native Win32 interface for Win NT & 2000
Gap handling                                : Appended to previous track

Used output format              : User Defined Encoder
Selected bitrate                : 320 kBit/s
Quality                         : High
Add ID3 tag                     : No
Command line compressor         : C:\Program Files\Exact Audio Copy\Flac\flac.exe
Additional command line options : -V -8 -T "artist=%a" -T "title=%t" -T "album=%g" -T "date=%y" -T "tracknumber=%n" -T "genre=%m" %s

TOC of the extracted CD

     Track |   Start  |  Length  | Start sector | End sector
    ---------------------------------------------------------
        1  |  0:00.00 |  1:17.53 |         0    |     5827
        2  |  1:17.53 |  4:35.60 |      5828    |    26512
        3  |  5:53.38 |  4:18.30 |     26513    |    45892
        4  | 10:11.68 |  3:26.24 |     45893    |    61366
        5  | 13:38.17 |  4:39.73 |     61367    |    82364
        6  | 18:18.15 |  3:41.23 |     82365    |    98962
        7  | 21:59.38 |  4:24.30 |     98963    |   118792
        8  | 26:23.68 |  2:38.74 |    118793    |   130716
        9  | 29:02.67 |  4:14.45 |    130717    |   149811

Track  1

     Filename C:\EAC Rips\Chamillionaire - 2012 - Ammunition\01 - Your Connect.wav

     Pre-gap length  0:00:02.00

     Peak level 98.1 %
     Extraction speed 2.7 X
     Track quality 99.8 %
     Test CRC FE9C2AD1
     Copy CRC FE9C2AD1
     Track not present in AccurateRip database
     Copy OK

Track  2

     Filename C:\EAC Rips\Chamillionaire - 2012 - Ammunition\02 - Running Laps.wav

     Peak level 98.2 %
     Extraction speed 5.1 X
     Track quality 100.0 %
     Test CRC 01B5BF69
     Copy CRC 01B5BF69
     Track not present in AccurateRip database
     Copy OK

Track  3

     Filename C:\EAC Rips\Chamillionaire - 2012 - Ammunition\03 - You Gon Learn feat. Saigon (Early Service).wav

     Peak level 98.2 %
     Extraction speed 5.5 X
     Track quality 100.0 %
     Test CRC 343A1A6E
     Copy CRC 343A1A6E
     Track not present in AccurateRip database
     Copy OK

Track  4

     Filename C:\EAC Rips\Chamillionaire - 2012 - Ammunition\04 - All Mine.wav

     Peak level 98.0 %
     Extraction speed 5.7 X
     Track quality 100.0 %
     Test CRC F8E95135
     Copy CRC F8E95135
     Track not present in AccurateRip database
     Copy OK

Track  5

     Filename C:\EAC Rips\Chamillionaire - 2012 - Ammunition\05 - On My Way feat. Lee Lonn.wav

     Peak level 98.1 %
     Extraction speed 6.3 X
     Track quality 100.0 %
     Test CRC B85A5017
     Copy CRC B85A5017
     Track not present in AccurateRip database
     Copy OK

Track  6

     Filename C:\EAC Rips\Chamillionaire - 2012 - Ammunition\06 - Lets Get That.wav

     Peak level 97.8 %
     Extraction speed 6.4 X
     Track quality 100.0 %
     Test CRC BED69371
     Copy CRC BED69371
     Track not present in AccurateRip database
     Copy OK

Track  7

     Filename C:\EAC Rips\Chamillionaire - 2012 - Ammunition\07 - Wont Change feat. Tami Latrell.wav

     Peak level 99.0 %
     Extraction speed 6.9 X
     Track quality 100.0 %
     Test CRC FDA21055
     Copy CRC FDA21055
     Track not present in AccurateRip database
     Copy OK

Track  8

     Filename C:\EAC Rips\Chamillionaire - 2012 - Ammunition\08 - You Gon Learn (Late Service).wav

     Peak level 97.5 %
     Extraction speed 6.5 X
     Track quality 100.0 %
     Test CRC 25C647EE
     Copy CRC 25C647EE
     Track not present in AccurateRip database
     Copy OK

Track  9

     Filename C:\EAC Rips\Chamillionaire - 2012 - Ammunition\09 - Never Enough feat. Angel.wav

     Peak level 97.1 %
     Extraction speed 7.3 X
     Track quality 100.0 %
     Test CRC 03A92204
     Copy CRC 03A92204
     Track not present in AccurateRip database
     Copy OK

None of the tracks are present in the AccurateRip database

No errors occurred

End of status report

==== Log checksum CFCA9E46A0ACA1ECF97A25B4B28D8AB80E4A9660287AAFE6278B96A744CF059A ====

Код:

REM GENRE Hip-Hop
REM DATE 2012
REM DISCID 5F07CD09
REM COMMENT "ExactAudioCopy v1.0b1"
FILE "01 - Your Connect.wav" WAVE
  TRACK 01 AUDIO
    INDEX 01 00:00:00
FILE "02 - Running Laps.wav" WAVE
  TRACK 02 AUDIO
    INDEX 01 00:00:00
FILE "03 - You Gon Learn feat. Saigon (Early Service).wav" WAVE
  TRACK 03 AUDIO
    INDEX 01 00:00:00
FILE "04 - All Mine.wav" WAVE
  TRACK 04 AUDIO
    INDEX 01 00:00:00
FILE "05 - On My Way feat. Lee Lonn.wav" WAVE
  TRACK 05 AUDIO
    INDEX 01 00:00:00
FILE "06 - Lets Get That.wav" WAVE
  TRACK 06 AUDIO
    INDEX 01 00:00:00
FILE "07 - Wont Change feat. Tami Latrell.wav" WAVE
  TRACK 07 AUDIO
    INDEX 01 00:00:00
FILE "08 - You Gon Learn (Late Service).wav" WAVE
  TRACK 08 AUDIO
    INDEX 01 00:00:00
FILE "09 - Never Enough feat. Angel.wav" WAVE
  TRACK 09 AUDIO
    INDEX 01 00:00:00


info [Профиль]  [ЛС] 

post 11-Апр-2012 13:56 (спустя 42 секунды) [-]0[+]

Топик был перенесен из форума Оформление раздач в форум Зарубежный Rap, Hip-Hop, R'n'B (lossless)

saGambit
 
Показать сообщения:    
Ответить на тему

Текущее время: 06-Дек 14:15

Часовой пояс: GMT + 4



Вы не можете начинать темы
Вы не можете отвечать на сообщения
Вы не можете редактировать свои сообщения
Вы не можете удалять свои сообщения
Вы не можете голосовать в опросах
Вы не можете прикреплять файлы к сообщениям
Вы не можете скачивать файлы