Ошибка

(Dubstep, Breakbeat) Skrillex - Дискография - 2009-2011, FLAC (tracks+.cue\tracks), lossless

Ответить на тему
 
Автор Сообщение

Resistance

Пол: Пол:Муж

Стаж: 7 лет 2 месяца

Сообщений: 3639

Россия
Рейтинг

post 04-Апр-2012 19:41 4[+]

[Цитировать] 

pic="http://i35.fastpic.ru/big/2012/0404/bd/70564315ff89115890d23d70f1e26bbd.jpg"
Skrillex - Дискография
Жанр:Dubstep, Breakbeat || Происхождение исполнителя: USA || Год: 2009-2011
Аудио кодек: FLAC || Тип релиза: tracks+.cue\tracks || Битрейт аудио: lossless || Продолжительность: 04:36:28

Last.fm писал(а):

  Сонни Джон Мур (англ. Sonny John Moore, родился 15 января 1988 года), более известный по своему псевдониму Скри́ллекс (Skrillex) — американский бростеп-музыкант и продюсер. Мур также бывший фронтмен группы From First to Last. В конце осени 2007 года он отправился в свой первый тур Team Sleep Tour в качестве сольного исполнителя с Team Sleep, Strata и Monster in the Machine. После набора нового состава группы Мур посетил Северную Америку на Alternative Press Tour, поддерживая такие группы, как All Time Low и The Rocket Summer, появился на обложке журнала Alternative Press, в ежегодном спецвыпуске «100 групп, которых вам нужно знать» (100 Bands You Need to Know). В июне 2008 года он с продюсером Ноа Шейн начали запись дебютного альбома под названием Bells. Он выпустил мини-альбом Scary Monsters and Nice Sprites. Он принимал участие в записи альбома Korn The Path of Totality.
  Skrillex был номинирован на пять премий «Грэмми» в 2011 году, в том числе в категории «Лучший новый исполнитель». На 54-й церемонии «Грэмми» он был награждён в трёх номинациях: Scary Monsters and Nice Sprites — Лучший танцевальный/электронный альбом; «Scary Monsters and Nice Sprites» — Лучшая танцевальная запись; «Benny Benassi — Cinema (Skrillex Remix)» — Лучший ремикс.
01. Gypsyhook (4:20)
02. Mora (3:41)
03. Copaface2 (4:14)
04. Gypsyhook vs. DMNDAYS (4:30)
05. Mora vs. The Toxic Avenger (5:21)
06. Mora vs. LAZRtag (5:14)
07. Copaface2 vs. Dan Sena (4:54)
08. Kai Sui (Mora Japanese Edition) (3:42)

Код:

AUDIOCHECKER v2.0 beta (build 457) - by Dester - opdester@freemail.hu
~~~~~~~~~~~~~~~~~~~~~~~~~~~~~~~~~~
-=== НЕ РЕДАКТИРУЙТЕ ЭТОТ ФАЙЛ! ===-

Путь: ...\2009 - Sonny Moore (Skrillex) - Gypsyhook (EP)

1 -=- 01. Gypsyhook.flac -=- CDDA (100%)
2 -=- 02. Mora.flac -=- CDDA (99%)
3 -=- 03. Copaface2.flac -=- CDDA (100%)
4 -=- 04. Gypsyhook VS. DMNDAYS.flac -=- CDDA (100%)
5 -=- 05. Mora VS. the Toxic Avenger.flac -=- CDDA (100%)
6 -=- 06. Mora VS. LAZRtag.flac -=- CDDA (100%)
7 -=- 07. Copaface2 VS. Dan Sena.flac -=- CDDA (100%)
8 -=- 08. Kai Sui (Mora Japanese Edition).flac -=- CDDA (100%)

Сводка 99,88% CDDA

37422740

01. Rock N' Roll (Will Take You To The Mountain) (4:44)
02. Scary Monsters And Nice Sprites (4:03)
03. Kill Everybody (4:58)
04. All I Ask Of You (5:40)
05. Scatta (3:55)
06. With You Friends (Long Drive) (6:29)
07. Scary Monsters And Nice Sprites (Noisia Remix) (3:24)
08. Scary Monsters And Nice Sprites (Zedd Remix) (5:58)
09. Kill Everybody (Bare Noize Remix) (4:41)

Код:

-----------------------

DON'T MODIFY THIS FILE

-----------------------

PERFORMER: auCDtect Task Manager, ver. 1.5.1RC4 build 1.5.1.5
Copyright (c) 2008-2010 y-soft. All rights reserved
http://y-soft.org

ANALYZER: auCDtect: CD records authenticity detector, version 0.8.2
Copyright (c) 2004 Oleg Berngardt. All rights reserved.
Copyright (c) 2004 Alexander Djourik. All rights reserved.

FILE: 02. Scary Monsters And Nice Sprites.flac
  Size: 30998758 Hash: EED1D38F82A9715E58973F8E1907394F Accuracy: -m0
  Conclusion: CDDA 100%
  Signature: 91A0CEB0CF8117F5CE9836B410A07D4F33B35F9D
FILE: 01. Rock N' Roll (Will Take You To The Mountain).flac
  Size: 38506534 Hash: 9071676BF2654B887DC68B5B4EAEE2C0 Accuracy: -m0
  Conclusion: CDDA 100%
  Signature: 92080B1ED260BE39DFFA5F4799E0206B5BF96A85
FILE: 09. Kill Everybody (Bare Noize Remix).flac
  Size: 39199193 Hash: EE83BEBA42370BCAF0E2A18FF8F8D3F4 Accuracy: -m0
  Conclusion: CDDA 100%
  Signature: 57EE99FB17E5F4313053745230C2DC4BD431FC4A
FILE: 08. Scary Monsters And Nice Sprites (Zedd Remix).flac
  Size: 47459110 Hash: F5E1090B2C9B84EC7AE1F612F48D92F0 Accuracy: -m0
  Conclusion: CDDA 99%
  Signature: 9922220BB54A268CE8E7EEF6FCA9EDE5C60BEF7C
FILE: 07. Scary Monsters And Nice Sprites (Noisia Remix).flac
  Size: 27623147 Hash: 10798BA36266F64CB0F22525BA7BAE8D Accuracy: -m0
  Conclusion: CDDA 99%
  Signature: 9786DB8043B627E9D7D3D596C8213C5E453E8456
FILE: 06. With You Friends (Long Drive).flac
  Size: 45771759 Hash: B543E68AC1004A4635D6C79659C27D8C Accuracy: -m0
  Conclusion: CDDA 100%
  Signature: 1057939763B3AD6ABCBE2D06C111ECAE0DC3B137
FILE: 05. Scatta.flac
  Size: 31526264 Hash: 665655A699D32C9EA5A7416FC1B706D3 Accuracy: -m0
  Conclusion: CDDA 100%
  Signature: BBB35618DD520F0EB9FD3BA8E890A62F72F5BB3E
FILE: 04. All I Ask Of You.flac
  Size: 41634372 Hash: E0CBFF5F008989D66385D7DA0C6D2D35 Accuracy: -m0
  Conclusion: CDDA 100%
  Signature: 3C75EF06CC31ED490F3A39C548C83AC81C7FE82C
FILE: 03. Kill Everybody.flac
  Size: 38859367 Hash: 450BC620B08F6875519D576645B4034F Accuracy: -m0
  Conclusion: CDDA 99%
  Signature: AC0ABD1C914FF00F6891F9F14C265A986D2C75D4

01. Rock N' Roll (Will Take You To The Mountain) (4:45)
02. Scary Monsters And Nice Sprites (4:04)
03. Kill Everybody (4:58)
04. All I Ask Of You (feat. Penny) (5:41)
05. Scatta (feat. Foreign Beggars And Bare Noize) (3:56)
06. With You, Friends (Long Drive) (6:29)
07. Scary Monsters And Nice Sprites (Noisia Remix) (3:25)
08. Scary Monsters And Nice Sprites (Zedd Remix) (5:59)
09. Kill Everybody (Bare Noize Remix) (4:41)

Код:

Exact Audio Copy V1.0 beta 1 from 15. November 2010

EAC extraction logfile from 1. December 2010, 21:30

Skrillex / Scary Monsters And Nice Sprites

Used drive  : PIONEER DVD-RW  DVR-216D   Adapter: 5  ID: 0

Read mode               : Secure
Utilize accurate stream : Yes
Defeat audio cache      : Yes
Make use of C2 pointers : No

Read offset correction                      : 96
Overread into Lead-In and Lead-Out          : No
Fill up missing offset samples with silence : Yes
Delete leading and trailing silent blocks   : No
Null samples used in CRC calculations       : Yes
Used interface                              : Native Win32 interface for Win NT & 2000
Gap handling                                : Appended to previous track

Used output format              : User Defined Encoder
Selected bitrate                : 128 kBit/s
Quality                         : High
Add ID3 tag                     : No
Command line compressor         : C:\Program Files\Exact Audio Copy\Flac\flac.exe
Additional command line options : -V -8 -T "artist=%a" -T "title=%t" -T "album=%g" -T "date=%y" -T "tracknumber=%n" -T "genre=%m" %s

TOC of the extracted CD

     Track |   Start  |  Length  | Start sector | End sector
    ---------------------------------------------------------
        1  |  0:00.00 |  4:45.14 |         0    |    21388   
        2  |  4:45.14 |  4:04.31 |     21389    |    39719   
        3  |  8:49.45 |  4:58.33 |     39720    |    62102   
        4  | 13:48.03 |  5:41.09 |     62103    |    87686   
        5  | 19:29.12 |  3:55.59 |     87687    |   105370   
        6  | 23:24.71 |  6:28.70 |    105371    |   134540   
        7  | 29:53.66 |  3:25.24 |    134541    |   149939   
        8  | 33:19.15 |  5:59.01 |    149940    |   176865   
        9  | 39:18.16 |  4:41.18 |    176866    |   197958   

Track  1

     Filename U:\EAC_RIPS\01 - Rock N' Roll (Will Take You To The Mountain).wav

     Pre-gap length  0:00:02.00

     Peak level 100.0 %
     Extraction speed 4.5 X
     Track quality 100.0 %
     Test CRC E104A0FF
     Copy CRC E104A0FF
     Track not present in AccurateRip database
     Copy OK

Track  2

     Filename U:\EAC_RIPS\02 - Scary Monsters And Nice Sprites.wav

     Pre-gap length  0:00:00.67

     Peak level 98.9 %
     Extraction speed 4.4 X
     Track quality 99.9 %
     Test CRC F4A77473
     Copy CRC F4A77473
     Track not present in AccurateRip database
     Copy OK

Track  3

     Filename U:\EAC_RIPS\03 - Kill Everybody.wav

     Pre-gap length  0:00:00.65

     Peak level 84.1 %
     Extraction speed 5.5 X
     Track quality 100.0 %
     Test CRC 12113485
     Copy CRC 12113485
     Track not present in AccurateRip database
     Copy OK

Track  4

     Filename U:\EAC_RIPS\04 - All I Ask Of You (feat. Penny).wav

     Pre-gap length  0:00:00.32

     Peak level 98.9 %
     Extraction speed 6.1 X
     Track quality 100.0 %
     Test CRC 146F78DD
     Copy CRC 146F78DD
     Track not present in AccurateRip database
     Copy OK

Track  5

     Filename U:\EAC_RIPS\05 - Scatta (feat. Foreign Beggars And Bare Noize).wav

     Pre-gap length  0:00:00.66

     Peak level 98.9 %
     Extraction speed 5.5 X
     Track quality 99.9 %
     Test CRC C85281BF
     Copy CRC C85281BF
     Track not present in AccurateRip database
     Copy OK

Track  6

     Filename U:\EAC_RIPS\06 - With You, Friends (Long Drive).wav

     Pre-gap length  0:00:00.65

     Peak level 98.9 %
     Extraction speed 7.0 X
     Track quality 100.0 %
     Test CRC 5B5A3588
     Copy CRC 5B5A3588
     Track not present in AccurateRip database
     Copy OK

Track  7

     Filename U:\EAC_RIPS\07 - Scary Monsters And Nice Sprites (Noisia Remix).wav

     Pre-gap length  0:00:00.60

     Peak level 98.8 %
     Extraction speed 6.8 X
     Track quality 100.0 %
     Test CRC 097B33F1
     Copy CRC 097B33F1
     Track not present in AccurateRip database
     Copy OK

Track  8

     Filename U:\EAC_RIPS\08 - Scary Monsters And Nice Sprites (Zedd Remix).wav

     Pre-gap length  0:00:00.65

     Peak level 98.8 %
     Extraction speed 7.7 X
     Track quality 100.0 %
     Test CRC 0A308442
     Copy CRC 0A308442
     Track not present in AccurateRip database
     Copy OK

Track  9

     Filename U:\EAC_RIPS\09 - Kill Everybody (Bare Noize Remix).wav

     Pre-gap length  0:00:01.00

     Peak level 98.9 %
     Extraction speed 6.9 X
     Track quality 99.9 %
     Test CRC 32CD3A40
     Copy CRC 32CD3A40
     Track not present in AccurateRip database
     Copy OK

None of the tracks are present in the AccurateRip database

No errors occurred

End of status report

==== Log checksum 028082DA6B445088B61A1DBB1ED33C61B687CC5FD8232CFEF473D36C821493B1 ====

Код:

REM GENRE Dubstep
REM DATE 2010
REM DISCID 600A4F09
REM COMMENT "ExactAudioCopy v1.0b1"
PERFORMER "Skrillex"
TITLE "Scary Monsters And Nice Sprites"
FILE "01 - Rock N' Roll (Will Take You To The Mountain).wav" WAVE
  TRACK 01 AUDIO
    TITLE "Rock N' Roll (Will Take You To The Mountain)"
    PERFORMER "Skrillex"
    INDEX 01 00:00:00
  TRACK 02 AUDIO
    TITLE "Scary Monsters And Nice Sprites"
    PERFORMER "Skrillex"
    INDEX 00 04:44:22
FILE "02 - Scary Monsters And Nice Sprites.wav" WAVE
    INDEX 01 00:00:00
  TRACK 03 AUDIO
    TITLE "Kill Everybody"
    PERFORMER "Skrillex"
    INDEX 00 04:03:41
FILE "03 - Kill Everybody.wav" WAVE
    INDEX 01 00:00:00
  TRACK 04 AUDIO
    TITLE "All I Ask Of You (feat. Penny)"
    PERFORMER "Skrillex"
    INDEX 00 04:58:01
FILE "04 - All I Ask Of You (feat. Penny).wav" WAVE
    INDEX 01 00:00:00
  TRACK 05 AUDIO
    TITLE "Scatta (feat. Foreign Beggars And Bare Noize)"
    PERFORMER "Skrillex"
    INDEX 00 05:40:18
FILE "05 - Scatta (feat. Foreign Beggars And Bare Noize).wav" WAVE
    INDEX 01 00:00:00
  TRACK 06 AUDIO
    TITLE "With You, Friends (Long Drive)"
    PERFORMER "Skrillex"
    INDEX 00 03:54:69
FILE "06 - With You, Friends (Long Drive).wav" WAVE
    INDEX 01 00:00:00
  TRACK 07 AUDIO
    TITLE "Scary Monsters And Nice Sprites (Noisia Remix)"
    PERFORMER "Skrillex"
    INDEX 00 06:28:10
FILE "07 - Scary Monsters And Nice Sprites (Noisia Remix).wav" WAVE
    INDEX 01 00:00:00
  TRACK 08 AUDIO
    TITLE "Scary Monsters And Nice Sprites (Zedd Remix)"
    PERFORMER "Skrillex"
    INDEX 00 03:24:34
FILE "08 - Scary Monsters And Nice Sprites (Zedd Remix).wav" WAVE
    INDEX 01 00:00:00
  TRACK 09 AUDIO
    TITLE "Kill Everybody (Bare Noize Remix)"
    PERFORMER "Skrillex"
    INDEX 00 05:58:01
FILE "09 - Kill Everybody (Bare Noize Remix).wav" WAVE
    INDEX 01 00:00:00

01. Rock N' Roll (Will Take You to the Mountain) (4:46)
02. Scary Monsters and Nice Sprites (4:05)
03. Kill EVERYBODY (5:00)
04. All I Ask of You (ft. Penny) (5:42)
05. Scatta (ft Foreign Beggars and Bare Noize) (3:56)
06. With You, Friends (Long Drive) (6:30)
07. Scary Monsters and Nice Sprites (Noisia Remix) (3:25)
08. Scary Monsters and Nice Sprites (Zedd Remix) (5:59)
09. Kill EVERYBODY (Bare Noize remix) (4:41)

Код:

Exact Audio Copy V1.0 beta 1 from 15. November 2010

EAC extraction logfile from 13. June 2011, 19:40

Skrillex / Scary Monsters and Nice Sprites

Used drive  : TSSTcorpCDDVDW SH-S223F   Adapter: 1  ID: 1

Read mode               : Secure
Utilize accurate stream : Yes
Defeat audio cache      : Yes
Make use of C2 pointers : No

Read offset correction                      : 6
Overread into Lead-In and Lead-Out          : No
Fill up missing offset samples with silence : Yes
Delete leading and trailing silent blocks   : No
Null samples used in CRC calculations       : Yes
Used interface                              : Native Win32 interface for Win NT & 2000
Gap handling                                : Appended to previous track

Used output format              : User Defined Encoder
Selected bitrate                : 768 kBit/s
Quality                         : High
Add ID3 tag                     : No
Command line compressor         : C:\path\flac.exe
Additional command line options : -V -8 -T "artist=%a" -T "title=%t" -T "album=%g" -T "date=%y" -T "tracknumber=%n" -T "genre=%m" %s

TOC of the extracted CD

     Track |   Start  |  Length  | Start sector | End sector
    ---------------------------------------------------------
        1  |  0:00.00 |  4:46.09 |         0    |    21458   
        2  |  4:46.09 |  4:05.13 |     21459    |    39846   
        3  |  8:51.22 |  4:59.74 |     39847    |    62345   
        4  | 13:51.21 |  5:42.01 |     62346    |    87996   
        5  | 19:33.22 |  3:56.15 |     87997    |   105711   
        6  | 23:29.37 |  6:29.64 |    105712    |   134950   
        7  | 29:59.26 |  3:25.19 |    134951    |   150344   
        8  | 33:24.45 |  5:58.57 |    150345    |   177251   
        9  | 39:23.27 |  4:41.31 |    177252    |   198357   

Track  1

     Filename D:\rip\Skrillex - Scary Monsters and Nice Sprites (2010) [FLAC]\01. Rock N' Roll (Will Take You to the Mountain).wav

     Pre-gap length  0:00:02.00

     Peak level 97.7 %
     Extraction speed 2.1 X
     Track quality 100.0 %
     Test CRC E52FBF1A
     Copy CRC E52FBF1A
     Accurately ripped (confidence 2)  [E4559001]
     Copy OK

Track  2

     Filename D:\rip\Skrillex - Scary Monsters and Nice Sprites (2010) [FLAC]\02. Scary Monsters and Nice Sprites.wav

     Pre-gap length  0:00:01.58

     Peak level 97.7 %
     Extraction speed 2.0 X
     Track quality 100.0 %
     Test CRC DFE11F06
     Copy CRC DFE11F06
     Accurately ripped (confidence 2)  [DB45D481]
     Copy OK

Track  3

     Filename D:\rip\Skrillex - Scary Monsters and Nice Sprites (2010) [FLAC]\03. Kill EVERYBODY.wav

     Pre-gap length  0:00:01.40

     Peak level 97.7 %
     Extraction speed 2.1 X
     Track quality 100.0 %
     Test CRC D2FEB028
     Copy CRC D2FEB028
     Accurately ripped (confidence 2)  [E82ADCED]
     Copy OK

Track  4

     Filename D:\rip\Skrillex - Scary Monsters and Nice Sprites (2010) [FLAC]\04. All I Ask of You (ft. Penny).wav

     Pre-gap length  0:00:01.57

     Peak level 97.7 %
     Extraction speed 1.9 X
     Track quality 99.9 %
     Test CRC D46942FD
     Copy CRC D46942FD
     Accurately ripped (confidence 2)  [106594BF]
     Copy OK

Track  5

     Filename D:\rip\Skrillex - Scary Monsters and Nice Sprites (2010) [FLAC]\05. Scatta (ft Foreign Beggars and Bare Noize).wav

     Pre-gap length  0:00:01.24

     Peak level 97.7 %
     Extraction speed 2.0 X
     Track quality 100.0 %
     Test CRC EA11257A
     Copy CRC EA11257A
     Accurately ripped (confidence 2)  [15F73138]
     Copy OK

Track  6

     Filename D:\rip\Skrillex - Scary Monsters and Nice Sprites (2010) [FLAC]\06. With You, Friends (Long Drive).wav

     Peak level 99.9 %
     Extraction speed 2.0 X
     Track quality 99.9 %
     Test CRC BBD4FA69
     Copy CRC BBD4FA69
     Accurately ripped (confidence 2)  [C5478014]
     Copy OK

Track  7

     Filename D:\rip\Skrillex - Scary Monsters and Nice Sprites (2010) [FLAC]\07. Scary Monsters and Nice Sprites (Noisia Remix).wav

     Pre-gap length  0:00:01.49

     Peak level 92.2 %
     Extraction speed 2.0 X
     Track quality 100.0 %
     Test CRC 913BDD9D
     Copy CRC 913BDD9D
     Accurately ripped (confidence 2)  [2F85D6CA]
     Copy OK

Track  8

     Filename D:\rip\Skrillex - Scary Monsters and Nice Sprites (2010) [FLAC]\08. Scary Monsters and Nice Sprites (Zedd Remix).wav

     Pre-gap length  0:00:01.54

     Peak level 92.2 %
     Extraction speed 2.2 X
     Track quality 100.0 %
     Test CRC BBC5CFEA
     Copy CRC BBC5CFEA
     Accurately ripped (confidence 2)  [B5B312DD]
     Copy OK

Track  9

     Filename D:\rip\Skrillex - Scary Monsters and Nice Sprites (2010) [FLAC]\09. Kill EVERYBODY (Bare Noize remix).wav

     Peak level 99.9 %
     Extraction speed 2.1 X
     Track quality 100.0 %
     Test CRC C2656FF4
     Copy CRC C2656FF4
     Accurately ripped (confidence 2)  [479ED808]
     Copy OK

All tracks accurately ripped

No errors occurred

End of status report

Код:

REM GENRE Dubstep
REM DATE 2010
REM DISCID 640A5409
REM COMMENT "ExactAudioCopy v1.0b1"
CATALOG 0075678827174
PERFORMER "Skrillex"
TITLE "Scary Monsters and Nice Sprites"
FILE "Skrillex - Scary Monsters and Nice Sprites (2010) [FLAC]\01. Rock N' Roll (Will Take You to the Mountain).wav" WAVE
  TRACK 01 AUDIO
    TITLE "Rock N' Roll (Will Take You to the Mountain)"
    PERFORMER "Skrillex"
    INDEX 01 00:00:00
  TRACK 02 AUDIO
    TITLE "Scary Monsters and Nice Sprites"
    PERFORMER "Skrillex"
    INDEX 00 04:44:40
FILE "Skrillex - Scary Monsters and Nice Sprites (2010) [FLAC]\02. Scary Monsters and Nice Sprites.wav" WAVE
    INDEX 01 00:00:00
  TRACK 03 AUDIO
    TITLE "Kill EVERYBODY"
    PERFORMER "Skrillex"
    INDEX 00 04:03:58
FILE "Skrillex - Scary Monsters and Nice Sprites (2010) [FLAC]\03. Kill EVERYBODY.wav" WAVE
    INDEX 01 00:00:00
  TRACK 04 AUDIO
    TITLE "All I Ask of You (ft. Penny)"
    PERFORMER "Skrillex"
    INDEX 00 04:58:31
FILE "Skrillex - Scary Monsters and Nice Sprites (2010) [FLAC]\04. All I Ask of You (ft. Penny).wav" WAVE
    INDEX 01 00:00:00
  TRACK 05 AUDIO
    TITLE "Scatta (ft Foreign Beggars and Bare Noize)"
    PERFORMER "Skrillex"
    INDEX 00 05:40:58
FILE "Skrillex - Scary Monsters and Nice Sprites (2010) [FLAC]\05. Scatta (ft Foreign Beggars and Bare Noize).wav" WAVE
    INDEX 01 00:00:00
FILE "Skrillex - Scary Monsters and Nice Sprites (2010) [FLAC]\06. With You, Friends (Long Drive).wav" WAVE
  TRACK 06 AUDIO
    TITLE "With You, Friends (Long Drive)"
    PERFORMER "Skrillex"
    INDEX 01 00:00:00
  TRACK 07 AUDIO
    TITLE "Scary Monsters and Nice Sprites (Noisia Remix)"
    PERFORMER "Skrillex"
    INDEX 00 06:28:27
FILE "Skrillex - Scary Monsters and Nice Sprites (2010) [FLAC]\07. Scary Monsters and Nice Sprites (Noisia Remix).wav" WAVE
    INDEX 01 00:00:00
  TRACK 08 AUDIO
    TITLE "Scary Monsters and Nice Sprites (Zedd Remix)"
    PERFORMER "Skrillex"
    INDEX 00 03:23:53
FILE "Skrillex - Scary Monsters and Nice Sprites (2010) [FLAC]\08. Scary Monsters and Nice Sprites (Zedd Remix).wav" WAVE
    INDEX 01 00:00:00
FILE "Skrillex - Scary Monsters and Nice Sprites (2010) [FLAC]\09. Kill EVERYBODY (Bare Noize remix).wav" WAVE
  TRACK 09 AUDIO
    TITLE "Kill EVERYBODY (Bare Noize remix)"
    PERFORMER "Skrillex"
    INDEX 01 00:00:00

01. Right In (Original Mix) (3:00)
02. Bangarang feat. Sirah (Original Mix) (3:35)
03. Breakn' A Sweat (Original Mix) (5:02)
04. The Devil's Den (Original Mix) (4:53)
05. Right On Time (Original Mix) (4:05)
06. Kyoto feat. Sirah (Original Mix) (3:21)
07. Summit feat. Ellie Goulding (Original Mix) (6:14)

Код:

-----------------------

DON'T MODIFY THIS FILE

-----------------------

PERFORMER: auCDtect Task Manager, ver. 1.5.1RC6 build 1.5.1.7
Copyright (c) 2008-2010 y-soft. All rights reserved
http://y-soft.org

ANALYZER: auCDtect: CD records authenticity detector, version 0.8.2
Copyright (c) 2004 Oleg Berngardt. All rights reserved.
Copyright (c) 2004 Alexander Djourik. All rights reserved.

FILE: 07 Summit feat. Ellie Goulding (Original Mix).flac
  Size: 45390364 Hash: 36D18588EDCA593D11116A9751B5613F Accuracy: -m0
  Conclusion: CDDA 100%
  Signature: 1C64F56B091CC34D7A54B8B1B2B9768F31B72BB1
FILE: 06 Kyoto feat. Sirah (Original Mix).flac
  Size: 28967952 Hash: 7A5B7E03A8F6DB4BE5A484ACEF195653 Accuracy: -m0
  Conclusion: CDDA 100%
  Signature: B6FBC5A15231656C5498CC039A83E43E039FBB18
FILE: 05 Right On Time (Original Mix).flac
  Size: 33133120 Hash: 85445EFA059CE7FD7FE39E79661D19E1 Accuracy: -m0
  Conclusion: CDDA 100%
  Signature: 81347099CFFFC6163595518BECFD0CA614BFD08C
FILE: 04 The Devil's Den (Original Mix).flac
  Size: 41869593 Hash: F153222E33BCBC9A80178E9F70700317 Accuracy: -m0
  Conclusion: CDDA 100%
  Signature: E4BD136F13E95D8C029C7E277722925EA3C9048C
FILE: 03 Breakn' A Sweat (Original Mix).flac
  Size: 44142595 Hash: F35868939F92EBED6E57EDC50B9E91FA Accuracy: -m0
  Conclusion: CDDA 100%
  Signature: 5684CBFD6268ACC25BEB3B0E5F9C47E561D03997
FILE: 02 Bangarang feat. Sirah (Original Mix).flac
  Size: 30242465 Hash: 7CACAC005608A9B777CCE0E0889D4B84 Accuracy: -m0
  Conclusion: CDDA 99%
  Signature: 4154ED7699CC909CC0FBBE3477F2D20BE308D7C4
FILE: 01 Right In (Original Mix).flac
  Size: 27570872 Hash: D16E423A7BC7454A908B792B2C5BBAA1 Accuracy: -m0
  Conclusion: CDDA 100%
  Signature: AC4AC620EF81BDAAE83143FD10BF2F15520606FC

01. Right In (3:02)
02. Bangarang (feat. Sirah) (3:35)
03. Breakn' A Sweat (5:03)
04. The Devil's Den (4:53)
05. Right On Time (4:05)
06. Kyoto (feat. Sirah) (3:21)
07. Summit (feat. Ellie Goulding) (6:14)

Код:

Exact Audio Copy V1.0 beta 2 from 29. April 2011

EAC extraction logfile from 22. January 2012, 1:10

Skrillex / Bangarang EP

Used drive  : Optiarc DVD RW AD-7200S   Adapter: 0  ID: 0

Read mode               : Secure
Utilize accurate stream : Yes
Defeat audio cache      : Yes
Make use of C2 pointers : No

Read offset correction                      : 48
Overread into Lead-In and Lead-Out          : No
Fill up missing offset samples with silence : Yes
Delete leading and trailing silent blocks   : No
Null samples used in CRC calculations       : Yes
Used interface                              : Native Win32 interface for Win NT & 2000
Gap handling                                : Appended to previous track

Used output format              : User Defined Encoder
Selected bitrate                : 896 kBit/s
Quality                         : High
Add ID3 tag                     : No
Command line compressor         : C:\Program Files (x86)\Exact Audio Copy\FLAC\FLAC.EXE
Additional command line options : -8 -V -T "ARTIST=%artist%" -T "TITLE=%title%" -T "ALBUM=%albumtitle%" -T "DATE=%year%" -T "TRACKNUMBER=%tracknr%" -T "GENRE=%genre%" -T "COMMENT=%comment%" -T "BAND=%albuminterpret%" -T "COMPOSER=%composer%" %haslyrics%--ta

TOC of the extracted CD

     Track |   Start  |  Length  | Start sector | End sector
    ---------------------------------------------------------
        1  |  0:00.00 |  3:01.60 |         0    |    13634   
        2  |  3:01.60 |  3:35.19 |     13635    |    29778   
        3  |  6:37.04 |  5:03.23 |     29779    |    52526   
        4  | 11:40.27 |  4:52.68 |     52527    |    74494   
        5  | 16:33.20 |  4:05.04 |     74495    |    92873   
        6  | 20:38.24 |  3:20.59 |     92874    |   107932   
        7  | 23:59.08 |  6:13.74 |    107933    |   135981   

Track  1

     Filename R:\EAC\Skrillex - Bangarang EP (2012)\01 Right In.wav

     Pre-gap length  0:00:02.00

     Peak level 100.0 %
     Extraction speed 2.0 X
     Track quality 100.0 %
     Test CRC 9B42AD20
     Copy CRC 9B42AD20
     Track not present in AccurateRip database
     Copy OK

Track  2

     Filename R:\EAC\Skrillex - Bangarang EP (2012)\02 Bangarang (feat. Sirah).wav

     Pre-gap length  0:00:01.30

     Peak level 100.0 %
     Extraction speed 2.3 X
     Track quality 100.0 %
     Test CRC 4E57438B
     Copy CRC 4E57438B
     Track not present in AccurateRip database
     Copy OK

Track  3

     Filename R:\EAC\Skrillex - Bangarang EP (2012)\03 Breakn' A Sweat.wav

     Peak level 100.0 %
     Extraction speed 2.7 X
     Track quality 100.0 %
     Test CRC 29E1276B
     Copy CRC 29E1276B
     Track not present in AccurateRip database
     Copy OK

Track  4

     Filename R:\EAC\Skrillex - Bangarang EP (2012)\04 The Devil's Den.wav

     Pre-gap length  0:00:01.24

     Peak level 99.5 %
     Extraction speed 2.9 X
     Track quality 100.0 %
     Test CRC FA9BECD5
     Copy CRC FA9BECD5
     Track not present in AccurateRip database
     Copy OK

Track  5

     Filename R:\EAC\Skrillex - Bangarang EP (2012)\05 Right On Time.wav

     Peak level 100.0 %
     Extraction speed 3.0 X
     Track quality 100.0 %
     Test CRC D39C963D
     Copy CRC D39C963D
     Track not present in AccurateRip database
     Copy OK

Track  6

     Filename R:\EAC\Skrillex - Bangarang EP (2012)\06 Kyoto (feat. Sirah).wav

     Peak level 100.0 %
     Extraction speed 3.1 X
     Track quality 100.0 %
     Test CRC 34B8AED8
     Copy CRC 34B8AED8
     Track not present in AccurateRip database
     Copy OK

Track  7

     Filename R:\EAC\Skrillex - Bangarang EP (2012)\07 Summit (feat. Ellie Goulding).wav

     Peak level 99.1 %
     Extraction speed 3.5 X
     Track quality 100.0 %
     Test CRC 30086A20
     Copy CRC 30086A20
     Track not present in AccurateRip database
     Copy OK

None of the tracks are present in the AccurateRip database

No errors occurred

End of status report

==== Log checksum A905FD14408415F2D0C21F089A640C3EF6C0D8345F2203D5BF8E52D73A030093 ====

Код:

REM DATE 2012
REM DISCID 54071507
REM COMMENT "ExactAudioCopy v1.0b2"
FILE "01 Right In.wav" WAVE
  TRACK 01 AUDIO
    INDEX 01 00:00:00
  TRACK 02 AUDIO
    INDEX 00 03:00:30
FILE "02 Bangarang (feat. Sirah).wav" WAVE
    INDEX 01 00:00:00
FILE "03 Breakn' A Sweat.wav" WAVE
  TRACK 03 AUDIO
    INDEX 01 00:00:00
  TRACK 04 AUDIO
    INDEX 00 05:01:74
FILE "04 The Devil's Den.wav" WAVE
    INDEX 01 00:00:00
FILE "05 Right On Time.wav" WAVE
  TRACK 05 AUDIO
    INDEX 01 00:00:00
FILE "06 Kyoto (feat. Sirah).wav" WAVE
  TRACK 06 AUDIO
    INDEX 01 00:00:00
FILE "07 Summit (feat. Ellie Goulding).wav" WAVE
  TRACK 07 AUDIO
    INDEX 01 00:00:00

01. Get Up (3:40)
02. Get Up (Original Mix) (3:54)

Код:

AUDIOCHECKER v2.0 beta (build 457) - by Dester - opdester@freemail.hu
~~~~~~~~~~~~~~~~~~~~~~~~~~~~~~~~~~
-=== DO NOT EDIT THIS FILE! ===-

Path: ...\Skrillex & Korn - Get Up 2011

1 -=- 01 - Get Up.flac -=- CDDA (100%)
2 -=- 02 - Get Up (Original Mix).flac -=- CDDA (100%)

Summary 100,00% CDDA

4846308

01. First Of The Year (Equinox) (4:22)
02. Ruffneck (Flex) (4:43)
03. Ruffneck (FULL Flex) (3:46)
04. Scary Monsters And Nice Sprites (Dirtyphonics Remix) (4:51)
05. Scary Monsters And Nice Sprites (Phonat Remix) (3:40)
06. Scary Monsters And Nice Sprites (The Juggernaut Remix) (3:54)
07. Scary Monsters And Nice Sprites (Kaskade Remix) (8:04)

Код:

AUDIOCHECKER v2.0 beta (build 457) - by Dester - opdester@freemail.hu
~~~~~~~~~~~~~~~~~~~~~~~~~~~~~~~~~~
-=== НЕ РЕДАКТИРУЙТЕ ЭТОТ ФАЙЛ! ===-

Путь: ...\Skrillex - More Monsters And Sprites - 2011

1 -=- 01. Skrillex - First Of The Year (Equinox).flac -=- CDDA (100%)
2 -=- 02. Skrillex - Ruffneck (Flex).flac -=- CDDA (100%)
3 -=- 03. Skrillex - Ruffneck (FULL Flex).flac -=- CDDA (100%)
4 -=- 04. Skrillex - Scary Monsters And Nice Sprites (Dirtyphonics Remix).flac -=- CDDA (100%)
5 -=- 05. Skrillex - Scary Monsters And Nice Sprites (Phonat Remix).flac -=- CDDA (99%)
6 -=- 06. Skrillex - Scary Monsters And Nice Sprites (The Juggernaut Remix).flac -=- CDDA (99%)
7 -=- 07. Skrillex - Scary Monsters And Nice Sprites (Kaskade Remix).flac -=- CDDA (100%)

Сводка 99,71% CDDA

229836724

01. Narcissistic Cannibal (3:13)
02. Narcissistic Cannibal (Original Mix) (4:05)

Код:

AUDIOCHECKER v2.0 beta (build 457) - by Dester - opdester@freemail.hu
~~~~~~~~~~~~~~~~~~~~~~~~~~~~~~~~~~
-=== DO NOT EDIT THIS FILE! ===-

Path: ...\Korn - 2011 - Narcissistic Cannibal

1 -=- 01 - Narcissistic Cannibal.flac -=- CDDA (99%)
2 -=- 02 - Narcissistic Cannibal (Original Mix).flac -=- CDDA (99%)

Summary 99,00% CDDA

192769492

info [Профиль]  [ЛС] 

kefirZ

Пол: Пол:Муж

Стаж: 4 года 11 месяцев

Сообщений: 33

Россия
Рейтинг

post 04-Апр-2012 21:02 (спустя 1 час 20 минут) [-]-17[+]

[Цитировать] 

 !  Oneguns:
Кто нибудь еще хочет отличиться? Следующие будут получать преды
info [Профиль]  [ЛС] 

Milky Way

Пол: Пол:Муж

Стаж: 6 лет

Сообщений: 255

Предупреждений: 1

Россия
Рейтинг

post 04-Апр-2012 21:06 (спустя 4 минуты) [-]1[+]

[Цитировать] 

Oneguns
молоррр!!

_________________
info [Профиль]  [ЛС] 

imBu

Пол: Пол:Муж

Стаж: 5 лет 3 месяца

Сообщений: 32

Россия
Рейтинг

post 04-Апр-2012 21:10 (спустя 4 минуты) [-]-1[+]

[Цитировать] 

kefirZ

Я бы тебя забанил, с радостью и того кто тебе выдал инвайт сюда до кучи ...
info [Профиль]  [ЛС] 

tuxupo

Пол: Пол:Муж

Стаж: 5 лет 5 месяцев

Сообщений: 111

Россия
Рейтинг

post 04-Апр-2012 21:25 (спустя 15 минут) [-]0[+]

[Цитировать] 

зачёт,хоть ток недавно услышал о нём но уже фанатею,автору огромное спасибо
info [Профиль]  [ЛС] 

VlaDai

Пол: Пол:Муж

Стаж: 5 лет 5 месяцев

Сообщений: 1051

Россия
Рейтинг

post 04-Апр-2012 21:35 (спустя 9 минут) [-]3[+]

[Цитировать] 

У него песенка неплохая есть kill everybody)) Правда только она и понравилась, а слышал давно её)

_________________
Слушаю митол и читаю мангу - айко наркоман.
info [Профиль]  [ЛС] 

Inshit

Пол: Пол:Муж

Стаж: 6 лет 9 месяцев

Сообщений: 65

Россия
Рейтинг

post 04-Апр-2012 21:38 (спустя 2 минуты) [-]1[+]

[Цитировать] 

хых) я про этого исполнителя узнал только благодаря игре Syndicate и одноименному саунд треку(кстати, норм так трек)
info [Профиль]  [ЛС] 

Hard Gamer

Пол: Пол:Муж

Стаж: 7 лет 3 месяца

Сообщений: 1889

Предупреждений: 1

Норфолк
Рейтинг

post 04-Апр-2012 22:26 (спустя 48 минут) [-]3[+]

[Цитировать] 

Skrillex, The Doors – Breakn' A Sweat (Original Mix)
Очень понравилась)

_________________
info [Профиль]  [ЛС] 

PSYCHO

Пол: Пол:Муж

Стаж: 6 лет 8 месяцев

Сообщений: 55

Россия
Рейтинг

post 04-Апр-2012 22:30 (спустя 3 минуты) [-]0[+]

[Цитировать] 

Огромное спасибо автору, обожаю Scrillex, у него на самом деле много таких драйвовых, присущих только ему и по которым можно его узнать треков. Буду очень рад и премного благодарен если раздача будет обновляться и пополняться. anime_1

_________________
info [Профиль]  [ЛС] 

HimeraDeCure

Пол: Пол:Муж

Стаж: 5 лет 4 месяца

Сообщений: 277

Россия
Рейтинг

post 04-Апр-2012 22:41 (спустя 11 минут) [-]1[+]

[Цитировать] 

Парни,почему у меня все раздачи красного цвета?Трекер вроде нормально работает,но другие раздачи,то есть других сайтов норм раздаются и качаются
info [Профиль]  [ЛС] 

VlaDai

Пол: Пол:Муж

Стаж: 5 лет 5 месяцев

Сообщений: 1051

Россия
Рейтинг

post 04-Апр-2012 23:13 (спустя 32 минуты) [-]0[+]

[Цитировать] 

HimeraDeCure
Это оффтоп вообще - то.Смотри как-бы дядя модератор не казнил.
а вообще вот здесь смотрел бы.

_________________
Слушаю митол и читаю мангу - айко наркоман.
info [Профиль]  [ЛС] 

VaLDeR

Пол: Пол:Муж

Стаж: 5 лет 4 месяца

Сообщений: 122

Предупреждений: 1

Россия
Рейтинг

post 04-Апр-2012 23:19 (спустя 5 минут) [-]1[+]

[Цитировать] 

Мне одному хочется добавить Л на обложке, чтобы получилось Колян?)))))

_________________
info [Профиль]  [ЛС] 

HimeraDeCure

Пол: Пол:Муж

Стаж: 5 лет 4 месяца

Сообщений: 277

Россия
Рейтинг

post 04-Апр-2012 23:47 (спустя 27 минут) [-]0[+]

[Цитировать] 

Извиняйте,сразу не сообразил в тех. раздел зайти,первый раз с таким столкнулся
info [Профиль]  [ЛС] 

Radio

Пол: Пол:Муж

Стаж: 5 лет 11 месяцев

Сообщений: 238

Япония
Рейтинг

post 05-Апр-2012 07:03 (спустя 7 часов) [-]0[+]

[Цитировать] 

Oneguns
Спасибо большое!
з.ы можно постер с главной? Улыбаюсь

_________________
Game - it is just the beginning.
info [Профиль]  [ЛС] 

Resistance

Пол: Пол:Муж

Стаж: 7 лет 2 месяца

Сообщений: 3639

Россия
Рейтинг

post 05-Апр-2012 09:05 (спустя 2 часа 1 минута) [-]1[+]

[Цитировать] 

Hard Gamer
Трек хороший, только Джим Моррисон в гробу наверное переворачивается, как электрическая подстанция.
Radio
Держите Улыбаюсь
info [Профиль]  [ЛС] 

Radio

Пол: Пол:Муж

Стаж: 5 лет 11 месяцев

Сообщений: 238

Япония
Рейтинг

post 05-Апр-2012 11:34 (спустя 2 часа 29 минут) [-]0[+]

[Цитировать] 

Oneguns писал(а):

Hard Gamer
Трек хороший, только Джим Моррисон в гробу наверное переворачивается, как электрическая подстанция.
Radio
Держите Улыбаюсь
Благодарю Подмигиваю

_________________
Game - it is just the beginning.
info [Профиль]  [ЛС] 

Needless

Стаж: 6 лет 9 месяцев

Сообщений: 6

Рейтинг

post 05-Апр-2012 23:56 (спустя 12 часов) [-]2[+]

[Цитировать] 

Oneguns
спасибо за хорошую музыку
желаю вам и дальше больше хороших релизов ))
info [Профиль]  [ЛС] 

IvaN9900

Пол: Пол:Муж

Стаж: 6 лет 9 месяцев

Сообщений: 353

Россия
Рейтинг

post 07-Апр-2012 19:47 (спустя 1 день 19 часов) [-]0[+]

[Цитировать] 

VaLDeR писал(а):

Мне одному хочется добавить Л на обложке, чтобы получилось Колян?)))))
эмм, это не раздача Корна kolob_107
info [Профиль]  [ЛС] 

killer684

Пол: Пол:Муж

Стаж: 6 лет 8 месяцев

Сообщений: 93

Россия
Рейтинг

post 06-Май-2012 14:16 (спустя 28 дней) [-]0[+]

[Цитировать] 

спасибо за дискографию

_________________
info [Профиль]  [ЛС] 

menmer

Пол: Пол:Муж

Стаж: 4 года 11 месяцев

Сообщений: 26

Россия
Рейтинг

post 19-Окт-2012 17:45 (спустя 5 месяцев 13 дней) [-]0[+]

[Цитировать] 

Обновлять раздачу собираетесь?
info [Профиль]  [ЛС] 
Показать сообщения:    
Ответить на тему

Текущее время: 08-Дек 09:57

Часовой пояс: GMT + 4



Вы не можете начинать темы
Вы не можете отвечать на сообщения
Вы не можете редактировать свои сообщения
Вы не можете удалять свои сообщения
Вы не можете голосовать в опросах
Вы не можете прикреплять файлы к сообщениям
Вы не можете скачивать файлы