Ошибка

BBC: Чудеса Солнечной системы / Wonders of the Solar System (Михаэль Лачман, Пол Олдинг) [2010 г., Документальный, BDRip 720p]

Ответить на тему
 
Автор Сообщение

рысь

Пол: Пол:Муж

Стаж: 6 лет 3 месяца

Сообщений: 155

Кот-д’Ивуар
Рейтинг

post 21-Мар-2012 05:34 1[+]

[Цитировать] 

BBC: Чудеса Солнечной системы / Wonders of the Solar System

Год выпуска: 2010
Страна: Великобритания
Жанр: Документальный
Продолжительность: 5 ~00:59:00
Перевод: Русский авторский перевод (студия "Лексикон" по заказу "Союз-Видео")
Язык субтитров: Русские.

Режиссер:
  • Михаэль Лачман, Пол Олдинг


В ролях:
  • Брайан Кокс, Дон Джулиано, Carl Murray, Кэролин Порко, Алан Хилдебранд, Ральф Лоренц, Эшли Дейвис, Ник Кайзер, Ричард Хувер, Джим Райс, ...


Описание: Научно-познавательная серия из 5-ти фильмов "Чудеса Солнечной системы" представляет перед нами великолепный мир вокруг нас в пределах, и за пределами нашей атмосферы, где всё подчиняется тем же законам физики. В этом фильме вместе с физиком Брайаном Коксом мы отправимся в интересные, живописные уголки нашей планеты, и в самые дальние и потрясающие пределы нашей Солнечной системы. Туда, откуда наше Солнце видится таким же маленьким, как и звёзды в ночном небе, туда, где расстояние до нас миллиарды километров, туда, где температуры, давление, плотность и все условия колоссально различные.



Доп. информация: Спасибо автору рипа: GYN

Качество:BDRip 720p
Формат: MKV
Видео кодек: H.264
Аудио кодек: AC3
Видео: MPEG-4 AVC, H.264, 1 280 x 720 (16:9); 25 fps; ~6 400 kbps; 0.28 bit/pixel
Аудио: 48 kHz, AC3 Dolby Digital, 3/2 (L,C,R,l,r) + LFE ch, ~448.00 kbps avg
1-я серия. "Империя Солнца" (продолжительность 58:23; размер 4.03 GB)
Мы увидим самое сердце Солнечной системы - Солнце, во всём его великолепии и мощи, и ознакомимся с масштабом влияния этой звезды на наш мир, влиянием, которое простирается на миллиарды километров вокруг самыми различными способами.

2-я серия. "Порядок из хаоса" (продолжительность 58:37; размер 3.94 GB)
Мы узнаем как из облака газа и пыли родилась наша звезда, и как она эволюционировала на протяжение своей жизни, создав миры, которые по праву являются чудесами Солнечной системы.

3-я серия. "Тонкая голубая линия" (продолжительность 59:00; размер 3.97 GB)
Мы поймем, какую роль играет атмосфера для космических тел, и побываем в атмосферах других миров Солнечной системы.

4-я серия. "Мертвое или Живое" (продолжительность 58:25; размер 3.99 GB)
Мы ознакомимся с жизнью и смертью планет и спутников, и их геологическими сердцами.

5-я серия. "Чужие" (продолжительность 59:06; размер 4.49 GB)
Мы наиболее реально подойдём к проблеме жизни и смерти за пределами нашей планеты, и выявим вещи, заслуживающие внимания.
General
Unique ID : 216878639575532218540355196368416581178 (0xA3294E7F04BC0CEFA4917ACD2C2AA63A)
Complete name : F:\раздачи\BBC.Chudesa.Solnechnoy.Sistemy.2010.RUS.BDRip.720p.h264.AC3.-GYN\BBC.Chudesa.Solnechnoy.Sistemy.2010.E01.Of.05.RUS.BDRip.720p.h264.AC3.-GYN.mkv
Format : Matroska
Format version : Version 2
File size : 2.91 GiB
Duration : 58mn 27s
Overall bit rate mode : Variable
Overall bit rate : 7 133 Kbps
Movie name : BBC: Чудеса Солнечной системы (2010) Серия 1: Империя Солнца
Encoded date : UTC 2012-03-19 12:04:49
Writing application : mkvmerge v3.3.0 ('Language') built on Mar 24 2010 14:59:24
Writing library : libebml v0.8.0 + libmatroska v0.9.0

Video
ID : 1
Format : AVC
Format/Info : Advanced Video Codec
Format profile : High@L4.1
Format settings, CABAC : Yes
Format settings, ReFrames : 6 frames
Codec ID : V_MPEG4/ISO/AVC
Duration : 58mn 27s
Bit rate mode : Variable
Bit rate : 6 409 Kbps
Width : 1 280 pixels
Height : 720 pixels
Display aspect ratio : 16:9
Frame rate : 25.000 fps
Color space : YUV
Chroma subsampling : 4:2:0
Bit depth : 8 bits
Scan type : Progressive
Bits/(Pixel*Frame) : 0.278
Stream size : 2.67 GiB (92%)
Title : Encoded by GYN

Audio
ID : 2
Format : AC-3
Format/Info : Audio Coding 3
Mode extension : CM (complete main)
Codec ID : A_AC3
Duration : 58mn 27s
Bit rate mode : Constant
Bit rate : 448 Kbps
Channel(s) : 6 channels
Channel positions : Front: L C R, Side: L R, LFE
Sampling rate : 48.0 KHz
Bit depth : 16 bits
Compression mode : Lossy
Stream size : 187 MiB (6%)
Title : VO
Language : Russian

Text
ID : 3
Format : UTF-8
Codec ID : S_TEXT/UTF8
Codec ID/Info : UTF-8 Plain Text
Language : Russian

Menu
00:00:00.000 : en:Chapter 00
00:09:47.360 : en:Chapter 01
00:20:42.680 : en:Chapter 02
00:34:01.120 : en:Chapter 03
00:47:23.440 : en:Chapter 04
info [Профиль]  [ЛС] 

viktorius3

Пол: Пол:Муж

Стаж: 5 лет 4 месяца

Сообщений: 436

Предупреждений: 2

Новая Зеландия
Рейтинг

post 23-Сен-2012 23:59 (спустя 6 месяцев 2 дня) [-]0[+]

[Цитировать] 

отличная передачка.спс

_________________
info [Профиль]  [ЛС] 

defeas

Стаж: 7 лет 7 месяцев

Сообщений: 29

Албания
Рейтинг

post 02-Апр-2013 15:16 (спустя 6 месяцев 8 дней) [-]0[+]

[Цитировать] 

Сид дай скорости пожалуйста.
info [Профиль]  [ЛС] 

Kreator2

Стаж: 6 лет 1 месяц

Сообщений: 30

Рейтинг

post 02-Апр-2013 15:57 (спустя 40 минут) [-]0[+]

[Цитировать] 

Замечательный фильм! Кокс жжот! Всем советую!

_________________
Save our fragile planet!
info [Профиль]  [ЛС] 
Показать сообщения:    
Ответить на тему

Текущее время: 05-Дек 18:36

Часовой пояс: GMT + 4



Вы не можете начинать темы
Вы не можете отвечать на сообщения
Вы не можете редактировать свои сообщения
Вы не можете удалять свои сообщения
Вы не можете голосовать в опросах
Вы не можете прикреплять файлы к сообщениям
Вы не можете скачивать файлы