Ошибка

Афросамурай / Afro Samurai [TV] [1-5 из 5] [2007] [самурайский боевик] [BDRip] [1080p] [Профессиональный(ENG+SUB)]

Ответить на тему
 
Автор Сообщение

mallaigne

Пол: Пол:Муж

Стаж: 5 лет 1 месяц

Сообщений: 93

Предупреждений: 1

Россия
Рейтинг

post 18-Мар-2012 14:03 1[+]

[Цитировать] 

Афросамурай / Afro Samurai


Год выпуска: 2007
Страна: США, Япония
Жанр: самурайский боевик
Продолжительность: 5 эп. по ~26 мин. (02:11:22)
Оригинальная озвучка:
- Samuel L. Jackson - Afro Samurai / Ninja Ninja (voice)
- Zachary Gordon - Kitaro (voice)
- Mark Hamill - Bin (voice)
- Lucy Liu - Sio (voice)
- Yuri Lowenthal - Jinno / Kuma (voice)
- Liam O'Brien - Shichigoro
Перевод:
  • русские субтитры от Dusker & fedor
Русская озвучка:
  • многоголосая (R5) - MC-Entertainment
  • одноголосая (муж.) - Юрий Сербин
  • одноголосая (муж.) - Cuba77

Режиссер: Кидзаки Фуминори
Студия: GONZO
Описание:
В мире самураев, существуют только два великих воина в повязках, их называют Первый и Второй. Первый считается как божество, человек вызов которому может дать только Второй великий самурай. Второму же, приходится сложнее, каждый может претендовать на его место или же попытаться уничтожить, поэтому жизнь Второго, постоянно находится под опасностью. Все началось с того, как к Первому, пришел Второй и победил его, в итоге он стал неприкосновенным, оставив сыну погибшего отца, бывшего Первого, слова - "Я буду ждать!". Сын вырос и стал могущестенным самураем, он стал Вторым, и теперь он отправляется на поиски Первого, чтобы отомстить, встречая множество опасностей по пути...
Информационные ссылки: AniDB || World Art || MAL
Доп. информация: Собственный рип
-=Раздача ведется в промежуток с 7:00 по 19:00 по Московскому времени=-
Качество: BDRip
Тип видео: без хардсаба
Формат: mkv
Видео: H.264, 1920x1080 (16:9), ~6300 Kbps, 23.976fps
Аудио RUS 1: AC3, 48000Hz, 384 Kbps, 6ch (в составе контейнера)
Аудио RUS 2: AC3, 48000Hz, 192 Kbps, 2ch (в составе контейнера)
Аудио RUS 3: AC3, 48000Hz, 224 Kbps, 2ch (в составе контейнера)
Аудио ENG: DTS, 48000Hz, 1510 Kbps, 6ch, 24-bit (в составе контейнера)
Субтитры: Русский (ASS) (в составе контейнера)

Скачать сэмпл "Афросамурай / Afro Samurai"
1. Pilot: Revenge
2. The Dream Reader
3. The Clan of the Empty Seven
4. Duel
5. Justice
x264 [info]: frame I:285 Avg QP:11.84 size:165462 PSNR Mean Y:55.76 U:59.87 V:60.13 Avg:56.62 Global:56.07
x264 [info]: frame P:12889 Avg QP:15.07 size: 62655 PSNR Mean Y:53.43 U:57.05 V:57.28 Avg:54.17 Global:53.66
x264 [info]: frame B:24604 Avg QP:18.09 size: 16117 PSNR Mean Y:52.31 U:56.36 V:56.50 Avg:53.12 Global:52.43
x264 [info]: consecutive B-frames: 7.5% 6.2% 52.3% 13.0% 7.9% 8.8% 2.3% 0.6% 0.4% 0.3% 0.6%
x264 [info]: mb I I16..4: 13.0% 79.4% 7.7%
x264 [info]: mb P I16..4: 6.3% 30.7% 2.3% P16..4: 29.2% 15.2% 3.5% 0.0% 0.0% skip:12.9%
x264 [info]: mb B I16..4: 1.3% 4.0% 0.2% B16..8: 34.4% 9.1% 1.1% direct: 2.7% skip:47.3% L0:42.2% L1:51.5% BI:
6.3%
x264 [info]: 8x8 transform intra:77.3% inter:64.7%
x264 [info]: direct mvs spatial:91.0% temporal:9.0%
x264 [info]: coded y,uvDC,uvAC intra: 52.4% 65.6% 53.8% inter: 9.8% 14.6% 6.9%
x264 [info]: i16 v,h,dc,p: 44% 21% 7% 27%
x264 [info]: i8 v,h,dc,ddl,ddr,vr,hd,vl,hu: 14% 15% 24% 7% 7% 7% 8% 8% 10%
x264 [info]: i4 v,h,dc,ddl,ddr,vr,hd,vl,hu: 19% 18% 26% 5% 9% 6% 7% 4% 5%
x264 [info]: i8c dc,h,v,p: 52% 28% 12% 8%
x264 [info]: Weighted P-Frames: Y:2.8% UV:1.8%
x264 [info]: ref P L0: 63.3% 4.0% 20.7% 7.8% 4.1% 0.0%
x264 [info]: ref B L0: 81.0% 15.7% 3.3%
x264 [info]: ref B L1: 85.4% 14.6%
x264 [info]: SSIM Mean Y:0.9956479 (23.613db)
x264 [info]: PSNR Mean Y:52.716 U:56.622 V:56.792 Avg:53.502 Global:52.831 kb/s:6353.02

encoded 37778 frames, 5.10 fps, 6353.03 kb/s
I:\Anime\Afro Samurai [Афро самурай]\Afro Samurai [Афросамурай] [TV] (2007)\Afro Samurai e01 Pilot - Revenge (2007) 1920x1080 BDRip by -=mallaigne=- RusEngSubChpt.mkv
General
Unique ID : 173556266223246554932750920189060012327 (0x8291B89479716EAB89DB10856FE75927)
Complete name : I:\Anime\Afro Samurai [Афро самурай]\Afro Samurai [Афросамурай] [TV] (2007)\Afro Samurai e01 Pilot - Revenge (2007) 1920x1080 BDRip by -=mallaigne=- RusEngSubChpt.mkv
Format : Matroska
Format version : Version 2
File size : 1.59 GiB
Duration : 26mn 15s
Overall bit rate : 8 666 Kbps
Movie name : ripped by -=mallaigne=-
Encoded date : UTC 2012-03-16 10:37:36
Writing application : mkvmerge v5.4.0 ('Piper') built on Mar 10 2012 13:34:39
Writing library : libebml v1.2.3 + libmatroska v1.3.0
Video #1
ID : 1
Format : AVC
Format/Info : Advanced Video Codec
Format profile : High@L4.1
Format settings, CABAC : Yes
Format settings, ReFrames : 4 frames
Codec ID : V_MPEG4/ISO/AVC
Duration : 26mn 15s
Bit rate : 6 352 Kbps
Width : 1 920 pixels
Height : 1 080 pixels
Display aspect ratio : 16:9
Frame rate : 23.976 fps
Color space : YUV
Chroma subsampling : 4:2:0
Bit depth : 8 bits
Scan type : Progressive
Bits/(Pixel*Frame) : 0.128
Stream size : 1.13 GiB (71%)
Writing library : x264 core 122 r2184 5c85e0a
Encoding settings : cabac=1 / ref=4 / deblock=1:-1:-1 / analyse=0x3:0x113 / me=umh / subme=11 / psy=1 / psy_rd=0.50:0.00 / mixed_ref=1 / me_range=48 / chroma_me=1 / trellis=2 / 8x8dct=1 / cqm=0 / deadzone=21,11 / fast_pskip=0 / chroma_qp_offset=-2 / threads=12 / sliced_threads=0 / nr=0 / decimate=0 / interlaced=0 / bluray_compat=0 / constrained_intra=0 / bframes=10 / b_pyramid=2 / b_adapt=2 / b_bias=0 / direct=3 / weightb=1 / open_gop=0 / weightp=2 / keyint=240 / keyint_min=23 / scenecut=40 / intra_refresh=0 / rc_lookahead=40 / rc=2pass / mbtree=1 / bitrate=6352 / ratetol=1.0 / qcomp=0.60 / qpmin=0 / qpmax=69 / qpstep=4 / cplxblur=20.0 / qblur=0.5 / ip_ratio=1.40 / aq=1:0.60
Language : English
Default : Yes
Forced : No
Color primaries : BT.709-5, BT.1361, IEC 61966-2-4, SMPTE RP177
Transfer characteristics : BT.709-5, BT.1361
Matrix coefficients : BT.709-5, BT.1361, IEC 61966-2-4 709, SMPTE RP177
Audio #2
ID : 2
Format : AC-3
Format/Info : Audio Coding 3
Mode extension : CM (complete main)
Codec ID : A_AC3
Duration : 26mn 15s
Bit rate mode : Constant
Bit rate : 384 Kbps
Channel(s) : 6 channels
Channel positions : Front: L C R, Side: L R, LFE
Sampling rate : 48.0 KHz
Bit depth : 16 bits
Compression mode : Lossy
Stream size : 72.1 MiB (4%)
Title : MVO AC3 6ch 384kbps (MC-Entertainment)
Language : Russian
Default : Yes
Forced : No
Audio #3
ID : 3
Format : AC-3
Format/Info : Audio Coding 3
Format profile : Dolby Digital
Mode extension : CM (complete main)
Codec ID : A_AC3
Duration : 26mn 15s
Bit rate mode : Constant
Bit rate : 192 Kbps
Channel(s) : 2 channels
Channel positions : Front: L R
Sampling rate : 48.0 KHz
Bit depth : 16 bits
Compression mode : Lossy
Stream size : 36.1 MiB (2%)
Title : AVO AC3 2ch 192kbps (Ю.Сербин)
Language : Russian
Default : No
Forced : No
Audio #4
ID : 4
Format : AC-3
Format/Info : Audio Coding 3
Format profile : Dolby Digital
Mode extension : CM (complete main)
Codec ID : A_AC3
Duration : 26mn 15s
Bit rate mode : Constant
Bit rate : 224 Kbps
Channel(s) : 2 channels
Channel positions : Front: L R
Sampling rate : 48.0 KHz
Bit depth : 16 bits
Compression mode : Lossy
Stream size : 42.1 MiB (3%)
Title : VO AC3 2ch 224kbps (Cuba77)
Language : Russian
Default : No
Forced : No
Audio #5
ID : 5
Format : DTS
Format/Info : Digital Theater Systems
Codec ID : A_DTS
Duration : 26mn 15s
Bit rate mode : Constant
Bit rate : 1 510 Kbps
Channel(s) : 6 channels
Channel positions : Front: L C R, Side: L R, LFE
Sampling rate : 48.0 KHz
Bit depth : 24 bits
Compression mode : Lossy
Stream size : 284 MiB (17%)
Title : Original DTS 6ch 1510kbps
Language : English
Default : No
Forced : No
Text #6
ID : 6
Format : ASS
Codec ID : S_TEXT/ASS
Codec ID/Info : Advanced Sub Station Alpha
Compression mode : Lossless
Language : Russian
Default : Yes
Forced : No
Menu
00:00:00.000 : en:00:00:00.000
00:04:38.361 : en:00:04:38.361
00:09:35.408 : en:00:09:35.408
00:14:46.719 : en:00:14:46.719
00:19:30.461 : en:00:19:30.461
00:24:29.468 : en:00:24:29.468
x264 [info]: frame I:307 Avg QP:14.18 size:141716 PSNR Mean Y:54.21 U:58.19 V:58.34 Avg:55.01 Global:54.24
x264 [info]: frame P:11284 Avg QP:16.83 size: 55287 PSNR Mean Y:52.25 U:56.32 V:56.45 Avg:53.00 Global:52.15
x264 [info]: frame B:26232 Avg QP:19.15 size: 22208 PSNR Mean Y:51.15 U:55.08 V:55.24 Avg:51.91 Global:50.64
x264 [info]: consecutive B-frames: 4.8% 5.8% 39.5% 15.8% 8.6% 22.4% 1.6% 0.4% 0.1% 0.1% 1.0%
x264 [info]: mb I I16..4: 10.5% 84.4% 5.0%
x264 [info]: mb P I16..4: 5.2% 31.6% 1.1% P16..4: 29.3% 16.2% 3.1% 0.0% 0.0% skip:13.4%
x264 [info]: mb B I16..4: 1.5% 8.7% 0.1% B16..8: 27.6% 9.6% 1.1% direct: 4.2% skip:47.3% L0:45.4% L1:49.3% BI:
5.3%
x264 [info]: 8x8 transform intra:84.0% inter:74.7%
x264 [info]: direct mvs spatial:95.7% temporal:4.3%
x264 [info]: coded y,uvDC,uvAC intra: 68.2% 67.9% 49.4% inter: 13.9% 16.1% 5.6%
x264 [info]: i16 v,h,dc,p: 40% 16% 6% 38%
x264 [info]: i8 v,h,dc,ddl,ddr,vr,hd,vl,hu: 23% 10% 19% 6% 7% 9% 7% 9% 10%
x264 [info]: i4 v,h,dc,ddl,ddr,vr,hd,vl,hu: 27% 14% 25% 5% 9% 7% 6% 4% 4%
x264 [info]: i8c dc,h,v,p: 39% 34% 18% 9%
x264 [info]: Weighted P-Frames: Y:3.6% UV:2.3%
x264 [info]: ref P L0: 57.0% 3.7% 24.3% 10.9% 4.0% 0.0%
x264 [info]: ref B L0: 75.6% 18.8% 5.6%
x264 [info]: ref B L1: 86.1% 13.9%
x264 [info]: SSIM Mean Y:0.9926000 (21.308db)
x264 [info]: PSNR Mean Y:51.504 U:55.478 V:55.622 Avg:52.260 Global:51.058 kb/s:6338.60

encoded 37823 frames, 5.14 fps, 6338.61 kb/s
I:\Anime\Afro Samurai [Афро самурай]\Afro Samurai [Афросамурай] [TV] (2007)\Afro Samurai e02 The Dream Reader (2007) 1920x1080 BDRip by -=mallaigne=- RusEngSubChpt.mkv
General
Unique ID : 183753459861296155219557287011675161200 (0x8A3DA10AF055232F8EE2B388CE424270)
Complete name : I:\Anime\Afro Samurai [Афро самурай]\Afro Samurai [Афросамурай] [TV] (2007)\Afro Samurai e02 The Dream Reader (2007) 1920x1080 BDRip by -=mallaigne=- RusEngSubChpt.mkv
Format : Matroska
Format version : Version 2
File size : 1.59 GiB
Duration : 26mn 17s
Overall bit rate : 8 652 Kbps
Movie name : ripped by -=mallaigne=-
Encoded date : UTC 2012-03-16 14:07:45
Writing application : mkvmerge v5.4.0 ('Piper') built on Mar 10 2012 13:34:39
Writing library : libebml v1.2.3 + libmatroska v1.3.0
Video #1
ID : 1
Format : AVC
Format/Info : Advanced Video Codec
Format profile : High@L4.1
Format settings, CABAC : Yes
Format settings, ReFrames : 4 frames
Codec ID : V_MPEG4/ISO/AVC
Duration : 26mn 17s
Bit rate : 6 342 Kbps
Width : 1 920 pixels
Height : 1 080 pixels
Display aspect ratio : 16:9
Frame rate : 23.976 fps
Color space : YUV
Chroma subsampling : 4:2:0
Bit depth : 8 bits
Scan type : Progressive
Bits/(Pixel*Frame) : 0.128
Stream size : 1.13 GiB (71%)
Writing library : x264 core 122 r2184 5c85e0a
Encoding settings : cabac=1 / ref=4 / deblock=1:-1:-1 / analyse=0x3:0x113 / me=umh / subme=11 / psy=1 / psy_rd=0.50:0.00 / mixed_ref=1 / me_range=48 / chroma_me=1 / trellis=2 / 8x8dct=1 / cqm=0 / deadzone=21,11 / fast_pskip=0 / chroma_qp_offset=-2 / threads=12 / sliced_threads=0 / nr=0 / decimate=0 / interlaced=0 / bluray_compat=0 / constrained_intra=0 / bframes=10 / b_pyramid=2 / b_adapt=2 / b_bias=0 / direct=3 / weightb=1 / open_gop=0 / weightp=2 / keyint=240 / keyint_min=23 / scenecut=40 / intra_refresh=0 / rc_lookahead=40 / rc=2pass / mbtree=1 / bitrate=6342 / ratetol=1.0 / qcomp=0.60 / qpmin=0 / qpmax=69 / qpstep=4 / cplxblur=20.0 / qblur=0.5 / ip_ratio=1.40 / aq=1:0.60
Language : English
Default : Yes
Forced : No
Color primaries : BT.709-5, BT.1361, IEC 61966-2-4, SMPTE RP177
Transfer characteristics : BT.709-5, BT.1361
Matrix coefficients : BT.709-5, BT.1361, IEC 61966-2-4 709, SMPTE RP177
Audio #2
ID : 2
Format : AC-3
Format/Info : Audio Coding 3
Mode extension : CM (complete main)
Codec ID : A_AC3
Duration : 26mn 17s
Bit rate mode : Constant
Bit rate : 384 Kbps
Channel(s) : 6 channels
Channel positions : Front: L C R, Side: L R, LFE
Sampling rate : 48.0 KHz
Bit depth : 16 bits
Compression mode : Lossy
Stream size : 72.2 MiB (4%)
Title : MVO AC3 6ch 384kbps (MC-Entertainment)
Language : Russian
Default : Yes
Forced : No
Audio #3
ID : 3
Format : AC-3
Format/Info : Audio Coding 3
Format profile : Dolby Digital
Mode extension : CM (complete main)
Codec ID : A_AC3
Duration : 26mn 17s
Bit rate mode : Constant
Bit rate : 192 Kbps
Channel(s) : 2 channels
Channel positions : Front: L R
Sampling rate : 48.0 KHz
Bit depth : 16 bits
Compression mode : Lossy
Stream size : 36.1 MiB (2%)
Title : AVO AC3 2ch 192kbps (Ю.Сербин)
Language : Russian
Default : No
Forced : No
Audio #4
ID : 4
Format : AC-3
Format/Info : Audio Coding 3
Format profile : Dolby Digital
Mode extension : CM (complete main)
Codec ID : A_AC3
Duration : 26mn 17s
Bit rate mode : Constant
Bit rate : 224 Kbps
Channel(s) : 2 channels
Channel positions : Front: L R
Sampling rate : 48.0 KHz
Bit depth : 16 bits
Compression mode : Lossy
Stream size : 42.1 MiB (3%)
Title : VO AC3 2ch 224kbps (Cuba77)
Language : Russian
Default : No
Forced : No
Audio #5
ID : 5
Format : DTS
Format/Info : Digital Theater Systems
Codec ID : A_DTS
Duration : 26mn 17s
Bit rate mode : Constant
Bit rate : 1 510 Kbps
Channel(s) : 6 channels
Channel positions : Front: L C R, Side: L R, LFE
Sampling rate : 48.0 KHz
Bit depth : 24 bits
Compression mode : Lossy
Stream size : 284 MiB (17%)
Title : Original DTS 6ch 1510kbps
Language : English
Default : No
Forced : No
Text #6
ID : 6
Format : ASS
Codec ID : S_TEXT/ASS
Codec ID/Info : Advanced Sub Station Alpha
Compression mode : Lossless
Language : Russian
Default : Yes
Forced : No
Menu
00:00:00.000 : en:00:00:00.000
00:00:30.030 : en:00:00:30.030
00:05:29.704 : en:00:05:29.704
00:11:44.913 : en:00:11:44.913
00:18:51.797 : en:00:18:51.797
00:24:31.470 : en:00:24:31.470
x264 [info]: frame I:279 Avg QP:12.33 size:139514 PSNR Mean Y:55.47 U:60.49 V:60.06 Avg:56.41 Global:55.95
x264 [info]: frame P:13212 Avg QP:15.34 size: 54313 PSNR Mean Y:53.37 U:57.94 V:57.57 Avg:54.24 Global:53.81
x264 [info]: frame B:24332 Avg QP:17.98 size: 20297 PSNR Mean Y:52.48 U:57.09 V:56.49 Avg:53.32 Global:52.64
x264 [info]: consecutive B-frames: 8.8% 6.0% 50.3% 14.6% 7.1% 9.1% 1.8% 0.9% 0.5% 0.3% 0.5%
x264 [info]: mb I I16..4: 11.7% 80.7% 7.6%
x264 [info]: mb P I16..4: 5.8% 34.5% 2.3% P16..4: 27.8% 14.7% 2.7% 0.0% 0.0% skip:12.2%
x264 [info]: mb B I16..4: 1.7% 7.5% 0.3% B16..8: 31.5% 8.2% 1.0% direct: 2.5% skip:47.3% L0:43.7% L1:50.9% BI:
5.4%
x264 [info]: 8x8 transform intra:80.5% inter:70.4%
x264 [info]: direct mvs spatial:92.9% temporal:7.1%
x264 [info]: coded y,uvDC,uvAC intra: 59.1% 65.3% 53.3% inter: 9.6% 13.5% 6.8%
x264 [info]: i16 v,h,dc,p: 38% 21% 6% 36%
x264 [info]: i8 v,h,dc,ddl,ddr,vr,hd,vl,hu: 24% 15% 19% 5% 6% 7% 7% 7% 8%
x264 [info]: i4 v,h,dc,ddl,ddr,vr,hd,vl,hu: 33% 16% 21% 4% 8% 6% 5% 4% 4%
x264 [info]: i8c dc,h,v,p: 49% 30% 14% 7%
x264 [info]: Weighted P-Frames: Y:4.4% UV:2.6%
x264 [info]: ref P L0: 61.0% 2.9% 21.4% 9.8% 4.8% 0.1%
x264 [info]: ref B L0: 77.9% 17.4% 4.7%
x264 [info]: ref B L1: 85.1% 14.9%
x264 [info]: SSIM Mean Y:0.9954360 (23.407db)
x264 [info]: PSNR Mean Y:52.814 U:57.415 V:56.894 Avg:53.661 Global:53.029 kb/s:6340.86

encoded 37823 frames, 5.08 fps, 6340.87 kb/s
I:\Anime\Afro Samurai [Афро самурай]\Afro Samurai [Афросамурай] [TV] (2007)\Afro Samurai e03 The Clan of the Empty Seven (2007) 1920x1080 BDRip by -=mallaigne=- RusEngSubChpt.mkv
General
Unique ID : 178947663043894054593568598629016719396 (0x86A010F74BBD13B390D7A83170B4D024)
Complete name : I:\Anime\Afro Samurai [Афро самурай]\Afro Samurai [Афросамурай] [TV] (2007)\Afro Samurai e03 The Clan of the Empty Seven (2007) 1920x1080 BDRip by -=mallaigne=- RusEngSubChpt.mkv
Format : Matroska
Format version : Version 2
File size : 1.59 GiB
Duration : 26mn 17s
Overall bit rate : 8 654 Kbps
Movie name : ripped by -=mallaigne=-
Encoded date : UTC 2012-03-17 04:11:36
Writing application : mkvmerge v5.4.0 ('Piper') built on Mar 10 2012 13:34:39
Writing library : libebml v1.2.3 + libmatroska v1.3.0
Video #1
ID : 1
Format : AVC
Format/Info : Advanced Video Codec
Format profile : High@L4.1
Format settings, CABAC : Yes
Format settings, ReFrames : 4 frames
Codec ID : V_MPEG4/ISO/AVC
Duration : 26mn 17s
Bit rate : 6 342 Kbps
Width : 1 920 pixels
Height : 1 080 pixels
Display aspect ratio : 16:9
Frame rate : 23.976 fps
Color space : YUV
Chroma subsampling : 4:2:0
Bit depth : 8 bits
Scan type : Progressive
Bits/(Pixel*Frame) : 0.128
Stream size : 1.13 GiB (71%)
Writing library : x264 core 122 r2184 5c85e0a
Encoding settings : cabac=1 / ref=4 / deblock=1:-1:-1 / analyse=0x3:0x113 / me=umh / subme=11 / psy=1 / psy_rd=0.50:0.00 / mixed_ref=1 / me_range=48 / chroma_me=1 / trellis=2 / 8x8dct=1 / cqm=0 / deadzone=21,11 / fast_pskip=0 / chroma_qp_offset=-2 / threads=12 / sliced_threads=0 / nr=0 / decimate=0 / interlaced=0 / bluray_compat=0 / constrained_intra=0 / bframes=10 / b_pyramid=2 / b_adapt=2 / b_bias=0 / direct=3 / weightb=1 / open_gop=0 / weightp=2 / keyint=240 / keyint_min=23 / scenecut=40 / intra_refresh=0 / rc_lookahead=40 / rc=2pass / mbtree=1 / bitrate=6342 / ratetol=1.0 / qcomp=0.60 / qpmin=0 / qpmax=69 / qpstep=4 / cplxblur=20.0 / qblur=0.5 / ip_ratio=1.40 / aq=1:0.60
Language : English
Default : Yes
Forced : No
Color primaries : BT.709-5, BT.1361, IEC 61966-2-4, SMPTE RP177
Transfer characteristics : BT.709-5, BT.1361
Matrix coefficients : BT.709-5, BT.1361, IEC 61966-2-4 709, SMPTE RP177
Audio #2
ID : 2
Format : AC-3
Format/Info : Audio Coding 3
Mode extension : CM (complete main)
Codec ID : A_AC3
Duration : 26mn 17s
Bit rate mode : Constant
Bit rate : 384 Kbps
Channel(s) : 6 channels
Channel positions : Front: L C R, Side: L R, LFE
Sampling rate : 48.0 KHz
Bit depth : 16 bits
Compression mode : Lossy
Stream size : 72.2 MiB (4%)
Title : MVO AC3 6ch 384kbps (MC-Entertainment)
Language : Russian
Default : Yes
Forced : No
Audio #3
ID : 3
Format : AC-3
Format/Info : Audio Coding 3
Format profile : Dolby Digital
Mode extension : CM (complete main)
Codec ID : A_AC3
Duration : 26mn 17s
Bit rate mode : Constant
Bit rate : 192 Kbps
Channel(s) : 2 channels
Channel positions : Front: L R
Sampling rate : 48.0 KHz
Bit depth : 16 bits
Compression mode : Lossy
Stream size : 36.1 MiB (2%)
Title : AVO AC3 2ch 192kbps (Ю.Сербин)
Language : Russian
Default : No
Forced : No
Audio #4
ID : 4
Format : AC-3
Format/Info : Audio Coding 3
Format profile : Dolby Digital
Mode extension : CM (complete main)
Codec ID : A_AC3
Duration : 26mn 17s
Bit rate mode : Constant
Bit rate : 224 Kbps
Channel(s) : 2 channels
Channel positions : Front: L R
Sampling rate : 48.0 KHz
Bit depth : 16 bits
Compression mode : Lossy
Stream size : 42.1 MiB (3%)
Title : VO AC3 2ch 224kbps (Cuba77)
Language : Russian
Default : No
Forced : No
Audio #5
ID : 5
Format : DTS
Format/Info : Digital Theater Systems
Codec ID : A_DTS
Duration : 26mn 17s
Bit rate mode : Constant
Bit rate : 1 510 Kbps
Channel(s) : 6 channels
Channel positions : Front: L C R, Side: L R, LFE
Sampling rate : 48.0 KHz
Bit depth : 24 bits
Compression mode : Lossy
Stream size : 284 MiB (17%)
Title : Original DTS 6ch 1510kbps
Language : English
Default : No
Forced : No
Text #6
ID : 6
Format : ASS
Codec ID : S_TEXT/ASS
Codec ID/Info : Advanced Sub Station Alpha
Compression mode : Lossless
Language : Russian
Default : Yes
Forced : No
Menu
00:00:00.000 : en:00:00:00.000
00:00:30.030 : en:00:00:30.030
00:07:19.773 : en:00:07:19.773
00:14:22.445 : en:00:14:22.445
00:19:38.844 : en:00:19:38.844
00:24:31.470 : en:00:24:31.470
x264 [info]: frame I:276 Avg QP:14.65 size:135041 PSNR Mean Y:53.02 U:58.42 V:59.80 Avg:54.17 Global:53.53
x264 [info]: frame P:10918 Avg QP:17.09 size: 55541 PSNR Mean Y:51.84 U:57.29 V:58.41 Avg:52.94 Global:52.12
x264 [info]: frame B:26627 Avg QP:19.32 size: 22752 PSNR Mean Y:49.91 U:55.13 V:56.35 Avg:51.01 Global:50.06
x264 [info]: consecutive B-frames: 6.4% 5.2% 29.2% 11.1% 6.1% 39.6% 1.1% 0.6% 0.2% 0.1% 0.4%
x264 [info]: mb I I16..4: 8.6% 87.3% 4.2%
x264 [info]: mb P I16..4: 5.4% 35.3% 1.3% P16..4: 29.7% 16.1% 2.6% 0.0% 0.0% skip: 9.7%
x264 [info]: mb B I16..4: 1.2% 6.5% 0.1% B16..8: 30.5% 13.0% 1.4% direct: 5.6% skip:41.7% L0:45.4% L1:48.7% BI:
5.9%
x264 [info]: 8x8 transform intra:83.9% inter:78.7%
x264 [info]: direct mvs spatial:94.5% temporal:5.5%
x264 [info]: coded y,uvDC,uvAC intra: 64.9% 59.6% 37.6% inter: 17.6% 15.3% 3.6%
x264 [info]: i16 v,h,dc,p: 26% 17% 6% 52%
x264 [info]: i8 v,h,dc,ddl,ddr,vr,hd,vl,hu: 13% 12% 17% 8% 9% 9% 10% 9% 12%
x264 [info]: i4 v,h,dc,ddl,ddr,vr,hd,vl,hu: 22% 17% 18% 5% 11% 8% 8% 5% 6%
x264 [info]: i8c dc,h,v,p: 37% 38% 17% 7%
x264 [info]: Weighted P-Frames: Y:5.0% UV:3.1%
x264 [info]: ref P L0: 56.7% 4.5% 24.8% 11.1% 2.8% 0.1%
x264 [info]: ref B L0: 77.9% 17.6% 4.6%
x264 [info]: ref B L1: 87.3% 12.7%
x264 [info]: SSIM Mean Y:0.9905963 (20.267db)
x264 [info]: PSNR Mean Y:50.488 U:55.775 V:56.966 Avg:51.588 Global:50.584 kb/s:6336.81

encoded 37821 frames, 4.87 fps, 6336.81 kb/s
I:\Anime\Afro Samurai [Афро самурай]\Afro Samurai [Афросамурай] [TV] (2007)\Afro Samurai e04 Duel (2007) 1920x1080 BDRip by -=mallaigne=- RusEngSubChpt.mkv
General
Unique ID : 200730302932870507476614582253569789005 (0x97034007A16EA24DB90822E218194C4D)
Complete name : I:\Anime\Afro Samurai [Афро самурай]\Afro Samurai [Афросамурай] [TV] (2007)\Afro Samurai e04 Duel (2007) 1920x1080 BDRip by -=mallaigne=- RusEngSubChpt.mkv
Format : Matroska
Format version : Version 2
File size : 1.59 GiB
Duration : 26mn 17s
Overall bit rate : 8 650 Kbps
Movie name : ripped by -=mallaigne=-
Encoded date : UTC 2012-03-17 07:59:02
Writing application : mkvmerge v5.4.0 ('Piper') built on Mar 10 2012 13:34:39
Writing library : libebml v1.2.3 + libmatroska v1.3.0
Video #1
ID : 1
Format : AVC
Format/Info : Advanced Video Codec
Format profile : High@L4.1
Format settings, CABAC : Yes
Format settings, ReFrames : 4 frames
Codec ID : V_MPEG4/ISO/AVC
Duration : 26mn 17s
Bit rate : 6 342 Kbps
Width : 1 920 pixels
Height : 1 080 pixels
Display aspect ratio : 16:9
Frame rate : 23.976 fps
Color space : YUV
Chroma subsampling : 4:2:0
Bit depth : 8 bits
Scan type : Progressive
Bits/(Pixel*Frame) : 0.128
Stream size : 1.13 GiB (71%)
Writing library : x264 core 122 r2184 5c85e0a
Encoding settings : cabac=1 / ref=4 / deblock=1:-1:-1 / analyse=0x3:0x113 / me=umh / subme=11 / psy=1 / psy_rd=0.50:0.00 / mixed_ref=1 / me_range=48 / chroma_me=1 / trellis=2 / 8x8dct=1 / cqm=0 / deadzone=21,11 / fast_pskip=0 / chroma_qp_offset=-2 / threads=12 / sliced_threads=0 / nr=0 / decimate=0 / interlaced=0 / bluray_compat=0 / constrained_intra=0 / bframes=10 / b_pyramid=2 / b_adapt=2 / b_bias=0 / direct=3 / weightb=1 / open_gop=0 / weightp=2 / keyint=240 / keyint_min=23 / scenecut=40 / intra_refresh=0 / rc_lookahead=40 / rc=2pass / mbtree=1 / bitrate=6342 / ratetol=1.0 / qcomp=0.60 / qpmin=0 / qpmax=69 / qpstep=4 / cplxblur=20.0 / qblur=0.5 / ip_ratio=1.40 / aq=1:0.60
Language : English
Default : Yes
Forced : No
Color primaries : BT.709-5, BT.1361, IEC 61966-2-4, SMPTE RP177
Transfer characteristics : BT.709-5, BT.1361
Matrix coefficients : BT.709-5, BT.1361, IEC 61966-2-4 709, SMPTE RP177
Audio #2
ID : 2
Format : AC-3
Format/Info : Audio Coding 3
Mode extension : CM (complete main)
Codec ID : A_AC3
Duration : 26mn 17s
Bit rate mode : Constant
Bit rate : 384 Kbps
Channel(s) : 6 channels
Channel positions : Front: L C R, Side: L R, LFE
Sampling rate : 48.0 KHz
Bit depth : 16 bits
Compression mode : Lossy
Stream size : 72.2 MiB (4%)
Title : MVO AC3 6ch 384kbps (MC-Entertainment)
Language : Russian
Default : Yes
Forced : No
Audio #3
ID : 3
Format : AC-3
Format/Info : Audio Coding 3
Format profile : Dolby Digital
Mode extension : CM (complete main)
Codec ID : A_AC3
Duration : 26mn 17s
Bit rate mode : Constant
Bit rate : 192 Kbps
Channel(s) : 2 channels
Channel positions : Front: L R
Sampling rate : 48.0 KHz
Bit depth : 16 bits
Compression mode : Lossy
Stream size : 36.1 MiB (2%)
Title : AVO AC3 2ch 192kbps (Ю.Сербин)
Language : Russian
Default : No
Forced : No
Audio #4
ID : 4
Format : AC-3
Format/Info : Audio Coding 3
Format profile : Dolby Digital
Mode extension : CM (complete main)
Codec ID : A_AC3
Duration : 26mn 17s
Bit rate mode : Constant
Bit rate : 224 Kbps
Channel(s) : 2 channels
Channel positions : Front: L R
Sampling rate : 48.0 KHz
Bit depth : 16 bits
Compression mode : Lossy
Stream size : 42.1 MiB (3%)
Title : VO AC3 2ch 224kbps (Cuba77)
Language : Russian
Default : No
Forced : No
Audio #5
ID : 5
Format : DTS
Format/Info : Digital Theater Systems
Codec ID : A_DTS
Duration : 26mn 17s
Bit rate mode : Constant
Bit rate : 1 510 Kbps
Channel(s) : 6 channels
Channel positions : Front: L C R, Side: L R, LFE
Sampling rate : 48.0 KHz
Bit depth : 24 bits
Compression mode : Lossy
Stream size : 284 MiB (17%)
Title : Original DTS 6ch 1510kbps
Language : English
Default : No
Forced : No
Text #6
ID : 6
Format : ASS
Codec ID : S_TEXT/ASS
Codec ID/Info : Advanced Sub Station Alpha
Compression mode : Lossless
Language : Russian
Default : Yes
Forced : No
Menu
00:00:00.000 : en:00:00:00.000
00:04:38.361 : en:00:04:38.361
00:09:35.408 : en:00:09:35.408
00:14:46.719 : en:00:14:46.719
00:19:30.460 : en:00:19:30.460
00:24:29.468 : en:00:24:29.468
x264 [info]: frame I:239 Avg QP:14.02 size:136028 PSNR Mean Y:54.48 U:59.52 V:58.50 Avg:55.24 Global:54.19
x264 [info]: frame P:13487 Avg QP:17.81 size: 49024 PSNR Mean Y:52.50 U:56.77 V:56.17 Avg:53.22 Global:52.37
x264 [info]: frame B:23999 Avg QP:20.56 size: 23324 PSNR Mean Y:51.79 U:57.01 V:55.95 Avg:52.57 Global:51.00
x264 [info]: consecutive B-frames: 11.0% 6.1% 46.0% 10.4% 6.7% 15.1% 1.9% 0.4% 0.6% 0.6% 1.1%
x264 [info]: mb I I16..4: 15.2% 75.9% 8.9%
x264 [info]: mb P I16..4: 8.9% 33.5% 1.5% P16..4: 26.4% 13.7% 2.6% 0.0% 0.0% skip:13.5%
x264 [info]: mb B I16..4: 1.9% 7.7% 0.1% B16..8: 28.8% 7.6% 0.8% direct: 2.9% skip:50.0% L0:42.5% L1:51.4% BI:
6.1%
x264 [info]: 8x8 transform intra:77.0% inter:73.2%
x264 [info]: direct mvs spatial:90.0% temporal:10.0%
x264 [info]: coded y,uvDC,uvAC intra: 51.2% 51.7% 28.5% inter: 9.5% 13.9% 5.1%
x264 [info]: i16 v,h,dc,p: 29% 22% 6% 42%
x264 [info]: i8 v,h,dc,ddl,ddr,vr,hd,vl,hu: 13% 13% 22% 7% 8% 9% 9% 9% 11%
x264 [info]: i4 v,h,dc,ddl,ddr,vr,hd,vl,hu: 22% 17% 24% 5% 10% 7% 7% 4% 5%
x264 [info]: i8c dc,h,v,p: 27% 46% 17% 10%
x264 [info]: Weighted P-Frames: Y:5.6% UV:3.1%
x264 [info]: ref P L0: 62.4% 5.4% 20.3% 7.9% 3.9% 0.1%
x264 [info]: ref B L0: 82.0% 14.8% 3.3%
x264 [info]: ref B L1: 86.5% 13.5%
x264 [info]: SSIM Mean Y:0.9939574 (22.188db)
x264 [info]: PSNR Mean Y:52.063 U:56.940 V:56.048 Avg:52.819 Global:51.456 kb/s:6372.98

encoded 37725 frames, 4.89 fps, 6372.98 kb/s
I:\Anime\Afro Samurai [Афро самурай]\Afro Samurai [Афросамурай] [TV] (2007)\Afro Samurai e05 Justice (2007) 1920x1080 BDRip by -=mallaigne=- RusEngSubChpt.mkv
General
Unique ID : 252889824275577641686354767620498185246 (0xBE40CEFB2FFBD7819B6B3D9F8332DC1E)
Complete name : I:\Anime\Afro Samurai [Афро самурай]\Afro Samurai [Афросамурай] [TV] (2007)\Afro Samurai e05 Justice (2007) 1920x1080 BDRip by -=mallaigne=- RusEngSubChpt.mkv
Format : Matroska
Format version : Version 2
File size : 1.59 GiB
Duration : 26mn 13s
Overall bit rate : 8 686 Kbps
Movie name : ripped by -=mallaigne=-
Encoded date : UTC 2012-03-17 11:44:35
Writing application : mkvmerge v5.4.0 ('Piper') built on Mar 10 2012 13:34:39
Writing library : libebml v1.2.3 + libmatroska v1.3.0
Video #1
ID : 1
Format : AVC
Format/Info : Advanced Video Codec
Format profile : High@L4.1
Format settings, CABAC : Yes
Format settings, ReFrames : 4 frames
Codec ID : V_MPEG4/ISO/AVC
Duration : 26mn 13s
Bit rate : 6 364 Kbps
Width : 1 920 pixels
Height : 1 080 pixels
Display aspect ratio : 16:9
Frame rate : 23.976 fps
Color space : YUV
Chroma subsampling : 4:2:0
Bit depth : 8 bits
Scan type : Progressive
Bits/(Pixel*Frame) : 0.128
Stream size : 1.14 GiB (71%)
Writing library : x264 core 122 r2184 5c85e0a
Encoding settings : cabac=1 / ref=4 / deblock=1:-1:-1 / analyse=0x3:0x113 / me=umh / subme=11 / psy=1 / psy_rd=0.50:0.00 / mixed_ref=1 / me_range=48 / chroma_me=1 / trellis=2 / 8x8dct=1 / cqm=0 / deadzone=21,11 / fast_pskip=0 / chroma_qp_offset=-2 / threads=12 / sliced_threads=0 / nr=0 / decimate=0 / interlaced=0 / bluray_compat=0 / constrained_intra=0 / bframes=10 / b_pyramid=2 / b_adapt=2 / b_bias=0 / direct=3 / weightb=1 / open_gop=0 / weightp=2 / keyint=240 / keyint_min=23 / scenecut=40 / intra_refresh=0 / rc_lookahead=40 / rc=2pass / mbtree=1 / bitrate=6364 / ratetol=1.0 / qcomp=0.60 / qpmin=0 / qpmax=69 / qpstep=4 / cplxblur=20.0 / qblur=0.5 / ip_ratio=1.40 / aq=1:0.60
Language : English
Default : Yes
Forced : No
Color primaries : BT.709-5, BT.1361, IEC 61966-2-4, SMPTE RP177
Transfer characteristics : BT.709-5, BT.1361
Matrix coefficients : BT.709-5, BT.1361, IEC 61966-2-4 709, SMPTE RP177
Audio #2
ID : 2
Format : AC-3
Format/Info : Audio Coding 3
Mode extension : CM (complete main)
Codec ID : A_AC3
Duration : 26mn 13s
Bit rate mode : Constant
Bit rate : 384 Kbps
Channel(s) : 6 channels
Channel positions : Front: L C R, Side: L R, LFE
Sampling rate : 48.0 KHz
Bit depth : 16 bits
Compression mode : Lossy
Stream size : 72.0 MiB (4%)
Title : MVO AC3 6ch 384kbps (MC-Entertainment)
Language : Russian
Default : Yes
Forced : No
Audio #3
ID : 3
Format : AC-3
Format/Info : Audio Coding 3
Format profile : Dolby Digital
Mode extension : CM (complete main)
Codec ID : A_AC3
Duration : 26mn 13s
Bit rate mode : Constant
Bit rate : 192 Kbps
Channel(s) : 2 channels
Channel positions : Front: L R
Sampling rate : 48.0 KHz
Bit depth : 16 bits
Compression mode : Lossy
Stream size : 36.0 MiB (2%)
Title : AVO AC3 2ch 192kbps (Ю.Сербин)
Language : Russian
Default : No
Forced : No
Audio #4
ID : 4
Format : AC-3
Format/Info : Audio Coding 3
Format profile : Dolby Digital
Mode extension : CM (complete main)
Codec ID : A_AC3
Duration : 26mn 13s
Bit rate mode : Constant
Bit rate : 224 Kbps
Channel(s) : 2 channels
Channel positions : Front: L R
Sampling rate : 48.0 KHz
Bit depth : 16 bits
Compression mode : Lossy
Stream size : 42.0 MiB (3%)
Title : VO AC3 2ch 224kbps (Cuba77)
Language : Russian
Default : No
Forced : No
Audio #5
ID : 5
Format : DTS
Format/Info : Digital Theater Systems
Codec ID : A_DTS
Duration : 26mn 13s
Bit rate mode : Constant
Bit rate : 1 510 Kbps
Channel(s) : 6 channels
Channel positions : Front: L C R, Side: L R, LFE
Sampling rate : 48.0 KHz
Bit depth : 24 bits
Compression mode : Lossy
Stream size : 283 MiB (17%)
Title : Original DTS 6ch 1510kbps
Language : English
Default : No
Forced : No
Text #6
ID : 6
Format : ASS
Codec ID : S_TEXT/ASS
Codec ID/Info : Advanced Sub Station Alpha
Compression mode : Lossless
Language : Russian
Default : Yes
Forced : No
Menu
00:00:00.000 : en:00:00:00.000
00:00:30.030 : en:00:00:30.030
00:06:22.465 : en:00:06:22.465
00:11:19.971 : en:00:11:19.971
00:17:45.147 : en:00:17:45.147
00:24:26.965 : en:00:24:26.965
По поводу версий: всего есть три версии: 1) TV-версия - разбита на 5 эпизодов, то, что показывалось в США по ТВ, самая короткая версия, сейчас ее уже наверно трудно найти; 2) Uncut - то есть версия не порезанная на эпизоды, представлена в виде полнометражного фильма, показывалась в Японии и выходила там же на BD - присутствует много сцен, которых не было в TV-версии и отсутствует несколько сцен, которые есть в TV-версии; 3) Director's Cut - самая полная и самая длинная версия, порезана на 5 эпизодов, выходила в США на BD от Funimation, в Великобритании на BD от Manga, в Германии на BD от Universum Anime и в Австралии на BD от Madman, в России на DVD от MC-Entertainment и на DVD с переводом Гаврилова. В раздаче представлен великобританский трансфер Director's Cut версии от Manga.

По поводу русской озвучки: псевдодубляж от 2х2 не был добавлен в раздачу по причине ужасного качества - моно-дорога; задавлены почти полностью все хлипы, стоны, возгласы и не озвучены заново русскими актерами; ужасно громкий общий звук дороги, в следствие чего в динамиках при прослушивании слышны скрежеты, хрусты и прочие прелести низкокачественной дороги с высокой громкостью, что очень сильно бьет по ушам; слышны остатки диалогов на английском, поскольку не были вычищены до конца. Озвучку от кубы лучше не слушать - ужасный перевод, еще в первой серии громкость оригинала в левом канале под озвучкой меньше, чем в правом, из-за этого присутствует перекос всего звука, кроме голоса кубы направо.

По поводу сабов: сабы от Dusker'а делались под TV-версию, поэтому в сценах, которых нет в TV-версии, вставлены сабы от conservator'а из Uncut версии, а в сценах, которых нет ни в TV-версии, ни в Uncut версии, вставлены сабы от MC-Entertainment с ихнего DVD. Перевод у Dusker'а - хорош, у conservator'а - посредственен, местами плох, у MC-Entertainment - ужасен, почти одна отсебятина.

По поводу японской озвучки: ее не существует, в Японии Афро Самурай показывался с андабом и японскими субтитрами, андаб - оригинальная озвучка.
info [Профиль]  [ЛС] 

3den

Пол: Пол:Муж

Стаж: 7 лет 4 месяца

Сообщений: 225

Россия
Рейтинг

post 19-Мар-2012 22:38 (спустя 1 день 8 часов) [-]-6[+]

[Цитировать] 

Какого-то убогого Кубу77 оставил, а ништякового Гаврилова выпилил... kolob_129
info [Профиль]  [ЛС] 

kurkah

Пол: Пол:Муж

Стаж: 6 лет 8 месяцев

Сообщений: 111

Россия
Рейтинг

post 20-Мар-2012 00:24 (спустя 1 час 45 минут) [-]0[+]

[Цитировать] 

А кто вообще такой Юрий Сербин?
info [Профиль]  [ЛС] 

dwAxel

Пол: Пол:Муж

Стаж: 7 лет 3 месяца

Сообщений: 82

Молдавия
Рейтинг

post 20-Мар-2012 04:48 (спустя 4 часа) [-]3[+]

[Цитировать] 

Куба хорошо озвучивает, лучше многих прочих, с душой, с эмоциями и юмором. А вот именно аниме в озвучке Гамадрилова я бы не стал смотреть и никому не советую. =)

_________________
Единственным правообладателем в этом мире является его создатель. (dwAxel)
info [Профиль]  [ЛС] 

mallaigne

Пол: Пол:Муж

Стаж: 5 лет 1 месяц

Сообщений: 93

Предупреждений: 1

Россия
Рейтинг

post 20-Мар-2012 05:37 (спустя 49 минут) [-]-1[+]

[Цитировать] 

kurkah
у Сербина тоже хороший голос кстати

_________________
не умеешь качать - не берись, например!
info [Профиль]  [ЛС] 

3den

Пол: Пол:Муж

Стаж: 7 лет 4 месяца

Сообщений: 225

Россия
Рейтинг

post 21-Мар-2012 23:42 (спустя 1 день 18 часов) [-]-1[+]

[Цитировать] 

dwAxel писал(а):

Куба хорошо озвучивает, лучше многих прочих, с душой, с эмоциями и юмором. А вот именно аниме в озвучке Гамадрилова я бы не стал смотреть и никому не советую. =)
Всё с вами понятно, уважаемый....
info [Профиль]  [ЛС] 

carboncat

Стаж: 6 лет 9 месяцев

Сообщений: 669

Предупреждений: 2

Рейтинг

post 12-Май-2012 21:58 (спустя 1 месяц 21 день) [-]1[+]

[Цитировать] 

3den писал(а):

Какого-то убогого Кубу77 оставил, а ништякового Гаврилова выпилил... kolob_129
Я прямо противоположного мнения.
info [Профиль]  [ЛС] 
Показать сообщения:    
Ответить на тему

Текущее время: 11-Дек 06:19

Часовой пояс: GMT + 4



Вы не можете начинать темы
Вы не можете отвечать на сообщения
Вы не можете редактировать свои сообщения
Вы не можете удалять свои сообщения
Вы не можете голосовать в опросах
Вы не можете прикреплять файлы к сообщениям
Вы не можете скачивать файлы