Ошибка

BBC: Тайная жизнь хаоса / The Secret Life of Chaos (Ник Стэйси) [2010, документальный, HDTVRip-AVC] VO

Ответить на тему
 
Автор Сообщение

rimo

Пол: Пол:Муж

Стаж: 5 лет 4 месяца

Сообщений: 1752

Украина
Рейтинг

post 16-Мар-2012 01:13 1[+]

[Цитировать] 

BBC: Тайная жизнь хаоса / The Secret Life of Chaos


Год выпуска: 2010
Страна:
Жанр: Документальный, научно-популярный
Телекананл:
Продолжительность: 00:59:14
Перевод: Любительский (одноголосый)
Субтитры: отсутствуют
Режиссер:
  • Ник Стэйси
В ролях:
  • Джим Аль-Хэлили, Иэн Стюарт, Эндрю Ходжс, Андреа Селла, Роберт Мей, Торстен Райль и др.

Описание: Теория хаоса вызывает в воображении картины непредсказуемой погоды, экономических крахов и бессилия науки. Но у хаоса есть захватывающая и скрытая сторона. Та, которую ученые только сейчас начинают понимать.

Оказывается, что теория хаоса отвечает на вопрос, на который человечество искало ответ в течение многих тысячелетий — как мы оказались здесь? В этом документальном фильме профессор Джим Аль-Хэлили намеревается раскрыть одну из величайших тайн науки — что движет вселенную, которая начинается как пыль и в итоге заканчивается как разумная жизнь?
Как действительно создается порядок из беспорядка?


(kolob_200) Конопля: вредная трава?
(kolob_200) Наблюдая звёзды
(kolob_200) Бесконечная бесконечность
(kolob_200) Теория Всего от Athene's
(kolob_200) Что было до Большого взрыва
Качество: HDTVRip-AVC
Формат: MKV
Видео кодек: H.264
Аудио кодек: MP3 / AC3
Видео: 1024х576 (1.77:1), 25,000 fps, AVC (х264), High@L3.1, ~1850 Kbps avg, 0.125 bit/pixel
Аудио#1: [русский] 48.0 kHz, MP3, 2 channels, ~128.00 kbps avg [любительский, одноголосый]
Аудио#2: [английский] 48.0 KHz, AC3 Dolby Digital, 2 channels (Front: L R), ~192.00 kbps avg [оригинальный]
Общее
Уникальный идентификатор : 249290919648737908197507260518687121566 (0xBB8BAF489986A026AFC496EA0161209E)
Полное имя : H:\Tapok\bbc_tainaya_zhizn_haosa.mkv
Формат : Matroska
Версия формата : Version 2
Размер файла : 919 Мбайт
Продолжительность : 59 м.
Общий поток : 2170 Кбит/сек
Дата кодирования : UTC 2010-12-27 17:34:26
Программа кодирования : mkvmerge v4.3.0 ('Escape from the Island') збірка від Sep 5 2010 10:30:51
Библиотека кодирования : libebml v1.0.0 + libmatroska v1.0.0

Видео
Идентификатор : 1
Формат : AVC
Формат/Информация : Advanced Video Codec
Профиль формата : High@L3.1
Параметр CABAC формата : Нет
Параметр ReFrames формата : 4 кадра
Режим смешивания : Header stripping
Идентификатор кодека : V_MPEG4/ISO/AVC
Продолжительность : 59 м.
Битрейт : 1850 Кбит/сек
Ширина : 1024 пикселя
Высота : 576 пикселей
Соотношение сторон : 16:9
Частота кадров : 25,000 кадров/сек
Цветовое пространство : YUV
Субдискретизация насыщенности : 4:2:0
Битовая глубина : 8 бит
Тип развёртки : Прогрессивная
Бит/(Пиксели*Кадры) : 0.125
Размер потока : 765 Мбайт (83%)
Библиотека кодирования : x264 core 80 r1376 3feaec2
Настройки программы : cabac=0 / ref=4 / deblock=1:0:0 / analyse=0x3:0x113 / me=umh / subme=9 / psy=1 / psy_rd=1.0:0.0 / mixed_ref=1

/ me_range=24 / chroma_me=1 / trellis=0 / 8x8dct=1 / cqm=0 / deadzone=21,11 / fast_pskip=0 / chroma_qp_offset=-2 / threads=3 / sliced_threads=0 / nr=0 /

decimate=1 / mbaff=0 / constrained_intra=0 / bframes=3 / b_pyramid=0 / b_adapt=1 / b_bias=0 / direct=1 / wpredb=1 / wpredp=2 / keyint=250 / keyint_min=25

/ scenecut=40 / rc_lookahead=40 / rc=2pass / mbtree=1 / bitrate=1850 / ratetol=1.0 / qcomp=0.60 / qpmin=10 / qpmax=51 / qpstep=4 / cplxblur=20.0 /

qblur=0.5 / vbv_maxrate=17500 / vbv_bufsize=14000 / ip_ratio=1.40 / aq=1:1.00
Язык : English
Default : Да
Forced : Нет

Аудио #1
Идентификатор : 2
Формат : MPEG Audio
Версия формата : Version 1
Профиль формата : Layer 3
Режим : Joint stereo
Расширение режима : MS Stereo
Режим смешивания : Header stripping
Идентификатор кодека : A_MPEG/L3
Идентификатор кодека/Подсказка : MP3
Продолжительность : 59 м.
Вид битрейта : Постоянный
Битрейт : 128 Кбит/сек
Каналы : 2 канала
Частота : 44,1 КГц
Метод сжатия : С потерями
Размер потока : 54,2 Мбайт (6%)
Язык : Russian
Default : Да
Forced : Нет

Аудио #2
Идентификатор : 3
Формат : AC-3
Формат/Информация : Audio Coding 3
Расширение режима : CM (complete main)
Режим смешивания : Header stripping
Идентификатор кодека : A_AC3
Продолжительность : 59 м.
Вид битрейта : Постоянный
Битрейт : 192 Кбит/сек
Каналы : 2 канала
Расположение каналов : Front: L R
Частота : 48,0 КГц
Битовая глубина : 16 бит
Метод сжатия : С потерями
Размер потока : 81,3 Мбайт (9%)
Язык : English
Default : Нет
Forced : Нет

Текст #1
Идентификатор : 4
Формат : UTF-8
Идентификатор кодека : S_TEXT/UTF8
Идентификатор кодека/Информация : UTF-8 Plain Text
Язык : English
Default : Да
Forced : Нет

Текст #2
Идентификатор : 5
Формат : UTF-8
Идентификатор кодека : S_TEXT/UTF8
Идентификатор кодека/Информация : UTF-8 Plain Text
Язык : Russian
Default : Нет
Forced : Нет
info [Профиль]  [ЛС] 

luvenam

Пол: Пол:Муж

Стаж: 6 лет 8 месяцев

Сообщений: 30

Россия
Рейтинг

post 16-Мар-2012 15:35 (спустя 14 часов) [-]1[+]

[Цитировать] 

Видео про жизнь в оке ужаса? Улыбаюсь
info [Профиль]  [ЛС] 
Показать сообщения:    
Ответить на тему

Текущее время: 04-Дек 12:16

Часовой пояс: GMT + 4



Вы не можете начинать темы
Вы не можете отвечать на сообщения
Вы не можете редактировать свои сообщения
Вы не можете удалять свои сообщения
Вы не можете голосовать в опросах
Вы не можете прикреплять файлы к сообщениям
Вы не можете скачивать файлы