Ошибка

(Eurobeat, OST) Various Artists - Super Eurobeat Presents - Initial D - Millennium Box - 2000, FLAC (tracks+.cue)+covers, lossless

Ответить на тему
 
Автор Сообщение

SilverTea

Пол: Пол:Муж

Стаж: 9 лет 6 месяцев

Сообщений: 80

Рейтинг

post 02-Сен-2010 14:54 0[+]

[Цитировать] 

Various Artists - Super Eurobeat Presents - Initial D - Millennium Box

Жанр: Eurobeat, OST
Год первого издания: 2000
Страна-производитель носителя: Япония
Тип релиза: tracks+.cue
Аудио кодек: FLAC
Битрейт аудио: lossless
Общая продолжительность: 05:40:39
Источник: What.CD (K1RZA)
Продолжительность: 01:12:09
Треклист:
01. Dave Rodgers - Space Boy
02. Edo Boys - No One Sleep in Tokyo
03. Jilly - Be My Babe
04. Leslie Parrish - Remember Me
05. Man Power - Spark in the Dark
06. Lou Grant - Don't Stop the Music
07. Delta Queens - Dance Around the World
08. Mega NRG Man - Get Me Power
09. Max Coveri - Running in the Nineties
10. Nathalie - Heartbeat
11. Tommy K - Break the Night
12. Mega NRG Man - Back on the Rocks
13. Leslie Parrish - Save Me
14. Susan Bell - My Only Star
15. Move - Around the World (Dave Rodgers re-mix)

Код:

Exact Audio Copy V0.99 prebeta 5 from 4. May 2009

EAC extraction logfile from 19. May 2009, 10:43

Various Artists / Initial D Millennium Box (Disc 1)

Used drive  : ASUS    DRW-1814BLT   Adapter: 1  ID: 2

Read mode               : Secure
Utilize accurate stream : Yes
Defeat audio cache      : Yes
Make use of C2 pointers : No

Read offset correction                      : 6
Overread into Lead-In and Lead-Out          : No
Fill up missing offset samples with silence : Yes
Delete leading and trailing silent blocks   : No
Null samples used in CRC calculations       : Yes
Used interface                              : Installed external ASPI interface
Gap handling                                : Appended to previous track

Used output format              : User Defined Encoder
Selected bitrate                : 128 kBit/s
Quality                         : High
Add ID3 tag                     : No
Command line compressor         : C:\Program Files\FLAC\flac.exe
Additional command line options : -8 -V -T "ARTIST=%a" -T "TITLE=%t" -T "ALBUM=%g" -T "DATE=%y" -T "TRACKNUMBER=%n" -T "GENRE=%m" -T "COMMENT=ripper by K1RZA" %s

TOC of the extracted CD

     Track |   Start  |  Length  | Start sector | End sector
    ---------------------------------------------------------
        1  |  0:00.00 |  4:58.15 |         0    |    22364   
        2  |  4:58.15 |  5:02.55 |     22365    |    45069   
        3  | 10:00.70 |  4:46.35 |     45070    |    66554   
        4  | 14:47.30 |  4:44.15 |     66555    |    87869   
        5  | 19:31.45 |  4:40.27 |     87870    |   108896   
        6  | 24:11.72 |  4:49.13 |    108897    |   130584   
        7  | 29:01.10 |  4:58.72 |    130585    |   153006   
        8  | 34:00.07 |  4:45.58 |    153007    |   174439   
        9  | 38:45.65 |  4:44.70 |    174440    |   195809   
       10  | 43:30.60 |  5:01.72 |    195810    |   218456   
       11  | 48:32.57 |  4:52.00 |    218457    |   240356   
       12  | 53:24.57 |  4:49.20 |    240357    |   262051   
       13  | 58:14.02 |  4:34.15 |    262052    |   282616   
       14  | 62:48.17 |  4:46.20 |    282617    |   304086   
       15  | 67:34.37 |  4:34.50 |    304087    |   324686   

Track  1

     Filename C:\EACrips\01. Dave Rodgers - Space Boy.wav

     Pre-gap length  0:00:02.00

     Peak level 98.8 %
     Track quality 99.9 %
     Test CRC 5A70C345
     Copy CRC 5A70C345
     Accurately ripped (confidence 2)  [D87BA62C]
     Copy OK

Track  2

     Filename C:\EACrips\02. Edo Boys - No One Sleep In Tokyo.wav

     Pre-gap length  0:00:01.72

     Peak level 98.8 %
     Track quality 100.0 %
     Test CRC 30D5475A
     Copy CRC 30D5475A
     Accurately ripped (confidence 2)  [EC07223D]
     Copy OK

Track  3

     Filename C:\EACrips\03. Jilly - Be My Babe.wav

     Pre-gap length  0:00:00.69

     Peak level 98.8 %
     Track quality 100.0 %
     Test CRC 278F1B42
     Copy CRC 278F1B42
     Accurately ripped (confidence 2)  [72B6D748]
     Copy OK

Track  4

     Filename C:\EACrips\04. Leslie Parrish - Remember Me.wav

     Pre-gap length  0:00:01.05

     Peak level 98.8 %
     Track quality 100.0 %
     Test CRC CF444CF4
     Copy CRC CF444CF4
     Accurately ripped (confidence 2)  [D134059D]
     Copy OK

Track  5

     Filename C:\EACrips\05. Man Power - Spark In The Dark.wav

     Pre-gap length  0:00:01.24

     Peak level 98.8 %
     Track quality 100.0 %
     Test CRC 4378AC7D
     Copy CRC 4378AC7D
     Accurately ripped (confidence 2)  [E2F251EC]
     Copy OK

Track  6

     Filename C:\EACrips\06. Lou Grant - Don't Stop The Music.wav

     Pre-gap length  0:00:01.05

     Peak level 98.8 %
     Track quality 100.0 %
     Test CRC 0EF0B764
     Copy CRC 0EF0B764
     Accurately ripped (confidence 2)  [40890FE9]
     Copy OK

Track  7

     Filename C:\EACrips\07. Delta Queens - Dance Around The World.wav

     Pre-gap length  0:00:01.05

     Peak level 98.8 %
     Track quality 100.0 %
     Test CRC 1DABFA37
     Copy CRC 1DABFA37
     Accurately ripped (confidence 2)  [5406B765]
     Copy OK

Track  8

     Filename C:\EACrips\08. Mega NRG Man - Get Me Power.wav

     Pre-gap length  0:00:01.12

     Peak level 98.8 %
     Track quality 100.0 %
     Test CRC 4B773AA2
     Copy CRC 4B773AA2
     Accurately ripped (confidence 2)  [1EE7C3D5]
     Copy OK

Track  9

     Filename C:\EACrips\09. Max Coveri - Running In The 90's.wav

     Pre-gap length  0:00:01.09

     Peak level 98.8 %
     Track quality 99.9 %
     Test CRC BEAD23FE
     Copy CRC BEAD23FE
     Accurately ripped (confidence 2)  [2EE08B2D]
     Copy OK

Track 10

     Filename C:\EACrips\10. Nathalie - Heartbeat.wav

     Pre-gap length  0:00:01.09

     Peak level 98.8 %
     Track quality 100.0 %
     Test CRC A4C01E61
     Copy CRC A4C01E61
     Accurately ripped (confidence 2)  [9952E173]
     Copy OK

Track 11

     Filename C:\EACrips\11. Tommy K - Break The Night.wav

     Pre-gap length  0:00:00.58

     Peak level 98.8 %
     Track quality 100.0 %
     Test CRC 3AD31344
     Copy CRC 3AD31344
     Accurately ripped (confidence 2)  [81DA52ED]
     Copy OK

Track 12

     Filename C:\EACrips\12. Mega NRG Man - Back On The Rocks.wav

     Pre-gap length  0:00:01.32

     Peak level 98.8 %
     Track quality 100.0 %
     Test CRC 925A2278
     Copy CRC 925A2278
     Accurately ripped (confidence 2)  [AB344BEC]
     Copy OK

Track 13

     Filename C:\EACrips\13. Leslie Parrish - Save Me.wav

     Pre-gap length  0:00:01.25

     Peak level 98.8 %
     Track quality 100.0 %
     Test CRC 500805EF
     Copy CRC 500805EF
     Accurately ripped (confidence 2)  [88B71862]
     Copy OK

Track 14

     Filename C:\EACrips\14. Susan Bell - My Only Star.wav

     Pre-gap length  0:00:01.38

     Peak level 98.8 %
     Track quality 99.9 %
     Test CRC F270BECA
     Copy CRC F270BECA
     Accurately ripped (confidence 2)  [DC4FAE97]
     Copy OK

Track 15

     Filename C:\EACrips\15. Move - Around The World (Dave Rodgers Remix).wav

     Pre-gap length  0:00:01.32

     Peak level 98.8 %
     Track quality 100.0 %
     Test CRC D47324FF
     Copy CRC D47324FF
     Accurately ripped (confidence 2)  [0DD6B42A]
     Copy OK

All tracks accurately ripped

No errors occurred

End of status report

Код:

REM GENRE Eurobeat
REM DATE 2000
REM DISCID C010E90F
REM COMMENT "ExactAudioCopy v0.99pb5"
PERFORMER "Various Artists"
TITLE "Initial D Millennium Box (Disc 1)"
FILE "01. Dave Rodgers - Space Boy.wav" WAVE
  TRACK 01 AUDIO
    TITLE "Space Boy"
    PERFORMER "Dave Rodgers"
    INDEX 01 00:00:00
  TRACK 02 AUDIO
    TITLE "No One Sleep In Tokyo"
    PERFORMER "Edo Boys"
    INDEX 00 04:56:36
FILE "02. Edo Boys - No One Sleep In Tokyo.wav" WAVE
    INDEX 01 00:00:00
  TRACK 03 AUDIO
    TITLE "Be My Babe"
    PERFORMER "Jilly"
    INDEX 00 05:02:03
FILE "03. Jilly - Be My Babe.wav" WAVE
    INDEX 01 00:00:00
  TRACK 04 AUDIO
    TITLE "Remember Me"
    PERFORMER "Leslie Parrish"
    INDEX 00 04:45:31
FILE "04. Leslie Parrish - Remember Me.wav" WAVE
    INDEX 01 00:00:00
  TRACK 05 AUDIO
    TITLE "Spark In The Dark"
    PERFORMER "Man Power"
    INDEX 00 04:42:72
FILE "05. Man Power - Spark In The Dark.wav" WAVE
    INDEX 01 00:00:00
  TRACK 06 AUDIO
    TITLE "Don't Stop The Music"
    PERFORMER "Lou Grant"
    INDEX 00 04:39:23
FILE "06. Lou Grant - Don't Stop The Music.wav" WAVE
    INDEX 01 00:00:00
  TRACK 07 AUDIO
    TITLE "Dance Around The World"
    PERFORMER "Delta Queens"
    INDEX 00 04:48:09
FILE "07. Delta Queens - Dance Around The World.wav" WAVE
    INDEX 01 00:00:00
  TRACK 08 AUDIO
    TITLE "Get Me Power"
    PERFORMER "Mega NRG Man"
    INDEX 00 04:57:63
FILE "08. Mega NRG Man - Get Me Power.wav" WAVE
    INDEX 01 00:00:00
  TRACK 09 AUDIO
    TITLE "Running In The 90's"
    PERFORMER "Max Coveri"
    INDEX 00 04:44:51
FILE "09. Max Coveri - Running In The 90's.wav" WAVE
    INDEX 01 00:00:00
  TRACK 10 AUDIO
    TITLE "Heartbeat"
    PERFORMER "Nathalie"
    INDEX 00 04:43:63
FILE "10. Nathalie - Heartbeat.wav" WAVE
    INDEX 01 00:00:00
  TRACK 11 AUDIO
    TITLE "Break The Night"
    PERFORMER "Tommy K"
    INDEX 00 05:01:28
FILE "11. Tommy K - Break The Night.wav" WAVE
    INDEX 01 00:00:00
  TRACK 12 AUDIO
    TITLE "Back On The Rocks"
    PERFORMER "Mega NRG Man"
    INDEX 00 04:50:51
FILE "12. Mega NRG Man - Back On The Rocks.wav" WAVE
    INDEX 01 00:00:00
  TRACK 13 AUDIO
    TITLE "Save Me"
    PERFORMER "Leslie Parrish"
    INDEX 00 04:48:01
FILE "13. Leslie Parrish - Save Me.wav" WAVE
    INDEX 01 00:00:00
  TRACK 14 AUDIO
    TITLE "My Only Star"
    PERFORMER "Susan Bell"
    INDEX 00 04:32:61
FILE "14. Susan Bell - My Only Star.wav" WAVE
    INDEX 01 00:00:00
  TRACK 15 AUDIO
    TITLE "Around The World (Dave Rodgers Remix)"
    PERFORMER "Move"
    INDEX 00 04:44:71
FILE "15. Move - Around The World (Dave Rodgers Remix).wav" WAVE
    INDEX 01 00:00:00

Код:

AUDIOCHECKER v2.0 beta (build 457) - by Dester - opdester@freemail.hu
~~~~~~~~~~~~~~~~~~~~~~~~~~~~~~~~~~
-=== DO NOT EDIT THIS FILE! ===-

Путь: ...\Super Eurobeat Presents Initial D D Selection

01 -=- 01. Dave Rodgers - Space Boy.flac -=- CDDA (100%)
02 -=- 02. Edo Boys - No One Sleep In Tokyo.flac -=- CDDA (100%)
03 -=- 03. Jilly - Be My Babe.flac -=- CDDA (100%)
04 -=- 04. Leslie Parrish - Remember Me.flac -=- CDDA (100%)
05 -=- 05. Man Power - Spark In The Dark.flac -=- CDDA (100%)
06 -=- 06. Lou Grant - Don't Stop The Music.flac -=- CDDA (100%)
07 -=- 07. Delta Queens - Dance Around The World.flac -=- CDDA (100%)
08 -=- 08. Mega NRG Man - Get Me Power.flac -=- CDDA (100%)
09 -=- 09. Max Coveri - Running In The 90's.flac -=- CDDA (100%)
10 -=- 10. Nathalie - Heartbeat.flac -=- CDDA (100%)
11 -=- 11. Tommy K - Break The Night.flac -=- CDDA (100%)
12 -=- 12. Mega NRG Man - Back On The Rocks.flac -=- CDDA (100%)
13 -=- 13. Leslie Parrish - Save Me.flac -=- CDDA (100%)
14 -=- 14. Susan Bell - My Only Star.flac -=- CDDA (100%)
15 -=- 15. Move - Around The World (Dave Rodgers Remix).flac -=- CDDA (100%)

Сводка 100,00% CDDA

210990612
Продолжительность: 01:12:33
Треклист:
01. Leslie Parrish - Killing My Love
02. Sara - Burning Up For You
03. Sophie - Lonely Love
04. Dave Rodgers & Mega NRG Man - Night Fever
05. Vicky Vale - Dancing
06. Za - Za - Love & Money
07. Dr. Love - Don't Stand So Close
08. King & Queen - Dancing Queen
09. Dave Simon - I Need Your Love
10. Norma Sheffield - Maybe Tonite
11. Priscilla - Love is in Danger
12. Elisa - Lost into the Night
13. Victoria - Stay
14. Tension - Everybody's Warming
15. Mako & Sayuki - Wings of Fire

Код:

Exact Audio Copy V0.99 prebeta 5 from 4. May 2009

EAC extraction logfile from 19. May 2009, 11:10

Various Artists / Initial D Millennium Box (Disc 2)

Used drive  : ASUS    DRW-1814BLT   Adapter: 1  ID: 2

Read mode               : Secure
Utilize accurate stream : Yes
Defeat audio cache      : Yes
Make use of C2 pointers : No

Read offset correction                      : 6
Overread into Lead-In and Lead-Out          : No
Fill up missing offset samples with silence : Yes
Delete leading and trailing silent blocks   : No
Null samples used in CRC calculations       : Yes
Used interface                              : Installed external ASPI interface
Gap handling                                : Appended to previous track

Used output format              : User Defined Encoder
Selected bitrate                : 128 kBit/s
Quality                         : High
Add ID3 tag                     : No
Command line compressor         : C:\Program Files\FLAC\flac.exe
Additional command line options : -8 -V -T "ARTIST=%a" -T "TITLE=%t" -T "ALBUM=%g" -T "DATE=%y" -T "TRACKNUMBER=%n" -T "GENRE=%m" -T "COMMENT=ripper by K1RZA" %s

TOC of the extracted CD

     Track |   Start  |  Length  | Start sector | End sector
    ---------------------------------------------------------
        1  |  0:00.00 |  4:55.37 |         0    |    22161   
        2  |  4:55.37 |  4:50.43 |     22162    |    43954   
        3  |  9:46.05 |  4:45.50 |     43955    |    65379   
        4  | 14:31.55 |  4:49.70 |     65380    |    87124   
        5  | 19:21.50 |  4:47.22 |     87125    |   108671   
        6  | 24:08.72 |  5:00.58 |    108672    |   131229   
        7  | 29:09.55 |  4:52.17 |    131230    |   153146   
        8  | 34:01.72 |  4:57.48 |    153147    |   175469   
        9  | 38:59.45 |  4:48.02 |    175470    |   197071   
       10  | 43:47.47 |  4:46.50 |    197072    |   218571   
       11  | 48:34.22 |  4:51.08 |    218572    |   240404   
       12  | 53:25.30 |  4:56.40 |    240405    |   262644   
       13  | 58:21.70 |  5:00.12 |    262645    |   285156   
       14  | 63:22.07 |  4:57.73 |    285157    |   307504   
       15  | 68:20.05 |  4:13.10 |    307505    |   326489   

Track  1

     Filename C:\EACrips\01. Leslie Parrish - Killing My Love.wav

     Pre-gap length  0:00:02.00

     Peak level 98.8 %
     Track quality 100.0 %
     Test CRC B6EC5F18
     Copy CRC B6EC5F18
     Accurately ripped (confidence 2)  [F5DA29A9]
     Copy OK

Track  2

     Filename C:\EACrips\02. Sara - Burning Up For You.wav

     Pre-gap length  0:00:01.01

     Peak level 98.8 %
     Track quality 99.9 %
     Test CRC 5EFC2D62
     Copy CRC 5EFC2D62
     Accurately ripped (confidence 2)  [D78C4BFF]
     Copy OK

Track  3

     Filename C:\EACrips\03. Sophie - Lonely Love.wav

     Pre-gap length  0:00:01.09

     Peak level 98.8 %
     Track quality 100.0 %
     Test CRC 0ABA61B3
     Copy CRC 0ABA61B3
     Accurately ripped (confidence 2)  [C00388F6]
     Copy OK

Track  4

     Filename C:\EACrips\04. Dave Rodgers & Mega NRG Man - Night Fever.wav

     Pre-gap length  0:00:01.09

     Peak level 98.8 %
     Track quality 100.0 %
     Test CRC 415F39E1
     Copy CRC 415F39E1
     Accurately ripped (confidence 2)  [98CCFEB9]
     Copy OK

Track  5

     Filename C:\EACrips\05. Vicky Vale - Dancing.wav

     Pre-gap length  0:00:01.02

     Peak level 98.8 %
     Track quality 100.0 %
     Test CRC E38E97AE
     Copy CRC E38E97AE
     Accurately ripped (confidence 2)  [002E6939]
     Copy OK

Track  6

     Filename C:\EACrips\06. Za-Za - Love & Money.wav

     Pre-gap length  0:00:01.01

     Peak level 98.8 %
     Track quality 100.0 %
     Test CRC 26719EA0
     Copy CRC 26719EA0
     Accurately ripped (confidence 2)  [42A021EC]
     Copy OK

Track  7

     Filename C:\EACrips\07. Dr. Love - Don't Stand So Close.wav

     Pre-gap length  0:00:00.82

     Peak level 98.8 %
     Track quality 99.9 %
     Test CRC EB7D8DAE
     Copy CRC EB7D8DAE
     Accurately ripped (confidence 2)  [701EFFBA]
     Copy OK

Track  8

     Filename C:\EACrips\08. King & Queen - Dancing Queen.wav

     Pre-gap length  0:00:01.18

     Peak level 98.8 %
     Track quality 100.0 %
     Test CRC 394933F8
     Copy CRC 394933F8
     Accurately ripped (confidence 2)  [37F0A5D1]
     Copy OK

Track  9

     Filename C:\EACrips\09. Dave Simon - I Need Your Love.wav

     Pre-gap length  0:00:01.45

     Peak level 98.8 %
     Track quality 100.0 %
     Test CRC BE7F8D9C
     Copy CRC BE7F8D9C
     Accurately ripped (confidence 2)  [916C8442]
     Copy OK

Track 10

     Filename C:\EACrips\10. Norma Sheffield - Maybe Tonite.wav

     Pre-gap length  0:00:01.45

     Peak level 98.8 %
     Track quality 100.0 %
     Test CRC 2F163FD6
     Copy CRC 2F163FD6
     Accurately ripped (confidence 2)  [DCE98D8F]
     Copy OK

Track 11

     Filename C:\EACrips\11. Priscilla - Love Is In Danger.wav

     Pre-gap length  0:00:01.12

     Peak level 98.8 %
     Track quality 100.0 %
     Test CRC 6EAD019B
     Copy CRC 6EAD019B
     Accurately ripped (confidence 2)  [52262DDE]
     Copy OK

Track 12

     Filename C:\EACrips\12. Elisa - Lost Into The Night.wav

     Pre-gap length  0:00:00.85

     Peak level 98.8 %
     Track quality 99.9 %
     Test CRC FD32EA86
     Copy CRC FD32EA86
     Accurately ripped (confidence 2)  [889506E8]
     Copy OK

Track 13

     Filename C:\EACrips\13. Victoria - Stay.wav

     Pre-gap length  0:00:01.32

     Peak level 98.8 %
     Track quality 100.0 %
     Test CRC 7E9C456C
     Copy CRC 7E9C456C
     Accurately ripped (confidence 2)  [FE25BFEA]
     Copy OK

Track 14

     Filename C:\EACrips\14. Tension - Everybody's Warming.wav

     Pre-gap length  0:00:00.45

     Peak level 98.8 %
     Track quality 100.0 %
     Test CRC 27290C40
     Copy CRC 27290C40
     Accurately ripped (confidence 2)  [157B72AE]
     Copy OK

Track 15

     Filename C:\EACrips\15. Mako & Sayuki - Wings Of Fire.wav

     Pre-gap length  0:00:01.36

     Peak level 98.8 %
     Track quality 100.0 %
     Test CRC 8FD9AD9B
     Copy CRC 8FD9AD9B
     Accurately ripped (confidence 2)  [E1023A5C]
     Copy OK

All tracks accurately ripped

No errors occurred

End of status report

Код:

REM GENRE Eurobeat
REM DATE 2000
REM DISCID C311010F
REM COMMENT "ExactAudioCopy v0.99pb5"
PERFORMER "Various Artists"
TITLE "Initial D Millennium Box (Disc 2)"
FILE "01. Leslie Parrish - Killing My Love.wav" WAVE
  TRACK 01 AUDIO
    TITLE "Killing My Love"
    PERFORMER "Leslie Parrish"
    INDEX 01 00:00:00
  TRACK 02 AUDIO
    TITLE "Burning Up For You"
    PERFORMER "Sara"
    INDEX 00 04:54:36
FILE "02. Sara - Burning Up For You.wav" WAVE
    INDEX 01 00:00:00
  TRACK 03 AUDIO
    TITLE "Lonely Love"
    PERFORMER "Sophie"
    INDEX 00 04:49:36
FILE "03. Sophie - Lonely Love.wav" WAVE
    INDEX 01 00:00:00
  TRACK 04 AUDIO
    TITLE "Night Fever"
    PERFORMER "Dave Rodgers & Mega NRG Man"
    INDEX 00 04:44:43
FILE "04. Dave Rodgers & Mega NRG Man - Night Fever.wav" WAVE
    INDEX 01 00:00:00
  TRACK 05 AUDIO
    TITLE "Dancing"
    PERFORMER "Vicky Vale"
    INDEX 00 04:48:68
FILE "05. Vicky Vale - Dancing.wav" WAVE
    INDEX 01 00:00:00
  TRACK 06 AUDIO
    TITLE "Love & Money"
    PERFORMER "Za-Za"
    INDEX 00 04:46:21
FILE "06. Za-Za - Love & Money.wav" WAVE
    INDEX 01 00:00:00
  TRACK 07 AUDIO
    TITLE "Don't Stand So Close"
    PERFORMER "Dr. Love"
    INDEX 00 04:59:71
FILE "07. Dr. Love - Don't Stand So Close.wav" WAVE
    INDEX 01 00:00:00
  TRACK 08 AUDIO
    TITLE "Dancing Queen"
    PERFORMER "King & Queen"
    INDEX 00 04:51:03
FILE "08. King & Queen - Dancing Queen.wav" WAVE
    INDEX 01 00:00:00
  TRACK 09 AUDIO
    TITLE "I Need Your Love"
    PERFORMER "Dave Simon"
    INDEX 00 04:56:14
FILE "09. Dave Simon - I Need Your Love.wav" WAVE
    INDEX 01 00:00:00
  TRACK 10 AUDIO
    TITLE "Maybe Tonite"
    PERFORMER "Norma Sheffield"
    INDEX 00 04:46:43
FILE "10. Norma Sheffield - Maybe Tonite.wav" WAVE
    INDEX 01 00:00:00
  TRACK 11 AUDIO
    TITLE "Love Is In Danger"
    PERFORMER "Priscilla"
    INDEX 00 04:45:41
FILE "11. Priscilla - Love Is In Danger.wav" WAVE
    INDEX 01 00:00:00
  TRACK 12 AUDIO
    TITLE "Lost Into The Night"
    PERFORMER "Elisa"
    INDEX 00 04:50:19
FILE "12. Elisa - Lost Into The Night.wav" WAVE
    INDEX 01 00:00:00
  TRACK 13 AUDIO
    TITLE "Stay"
    PERFORMER "Victoria"
    INDEX 00 04:55:16
FILE "13. Victoria - Stay.wav" WAVE
    INDEX 01 00:00:00
  TRACK 14 AUDIO
    TITLE "Everybody's Warming"
    PERFORMER "Tension"
    INDEX 00 04:59:53
FILE "14. Tension - Everybody's Warming.wav" WAVE
    INDEX 01 00:00:00
  TRACK 15 AUDIO
    TITLE "Wings Of Fire"
    PERFORMER "Mako & Sayuki"
    INDEX 00 04:56:46
FILE "15. Mako & Sayuki - Wings Of Fire.wav" WAVE
    INDEX 01 00:00:00

Код:

AUDIOCHECKER v2.0 beta (build 457) - by Dester - opdester@freemail.hu
~~~~~~~~~~~~~~~~~~~~~~~~~~~~~~~~~~
-=== DO NOT EDIT THIS FILE! ===-

Путь: ...\Super Eurobeat Presents Initial D D Selection 2

01 -=- 01. Leslie Parrish - Killing My Love.flac -=- CDDA (100%)
02 -=- 02. Sara - Burning Up For You.flac -=- CDDA (99%)
03 -=- 03. Sophie - Lonely Love.flac -=- CDDA (100%)
04 -=- 04. Dave Rodgers & Mega NRG Man - Night Fever.flac -=- CDDA (100%)
05 -=- 05. Vicky Vale - Dancing.flac -=- CDDA (99%)
06 -=- 06. Za-Za - Love & Money.flac -=- CDDA (100%)
07 -=- 07. Dr. Love - Don't Stand So Close.flac -=- CDDA (99%)
08 -=- 08. King & Queen - Dancing Queen.flac -=- CDDA (100%)
09 -=- 09. Dave Simon - I Need Your Love.flac -=- CDDA (100%)
10 -=- 10. Norma Sheffield - Maybe Tonite.flac -=- CDDA (100%)
11 -=- 11. Priscilla - Love Is In Danger.flac -=- CDDA (100%)
12 -=- 12. Elisa - Lost Into The Night.flac -=- CDDA (100%)
13 -=- 13. Victoria - Stay.flac -=- CDDA (100%)
14 -=- 14. Tension - Everybody's Warming.flac -=- CDDA (100%)
15 -=- 15. Mako & Sayuki - Wings Of Fire.flac -=- CDDA (100%)

Сводка 99,80% CDDA

55829012
Продолжительность: 01:08:12
Треклист:
01. Niko - Night of Fire
02. Dave Rodgers - Saturday Night Fever
03. Go Go Girls - One Night in Arabia
04. Dave Rodgers - Boom Boom Japan
05. Overload - Black Out
06. Mr. Groove - Night & Day
07. Dave Rodgers - Beat of the Rising Sun
08. Dusty - Rock Me to the Top
09. Mega NRG Man - Take Me Back to Tokyo
10. Fastway - Number One
11. M.o.v.e - Break In2 the Night (Dave Rodgers remix)
12. Various - Initial D Hyper Mega Mix

Код:

Exact Audio Copy V0.99 prebeta 5 from 4. May 2009

EAC extraction logfile from 19. May 2009, 11:31

Various Artists / Initial D Millennium Box (Disc 3)

Used drive  : ASUS    DRW-1814BLT   Adapter: 1  ID: 2

Read mode               : Secure
Utilize accurate stream : Yes
Defeat audio cache      : Yes
Make use of C2 pointers : No

Read offset correction                      : 6
Overread into Lead-In and Lead-Out          : No
Fill up missing offset samples with silence : Yes
Delete leading and trailing silent blocks   : No
Null samples used in CRC calculations       : Yes
Used interface                              : Installed external ASPI interface
Gap handling                                : Appended to previous track

Used output format              : User Defined Encoder
Selected bitrate                : 128 kBit/s
Quality                         : High
Add ID3 tag                     : No
Command line compressor         : C:\Program Files\FLAC\flac.exe
Additional command line options : -8 -V -T "ARTIST=%a" -T "TITLE=%t" -T "ALBUM=%g" -T "DATE=%y" -T "TRACKNUMBER=%n" -T "GENRE=%m" -T "COMMENT=ripper by K1RZA" %s

TOC of the extracted CD

     Track |   Start  |  Length  | Start sector | End sector
    ---------------------------------------------------------
        1  |  0:00.00 |  5:10.03 |         0    |    23252   
        2  |  5:10.03 |  5:10.20 |     23253    |    46522   
        3  | 10:20.23 |  4:56.47 |     46523    |    68769   
        4  | 15:16.70 |  4:59.25 |     68770    |    91219   
        5  | 20:16.20 |  4:59.28 |     91220    |   113672   
        6  | 25:15.48 |  5:12.20 |    113673    |   137092   
        7  | 30:27.68 |  4:04.40 |    137093    |   155432   
        8  | 34:32.33 |  5:07.62 |    155433    |   178519   
        9  | 39:40.20 |  5:04.30 |    178520    |   201349   
       10  | 44:44.50 |  5:01.60 |    201350    |   223984   
       11  | 49:46.35 |  4:44.65 |    223985    |   245349   
       12  | 54:31.25 | 13:41.50 |    245350    |   306974   

Track  1

     Filename C:\EACrips\01. Niko - Night Of Fire.wav

     Pre-gap length  0:00:02.00

     Peak level 98.8 %
     Track quality 100.0 %
     Test CRC 3C328121
     Copy CRC 3C328121
     Accurately ripped (confidence 2)  [8D37A09F]
     Copy OK

Track  2

     Filename C:\EACrips\02. Dave Rodgers - Saturday Night Fever.wav

     Peak level 98.8 %
     Track quality 100.0 %
     Test CRC F15AB57A
     Copy CRC F15AB57A
     Accurately ripped (confidence 2)  [206F4913]
     Copy OK

Track  3

     Filename C:\EACrips\03. Go Go Girls - One Night In Arabia.wav

     Peak level 98.8 %
     Track quality 100.0 %
     Test CRC FB561049
     Copy CRC FB561049
     Accurately ripped (confidence 2)  [C7E70298]
     Copy OK

Track  4

     Filename C:\EACrips\04. Dave Rodgers - Boom Boom Japan.wav

     Peak level 98.8 %
     Track quality 100.0 %
     Test CRC 64FFB7AF
     Copy CRC 64FFB7AF
     Accurately ripped (confidence 2)  [6A83AAFC]
     Copy OK

Track  5

     Filename C:\EACrips\05. Overload - Black Out.wav

     Peak level 98.8 %
     Track quality 100.0 %
     Test CRC D725BCB6
     Copy CRC D725BCB6
     Accurately ripped (confidence 2)  [20200C9D]
     Copy OK

Track  6

     Filename C:\EACrips\06. Mr. Groove - Night & Day.wav

     Peak level 98.8 %
     Track quality 100.0 %
     Test CRC 946D3241
     Copy CRC 946D3241
     Accurately ripped (confidence 2)  [53A7F791]
     Copy OK

Track  7

     Filename C:\EACrips\07. Dave Rodgers - Beat Of The Rising Sun.wav

     Peak level 98.8 %
     Track quality 100.0 %
     Test CRC CC6EE0AC
     Copy CRC CC6EE0AC
     Accurately ripped (confidence 2)  [A28CC596]
     Copy OK

Track  8

     Filename C:\EACrips\08. Dusty - Rock Me To The Top.wav

     Peak level 98.8 %
     Track quality 99.9 %
     Test CRC 6352C68A
     Copy CRC 6352C68A
     Accurately ripped (confidence 2)  [0FF03369]
     Copy OK

Track  9

     Filename C:\EACrips\09. Mega NRG Man - Take Me Back To Tokyo.wav

     Peak level 98.8 %
     Track quality 100.0 %
     Test CRC 8E8F6B14
     Copy CRC 8E8F6B14
     Accurately ripped (confidence 2)  [12044A50]
     Copy OK

Track 10

     Filename C:\EACrips\10. Fastway - Number One.wav

     Peak level 98.8 %
     Track quality 100.0 %
     Test CRC DCFD016A
     Copy CRC DCFD016A
     Accurately ripped (confidence 2)  [FEB648CD]
     Copy OK

Track 11

     Filename C:\EACrips\11. Move - Break In2 The Night (Dave Rodgers Remix).wav

     Peak level 98.8 %
     Track quality 100.0 %
     Test CRC 4E80C235
     Copy CRC 4E80C235
     Accurately ripped (confidence 2)  [DB722E0D]
     Copy OK

Track 12

     Filename C:\EACrips\12. Dave Rodgers - Initial D ~Hyper Mega Mix~  Space Boy.wav

     Peak level 98.8 %
     Track quality 100.0 %
     Test CRC A95A71CF
     Copy CRC A95A71CF
     Accurately ripped (confidence 2)  [D6ADC783]
     Copy OK

All tracks accurately ripped

No errors occurred

End of status report

Код:

REM GENRE Eurobeat
REM DATE 2000
REM DISCID AE0FFD0C
REM COMMENT "ExactAudioCopy v0.99pb5"
PERFORMER "Various Artists"
TITLE "Initial D Millennium Box (Disc 3)"
FILE "01. Niko - Night Of Fire.wav" WAVE
  TRACK 01 AUDIO
    TITLE "Night Of Fire"
    PERFORMER "Niko"
    INDEX 01 00:00:00
FILE "02. Dave Rodgers - Saturday Night Fever.wav" WAVE
  TRACK 02 AUDIO
    TITLE "Saturday Night Fever"
    PERFORMER "Dave Rodgers"
    INDEX 01 00:00:00
FILE "03. Go Go Girls - One Night In Arabia.wav" WAVE
  TRACK 03 AUDIO
    TITLE "One Night In Arabia"
    PERFORMER "Go Go Girls"
    INDEX 01 00:00:00
FILE "04. Dave Rodgers - Boom Boom Japan.wav" WAVE
  TRACK 04 AUDIO
    TITLE "Boom Boom Japan"
    PERFORMER "Dave Rodgers"
    INDEX 01 00:00:00
FILE "05. Overload - Black Out.wav" WAVE
  TRACK 05 AUDIO
    TITLE "Black Out"
    PERFORMER "Overload"
    INDEX 01 00:00:00
FILE "06. Mr. Groove - Night & Day.wav" WAVE
  TRACK 06 AUDIO
    TITLE "Night & Day"
    PERFORMER "Mr. Groove"
    INDEX 01 00:00:00
FILE "07. Dave Rodgers - Beat Of The Rising Sun.wav" WAVE
  TRACK 07 AUDIO
    TITLE "Beat Of The Rising Sun"
    PERFORMER "Dave Rodgers"
    INDEX 01 00:00:00
FILE "08. Dusty - Rock Me To The Top.wav" WAVE
  TRACK 08 AUDIO
    TITLE "Rock Me To The Top"
    PERFORMER "Dusty"
    INDEX 01 00:00:00
FILE "09. Mega NRG Man - Take Me Back To Tokyo.wav" WAVE
  TRACK 09 AUDIO
    TITLE "Take Me Back To Tokyo"
    PERFORMER "Mega NRG Man"
    INDEX 01 00:00:00
FILE "10. Fastway - Number One.wav" WAVE
  TRACK 10 AUDIO
    TITLE "Number One"
    PERFORMER "Fastway"
    INDEX 01 00:00:00
FILE "11. Move - Break In2 The Night (Dave Rodgers Remix).wav" WAVE
  TRACK 11 AUDIO
    TITLE "Break In2 The Night (Dave Rodgers Remix)"
    PERFORMER "Move"
    INDEX 01 00:00:00
FILE "12. Dave Rodgers - Initial D ~Hyper Mega Mix~  Space Boy.wav" WAVE
  TRACK 12 AUDIO
    TITLE "Initial D ~Hyper Mega Mix~  Space Boy"
    PERFORMER "Dave Rodgers"
    INDEX 01 00:00:00

Код:

AUDIOCHECKER v2.0 beta (build 457) - by Dester - opdester@freemail.hu
~~~~~~~~~~~~~~~~~~~~~~~~~~~~~~~~~~
-=== DO NOT EDIT THIS FILE! ===-

Путь: ...\Super Eurobeat Presents Initial D D Selection 3

01 -=- 01. Niko - Night Of Fire.flac -=- CDDA (99%)
02 -=- 02. Dave Rodgers - Saturday Night Fever.flac -=- CDDA (100%)
03 -=- 03. Go Go Girls - One Night In Arabia.flac -=- CDDA (100%)
04 -=- 04. Dave Rodgers - Boom Boom Japan.flac -=- CDDA (100%)
05 -=- 05. Overload - Black Out.flac -=- CDDA (100%)
06 -=- 06. Mr. Groove - Night & Day.flac -=- CDDA (100%)
07 -=- 07. Dave Rodgers - Beat Of The Rising Sun.flac -=- CDDA (99%)
08 -=- 08. Dusty - Rock Me To The Top.flac -=- CDDA (100%)
09 -=- 09. Mega NRG Man - Take Me Back To Tokyo.flac -=- CDDA (100%)
10 -=- 10. Fastway - Number One.flac -=- CDDA (99%)
11 -=- 11. Move - Break In2 The Night (Dave Rodgers Remix).flac -=- CDDA (99%)
12 -=- 12. Dave Rodgers - Initial D ~Hyper Mega Mix~  Space Boy.flac -=- CDDA (99%)

Сводка 99,58% CDDA

249623332
Продолжительность: 01:07:32
Треклист:
01. Mega NRG Man - Burning Desire
02. Dave Rodgers - 100
03. Dave MC Loud - Mikado
04. Valentina - I Love You Like You Are
05. Derreck Simons - Make My Day
06. Mickey B. - Take My Soul
07. Queen of Times - Ever and Ever
08. Marko Polo - Speedy Speed Boy
09. Sophie - Don't You (Forget About My Love)
10. Wain L - Goodbye Yellow Brick Road
11. Derreck Simons - Station to Station
12. Robert Patton - Big in Japan
13. Mega NRG Man - Burning Desire (New Generation mix)

Код:

Exact Audio Copy V0.99 prebeta 5 from 4. May 2009

EAC extraction logfile from 19. May 2009, 11:56

Various Artists / Initial D Millennium Box (Disc 4)

Used drive  : ASUS    DRW-1814BLT   Adapter: 1  ID: 2

Read mode               : Secure
Utilize accurate stream : Yes
Defeat audio cache      : Yes
Make use of C2 pointers : No

Read offset correction                      : 6
Overread into Lead-In and Lead-Out          : No
Fill up missing offset samples with silence : Yes
Delete leading and trailing silent blocks   : No
Null samples used in CRC calculations       : Yes
Used interface                              : Installed external ASPI interface
Gap handling                                : Appended to previous track

Used output format              : User Defined Encoder
Selected bitrate                : 128 kBit/s
Quality                         : High
Add ID3 tag                     : No
Command line compressor         : C:\Program Files\FLAC\flac.exe
Additional command line options : -8 -V -T "ARTIST=%a" -T "TITLE=%t" -T "ALBUM=%g" -T "DATE=%y" -T "TRACKNUMBER=%n" -T "GENRE=%m" -T "COMMENT=ripper by K1RZA" %s

TOC of the extracted CD

     Track |   Start  |  Length  | Start sector | End sector
    ---------------------------------------------------------
        1  |  0:00.00 |  4:52.27 |         0    |    21926   
        2  |  4:52.27 |  3:58.58 |     21927    |    39834   
        3  |  8:51.10 |  6:05.52 |     39835    |    67261   
        4  | 14:56.62 |  5:07.05 |     67262    |    90291   
        5  | 20:03.67 |  4:10.73 |     90292    |   109114   
        6  | 24:14.65 |  4:16.10 |    109115    |   128324   
        7  | 28:31.00 |  6:19.72 |    128325    |   156821   
        8  | 34:50.72 |  5:57.50 |    156822    |   183646   
        9  | 40:48.47 |  6:11.68 |    183647    |   211539   
       10  | 47:00.40 |  4:33.67 |    211540    |   232081   
       11  | 51:34.32 |  4:14.70 |    232082    |   251201   
       12  | 55:49.27 |  5:15.25 |    251202    |   274851   
       13  | 61:04.52 |  6:27.40 |    274852    |   303916   

Track  1

     Filename C:\EACrips\01. Mega NRG Man - Burning Desire.wav

     Pre-gap length  0:00:02.00

     Peak level 100.0 %
     Track quality 100.0 %
     Test CRC 7070D4BF
     Copy CRC 7070D4BF
     Cannot be verified as accurate (confidence 3)  [64C7E327], AccurateRip returned [6797A1E7]
     Copy OK

Track  2

     Filename C:\EACrips\02. Dave Rodgers - 100.wav

     Pre-gap length  0:00:01.40

     Peak level 99.9 %
     Track quality 100.0 %
     Test CRC 0312825D
     Copy CRC 0312825D
     Cannot be verified as accurate (confidence 3)  [437634F8], AccurateRip returned [1DD4E450]
     Copy OK

Track  3

     Filename C:\EACrips\03. Dave MC Loud - Mikado.wav

     Pre-gap length  0:00:00.69

     Peak level 100.0 %
     Track quality 100.0 %
     Test CRC BBCB2845
     Copy CRC BBCB2845
     Cannot be verified as accurate (confidence 3)  [923D4EE2], AccurateRip returned [B3765A12]
     Copy OK

Track  4

     Filename C:\EACrips\04. Valentina - I Love You Like You Are.wav

     Pre-gap length  0:00:00.80

     Peak level 100.0 %
     Track quality 100.0 %
     Test CRC 301AD7B0
     Copy CRC 301AD7B0
     Cannot be verified as accurate (confidence 3)  [0D090C09], AccurateRip returned [A2485269]
     Copy OK

Track  5

     Filename C:\EACrips\05. Derreck Simons - Make My Day.wav

     Pre-gap length  0:00:01.49

     Peak level 100.0 %
     Track quality 100.0 %
     Test CRC 32C20AF1
     Copy CRC 32C20AF1
     Cannot be verified as accurate (confidence 3)  [27958446], AccurateRip returned [09D70806]
     Copy OK

Track  6

     Filename C:\EACrips\06. Mickey B. - Take My Soul.wav

     Pre-gap length  0:00:00.96

     Peak level 100.0 %
     Track quality 100.0 %
     Test CRC B9549537
     Copy CRC B9549537
     Cannot be verified as accurate (confidence 3)  [9518014C], AccurateRip returned [8317C96C]
     Copy OK

Track  7

     Filename C:\EACrips\07. Queen Of Times - Ever And Ever.wav

     Pre-gap length  0:00:00.80

     Peak level 100.0 %
     Track quality 100.0 %
     Test CRC BEB49285
     Copy CRC BEB49285
     Cannot be verified as accurate (confidence 3)  [1AF5BCBC], AccurateRip returned [2D92A84C]
     Copy OK

Track  8

     Filename C:\EACrips\08. Marko Polo - Speedy Speed Boy.wav

     Pre-gap length  0:00:01.29

     Peak level 100.0 %
     Track quality 100.0 %
     Test CRC E07C6398
     Copy CRC E07C6398
     Track not present in AccurateRip database
     Copy OK

Track  9

     Filename C:\EACrips\09. Sophie - Don't You (Forget About My Love).wav

     Pre-gap length  0:00:01.36

     Peak level 100.0 %
     Track quality 99.9 %
     Test CRC 59D29C57
     Copy CRC 59D29C57
     Track not present in AccurateRip database
     Copy OK

Track 10

     Filename C:\EACrips\10. Wain L - Goodbye Yellow Brick Road.wav

     Pre-gap length  0:00:01.22

     Peak level 100.0 %
     Track quality 100.0 %
     Test CRC A0501BC2
     Copy CRC A0501BC2
     Track not present in AccurateRip database
     Copy OK

Track 11

     Filename C:\EACrips\11. Derreck Simons - Station To Station.wav

     Pre-gap length  0:00:01.06

     Peak level 100.0 %
     Track quality 100.0 %
     Test CRC F2D66436
     Copy CRC F2D66436
     Track not present in AccurateRip database
     Copy OK

Track 12

     Filename C:\EACrips\12. Robert Patton - Big In Japan.wav

     Pre-gap length  0:00:01.16

     Peak level 100.0 %
     Track quality 100.0 %
     Test CRC AEA8A4B3
     Copy CRC AEA8A4B3
     Track not present in AccurateRip database
     Copy OK

Track 13

     Filename C:\EACrips\13. Mega NRG Man - Burning Desire (New Generation Mix).wav

     Pre-gap length  0:00:01.65

     Peak level 100.0 %
     Track quality 99.9 %
     Test CRC 8B9D23DE
     Copy CRC 8B9D23DE
     Track not present in AccurateRip database
     Copy OK

 7 track(s) could not be verified as accurate
 6 track(s) not present in the AccurateRip database

No tracks could be verified as accurate
You may have a different pressing from the one(s) in the database

No errors occurred

End of status report

Код:

REM GENRE Eurobeat
REM DATE 2000
REM DISCID B20FD40D
REM COMMENT "ExactAudioCopy v0.99pb5"
PERFORMER "Various Artists"
TITLE "Initial D Millennium Box (Disc 4)"
FILE "01. Mega NRG Man - Burning Desire.wav" WAVE
  TRACK 01 AUDIO
    TITLE "Burning Desire"
    PERFORMER "Mega NRG Man"
    INDEX 01 00:00:00
  TRACK 02 AUDIO
    TITLE "100"
    PERFORMER "Dave Rodgers"
    INDEX 00 04:50:72
FILE "02. Dave Rodgers - 100.wav" WAVE
    INDEX 01 00:00:00
  TRACK 03 AUDIO
    TITLE "Mikado"
    PERFORMER "Dave MC Loud"
    INDEX 00 03:58:06
FILE "03. Dave MC Loud - Mikado.wav" WAVE
    INDEX 01 00:00:00
  TRACK 04 AUDIO
    TITLE "I Love You Like You Are"
    PERFORMER "Valentina"
    INDEX 00 06:04:67
FILE "04. Valentina - I Love You Like You Are.wav" WAVE
    INDEX 01 00:00:00
  TRACK 05 AUDIO
    TITLE "Make My Day"
    PERFORMER "Derreck Simons"
    INDEX 00 05:05:43
FILE "05. Derreck Simons - Make My Day.wav" WAVE
    INDEX 01 00:00:00
  TRACK 06 AUDIO
    TITLE "Take My Soul"
    PERFORMER "Mickey B."
    INDEX 00 04:10:01
FILE "06. Mickey B. - Take My Soul.wav" WAVE
    INDEX 01 00:00:00
  TRACK 07 AUDIO
    TITLE "Ever And Ever"
    PERFORMER "Queen Of Times"
    INDEX 00 04:15:25
FILE "07. Queen Of Times - Ever And Ever.wav" WAVE
    INDEX 01 00:00:00
  TRACK 08 AUDIO
    TITLE "Speedy Speed Boy"
    PERFORMER "Marko Polo"
    INDEX 00 06:18:50
FILE "08. Marko Polo - Speedy Speed Boy.wav" WAVE
    INDEX 01 00:00:00
  TRACK 09 AUDIO
    TITLE "Don't You (Forget About My Love)"
    PERFORMER "Sophie"
    INDEX 00 05:56:23
FILE "09. Sophie - Don't You (Forget About My Love).wav" WAVE
    INDEX 01 00:00:00
  TRACK 10 AUDIO
    TITLE "Goodbye Yellow Brick Road"
    PERFORMER "Wain L"
    INDEX 00 06:10:51
FILE "10. Wain L - Goodbye Yellow Brick Road.wav" WAVE
    INDEX 01 00:00:00
  TRACK 11 AUDIO
    TITLE "Station To Station"
    PERFORMER "Derreck Simons"
    INDEX 00 04:32:62
FILE "11. Derreck Simons - Station To Station.wav" WAVE
    INDEX 01 00:00:00
  TRACK 12 AUDIO
    TITLE "Big In Japan"
    PERFORMER "Robert Patton"
    INDEX 00 04:13:58
FILE "12. Robert Patton - Big In Japan.wav" WAVE
    INDEX 01 00:00:00
  TRACK 13 AUDIO
    TITLE "Burning Desire (New Generation Mix)"
    PERFORMER "Mega NRG Man"
    INDEX 00 05:13:51
FILE "13. Mega NRG Man - Burning Desire (New Generation Mix).wav" WAVE
    INDEX 01 00:00:00

Код:

AUDIOCHECKER v2.0 beta (build 457) - by Dester - opdester@freemail.hu
~~~~~~~~~~~~~~~~~~~~~~~~~~~~~~~~~~
-=== DO NOT EDIT THIS FILE! ===-

Путь: ...\Super Eurobeat Presents Initial D Second Stage D Selection

01 -=- 01. Mega NRG Man - Burning Desire.flac -=- CDDA (100%)
02 -=- 02. Dave Rodgers - 100.flac -=- CDDA (100%)
03 -=- 03. Dave MC Loud - Mikado.flac -=- CDDA (100%)
04 -=- 04. Valentina - I Love You Like You Are.flac -=- CDDA (100%)
05 -=- 05. Derreck Simons - Make My Day.flac -=- CDDA (100%)
06 -=- 06. Mickey B. - Take My Soul.flac -=- CDDA (99%)
07 -=- 07. Queen Of Times - Ever And Ever.flac -=- CDDA (100%)
08 -=- 08. Marko Polo - Speedy Speed Boy.flac -=- CDDA (100%)
09 -=- 09. Sophie - Don't You (Forget About My Love).flac -=- CDDA (100%)
10 -=- 10. Wain L - Goodbye Yellow Brick Road.flac -=- CDDA (100%)
11 -=- 11. Derreck Simons - Station To Station.flac -=- CDDA (100%)
12 -=- 12. Robert Patton - Big In Japan.flac -=- CDDA (100%)
13 -=- 13. Mega NRG Man - Burning Desire (New Generation Mix).flac -=- CDDA (100%)

Сводка 99,92% CDDA

110721764
Продолжительность: 01:00:11
Треклист:
01. Marko Polo - Speedy Speed Boys
02. Dave Mc Loud - Mikado
03. Derreck Simons - Station to Station
04. Robert Patton - Big in Japan
05. Sophie - Don't You (Forget About My Love)
06. Valentina - I Like You Like You Are
07. Mickey B. - Take My Soul
08. Queen of Times - Ever and Ever
09. Wain L - Make Up Your Mind
10. Wain L - Goodbye Yellow Brick Road
11. Mega NRG Man - Burning Desire
12. Dave Rodgers - 100
13. Derreck Simons - Make My Day
14. Dave Mc Loud - Gimme the Night
15. Dave Rodgers - Deja Vu
16. Mega NRG Man - Grand Prix
17. Various - Vocal Battle Special Mega-Mix

Код:

Exact Audio Copy V0.99 prebeta 5 from 4. May 2009

EAC extraction logfile from 15. August 2009, 18:52

Various Artists / Initial D Millennium Box (Disc 5)

Used drive  : ASUS    DRW-1814BLT   Adapter: 2  ID: 1

Read mode               : Secure
Utilize accurate stream : Yes
Defeat audio cache      : Yes
Make use of C2 pointers : No

Read offset correction                      : 6
Overread into Lead-In and Lead-Out          : No
Fill up missing offset samples with silence : Yes
Delete leading and trailing silent blocks   : No
Null samples used in CRC calculations       : Yes
Used interface                              : Installed external ASPI interface
Gap handling                                : Appended to previous track

Used output format              : User Defined Encoder
Selected bitrate                : 128 kBit/s
Quality                         : High
Add ID3 tag                     : No
Command line compressor         : C:\Program Files\Exact Audio Copy\Flac\flac.exe
Additional command line options : -8 -V -T "ARTIST=%a" -T "TITLE=%t" -T "ALBUM=%g" -T "DATE=%y" -T "TRACKNUMBER=%n" -T "GENRE=%m" -T "COMMENT=ripper by K1RZA" %s

TOC of the extracted CD

     Track |   Start  |  Length  | Start sector | End sector
    ---------------------------------------------------------
        1  |  0:00.00 |  3:44.20 |         0    |    16819   
        2  |  3:44.20 |  2:55.70 |     16820    |    30014   
        3  |  6:40.15 |  2:40.45 |     30015    |    42059   
        4  |  9:20.60 |  2:02.12 |     42060    |    51221   
        5  | 11:22.72 |  3:21.40 |     51222    |    66336   
        6  | 14:44.37 |  2:40.73 |     66337    |    78409   
        7  | 17:25.35 |  2:59.20 |     78410    |    91854   
        8  | 20:24.55 |  2:53.42 |     91855    |   104871   
        9  | 23:18.22 |  3:12.60 |    104872    |   119331   
       10  | 26:31.07 |  2:35.10 |    119332    |   130966   
       11  | 29:06.17 |  4:38.03 |    130967    |   151819   
       12  | 33:44.20 |  2:51.60 |    151820    |   164704   
       13  | 36:36.05 |  2:53.00 |    164705    |   177679   
       14  | 39:29.05 |  2:50.65 |    177680    |   190494   
       15  | 42:19.70 |  2:42.05 |    190495    |   202649   
       16  | 45:02.00 |  3:36.40 |    202650    |   218889   
       17  | 48:38.40 | 11:33.00 |    218890    |   270864   

Track  1

     Filename C:\EACRips\01. Marko Polo - Speedy Speed Boys.wav

     Pre-gap length  0:00:02.00

     Peak level 100.0 %
     Track quality 100.0 %
     Test CRC D1B166D6
     Copy CRC D1B166D6
     Accurately ripped (confidence 2)  [1CED6DC7]
     Copy OK

Track  2

     Filename C:\EACRips\02. Dave Mc Loud - Mikado.wav

     Peak level 100.0 %
     Track quality 100.0 %
     Test CRC 7D232C5A
     Copy CRC 7D232C5A
     Accurately ripped (confidence 2)  [2776C97D]
     Copy OK

Track  3

     Filename C:\EACRips\03. Derreck Simons - Station to Station.wav

     Peak level 100.0 %
     Track quality 100.0 %
     Test CRC CFD1A878
     Copy CRC CFD1A878
     Accurately ripped (confidence 2)  [88E7CFEC]
     Copy OK

Track  4

     Filename C:\EACRips\04. Robert Patton - Big in Japan.wav

     Peak level 100.0 %
     Track quality 100.0 %
     Test CRC 891F944E
     Copy CRC 891F944E
     Accurately ripped (confidence 2)  [4C283A37]
     Copy OK

Track  5

     Filename C:\EACRips\05. Sophie - Don't You (Forget About My Love).wav

     Peak level 100.0 %
     Track quality 100.0 %
     Test CRC 896CF449
     Copy CRC 896CF449
     Accurately ripped (confidence 2)  [DE1325F8]
     Copy OK

Track  6

     Filename C:\EACRips\06. Valentina - I Like You Like You Are.wav

     Peak level 100.0 %
     Track quality 100.0 %
     Test CRC 2BDA5D4A
     Copy CRC 2BDA5D4A
     Accurately ripped (confidence 2)  [C570DB5E]
     Copy OK

Track  7

     Filename C:\EACRips\07. Mickey B. - Take My Soul.wav

     Peak level 100.0 %
     Track quality 100.0 %
     Test CRC 95A3D2FC
     Copy CRC 95A3D2FC
     Accurately ripped (confidence 2)  [6B78369E]
     Copy OK

Track  8

     Filename C:\EACRips\08. Queen of Times - Ever and Ever.wav

     Peak level 100.0 %
     Track quality 100.0 %
     Test CRC BF3B8A6F
     Copy CRC BF3B8A6F
     Accurately ripped (confidence 2)  [A3AAF3E1]
     Copy OK

Track  9

     Filename C:\EACRips\09. Wain L - Make Up Your Mind.wav

     Peak level 100.0 %
     Track quality 100.0 %
     Test CRC 0B5D88C0
     Copy CRC 0B5D88C0
     Accurately ripped (confidence 2)  [FC3FC505]
     Copy OK

Track 10

     Filename C:\EACRips\10. Wain L - Goodbye Yellow Brick Road.wav

     Peak level 100.0 %
     Track quality 100.0 %
     Test CRC 40D8B06B
     Copy CRC 40D8B06B
     Accurately ripped (confidence 2)  [5B215A06]
     Copy OK

Track 11

     Filename C:\EACRips\11. Mega NRG Man - Burning Desire.wav

     Peak level 100.0 %
     Track quality 100.0 %
     Test CRC 3AB53F47
     Copy CRC 3AB53F47
     Accurately ripped (confidence 2)  [A50E0B63]
     Copy OK

Track 12

     Filename C:\EACRips\12. Dave Rodgers - 100.wav

     Peak level 100.0 %
     Track quality 100.0 %
     Test CRC C3317E25
     Copy CRC C3317E25
     Accurately ripped (confidence 2)  [7780FD24]
     Copy OK

Track 13

     Filename C:\EACRips\13. Derreck Simons - Make My Day.wav

     Peak level 100.0 %
     Track quality 99.9 %
     Test CRC 145F6E0D
     Copy CRC 145F6E0D
     Accurately ripped (confidence 2)  [A9005F7E]
     Copy OK

Track 14

     Filename C:\EACRips\14. Dave Mc Loud - Gimme the Night.wav

     Peak level 100.0 %
     Track quality 100.0 %
     Test CRC F46624B3
     Copy CRC F46624B3
     Accurately ripped (confidence 2)  [1F1FC101]
     Copy OK

Track 15

     Filename C:\EACRips\15. Dave Rodgers - Deja Vu.wav

     Peak level 100.0 %
     Track quality 100.0 %
     Test CRC 9824FC5B
     Copy CRC 9824FC5B
     Accurately ripped (confidence 2)  [427A3EEF]
     Copy OK

Track 16

     Filename C:\EACRips\16. Mega NRG Man - Grand Prix.wav

     Peak level 100.0 %
     Track quality 99.9 %
     Test CRC 12C9B482
     Copy CRC 12C9B482
     Accurately ripped (confidence 2)  [6C813FCB]
     Copy OK

Track 17

     Filename C:\EACRips\17. Various Artists - D Vocal Battle Special Mega-Mix.wav

     Pre-gap length  0:00:04.65

     Peak level 100.0 %
     Track quality 99.9 %
     Test CRC 08F53FFA
     Copy CRC 08F53FFA
     Accurately ripped (confidence 2)  [941B2B22]
     Copy OK

All tracks accurately ripped

No errors occurred

End of status report

Код:

REM GENRE Eurobeat
REM DATE 2000
REM DISCID DA0E1B11
REM COMMENT "ExactAudioCopy v0.99pb5"
PERFORMER "Various Artists"
TITLE "Initial D Millennium Box (Disc 5)"
FILE "01. Marko Polo - Speedy Speed Boys.wav" WAVE
  TRACK 01 AUDIO
    TITLE "Speedy Speed Boys"
    PERFORMER "Marko Polo"
    INDEX 01 00:00:00
FILE "02. Dave Mc Loud - Mikado.wav" WAVE
  TRACK 02 AUDIO
    TITLE "Mikado"
    PERFORMER "Dave Mc Loud"
    INDEX 01 00:00:00
FILE "03. Derreck Simons - Station to Station.wav" WAVE
  TRACK 03 AUDIO
    TITLE "Station to Station"
    PERFORMER "Derreck Simons"
    INDEX 01 00:00:00
FILE "04. Robert Patton - Big in Japan.wav" WAVE
  TRACK 04 AUDIO
    TITLE "Big in Japan"
    PERFORMER "Robert Patton"
    INDEX 01 00:00:00
FILE "05. Sophie - Don't You (Forget About My Love).wav" WAVE
  TRACK 05 AUDIO
    TITLE "Don't You (Forget About My Love)"
    PERFORMER "Sophie"
    INDEX 01 00:00:00
FILE "06. Valentina - I Like You Like You Are.wav" WAVE
  TRACK 06 AUDIO
    TITLE "I Like You Like You Are"
    PERFORMER "Valentina"
    INDEX 01 00:00:00
FILE "07. Mickey B. - Take My Soul.wav" WAVE
  TRACK 07 AUDIO
    TITLE "Take My Soul"
    PERFORMER "Mickey B."
    INDEX 01 00:00:00
FILE "08. Queen of Times - Ever and Ever.wav" WAVE
  TRACK 08 AUDIO
    TITLE "Ever and Ever"
    PERFORMER "Queen of Times"
    INDEX 01 00:00:00
FILE "09. Wain L - Make Up Your Mind.wav" WAVE
  TRACK 09 AUDIO
    TITLE "Make Up Your Mind"
    PERFORMER "Wain L"
    INDEX 01 00:00:00
FILE "10. Wain L - Goodbye Yellow Brick Road.wav" WAVE
  TRACK 10 AUDIO
    TITLE "Goodbye Yellow Brick Road"
    PERFORMER "Wain L"
    INDEX 01 00:00:00
FILE "11. Mega NRG Man - Burning Desire.wav" WAVE
  TRACK 11 AUDIO
    TITLE "Burning Desire"
    PERFORMER "Mega NRG Man"
    INDEX 01 00:00:00
FILE "12. Dave Rodgers - 100.wav" WAVE
  TRACK 12 AUDIO
    TITLE "100"
    PERFORMER "Dave Rodgers"
    INDEX 01 00:00:00
FILE "13. Derreck Simons - Make My Day.wav" WAVE
  TRACK 13 AUDIO
    TITLE "Make My Day"
    PERFORMER "Derreck Simons"
    INDEX 01 00:00:00
FILE "14. Dave Mc Loud - Gimme the Night.wav" WAVE
  TRACK 14 AUDIO
    TITLE "Gimme the Night"
    PERFORMER "Dave Mc Loud"
    INDEX 01 00:00:00
FILE "15. Dave Rodgers - Deja Vu.wav" WAVE
  TRACK 15 AUDIO
    TITLE "Deja Vu"
    PERFORMER "Dave Rodgers"
    INDEX 01 00:00:00
FILE "16. Mega NRG Man - Grand Prix.wav" WAVE
  TRACK 16 AUDIO
    TITLE "Grand Prix"
    PERFORMER "Mega NRG Man"
    INDEX 01 00:00:00
  TRACK 17 AUDIO
    TITLE "D Vocal Battle Special Mega-Mix"
    PERFORMER "Various Artists"
    INDEX 00 03:31:50
FILE "17. Various Artists - D Vocal Battle Special Mega-Mix.wav" WAVE
    INDEX 01 00:00:00

Код:

AUDIOCHECKER v2.0 beta (build 457) - by Dester - opdester@freemail.hu
~~~~~~~~~~~~~~~~~~~~~~~~~~~~~~~~~~
-=== DO NOT EDIT THIS FILE! ===-

Путь: ...\Super Eurobeat Presents Initial D Second Stage Non Stop Selection

01 -=- 01. Marko Polo - Speedy Speed Boys.flac -=- CDDA (99%)
02 -=- 02. Dave Mc Loud - Mikado.flac -=- CDDA (100%)
03 -=- 03. Derreck Simons - Station to Station.flac -=- CDDA (99%)
04 -=- 04. Robert Patton - Big in Japan.flac -=- CDDA (100%)
05 -=- 05. Sophie - Don't You (Forget About My Love).flac -=- CDDA (99%)
06 -=- 06. Valentina - I Like You Like You Are.flac -=- CDDA (100%)
07 -=- 07. Mickey B. - Take My Soul.flac -=- CDDA (99%)
08 -=- 08. Queen of Times - Ever and Ever.flac -=- CDDA (100%)
09 -=- 09. Wain L - Make Up Your Mind.flac -=- CDDA (100%)
10 -=- 10. Wain L - Goodbye Yellow Brick Road.flac -=- CDDA (100%)
11 -=- 11. Mega NRG Man - Burning Desire.flac -=- CDDA (100%)
12 -=- 12. Dave Rodgers - 100.flac -=- CDDA (100%)
13 -=- 13. Derreck Simons - Make My Day.flac -=- CDDA (100%)
14 -=- 14. Dave Mc Loud - Gimme the Night.flac -=- CDDA (100%)
15 -=- 15. Dave Rodgers - Deja Vu.flac -=- CDDA (100%)
16 -=- 16. Mega NRG Man - Grand Prix.flac -=- CDDA (100%)
17 -=- 17. Various Artists - D Vocal Battle Special Mega-Mix.flac -=- CDDA (100%)

Сводка 99,76% CDDA

70485172
info [Профиль]  [ЛС] 

zqxw

Пол: Пол:Муж

Стаж: 8 лет 11 месяцев

Сообщений: 29

Предупреждений: 1

Рейтинг

post 02-Сен-2010 22:24 (спустя 7 часов) [-]0[+]

[Цитировать] 

а что это вообще такое?
info [Профиль]  [ЛС] 

SilverTea

Пол: Пол:Муж

Стаж: 9 лет 6 месяцев

Сообщений: 80

Рейтинг

post 02-Сен-2010 23:04 (спустя 39 минут) [-]0[+]

[Цитировать] 

zqxw
а на что это вообще похоже?
info [Профиль]  [ЛС] 
Показать сообщения:    
Ответить на тему

Текущее время: 17-Окт 23:32

Часовой пояс: GMT + 4



Вы не можете начинать темы
Вы не можете отвечать на сообщения
Вы не можете редактировать свои сообщения
Вы не можете удалять свои сообщения
Вы не можете голосовать в опросах
Вы не можете прикреплять файлы к сообщениям
Вы не можете скачивать файлы