Ошибка

Индекс волшебства / Toaru Majutsu no Index III (TV-3)[01-26 из 26][2018][Приключения, комедия, научная фантастика, фэнтези][HDTV1080p][Любительская]

Ответить на тему
 
Автор Сообщение

Chel90RUS

Пол: Пол:Муж

Стаж: 7 лет 11 месяцев

Сообщений: 651

Россия
Рейтинг

post 13-Апр-2019 17:14 0[+]

[Цитировать] 

pic="https://static2.anidub.com/tracker/poster/ea6ef47b61.jpg"
Индекс волшебства
Toaru Majutsu no Index III / A Certain Magical Index III / とある魔術の禁書目録Ⅲ

Год выпуска: 2018
Жанр: Приключения, комедия, научная фантастика, фэнтези
Страна: Япония
Тип: HDTV
Продолжительность: 26 серий ~ 25 мин
Дата выпуска: c 05.10.2018
Режиссер: Нисикиори Хироси
Автор оригинала / Сценарист: Камати Кадзума
Студия: J.C.Staff
Озвучено: Bars MacAdams, Nika Lenina, Jade
Перевод: Jeka, ILnazFag
Тайминг и работа со звуком: RAKETATV
Аудио: AAC 48000Hz stereo 192kbps [A: English [eng] (aac lc, 48000 Hz, stereo, 192 kb/s)]
Видео: MPEG4 Video (H264) 1920x1080 23.976fps 3012kbps [V: h264 high L4.0, yuv420p, 1920x1080, 3012 kb/s]


General
Complete name : \[AniDub]_Toaru_Majutsu_no_Index_III_[1080p]_[MVO]\[AniDub]_Toaru_Majutsu_no_Index_III_[01]_[1080p_x264_Aac]_[MVO].mp4
Format : MPEG-4
Format profile : Base Media
Codec ID : isom (isom)
File size : 551 MiB
Duration : 24 min 0 s
Overall bit rate mode : Variable
Overall bit rate : 3 209 kb/s
Encoded date : UTC 2018-10-10 21:36:40
Tagged date : UTC 2018-10-10 21:36:40
Writing application : Yamb 2.1.0.0

Video
ID : 1
Format : AVC
Format/Info : Advanced Video Codec
Format profile : High@L4
Format settings : CABAC / 4 Ref Frames
Format settings, CABAC : Yes
Format settings, ReFrames : 4 frames
Codec ID : avc1
Codec ID/Info : Advanced Video Coding
Duration : 24 min 0 s
Bit rate : 3 013 kb/s
Maximum bit rate : 38.4 Mb/s
Width : 1 920 pixels
Height : 1 080 pixels
Display aspect ratio : 16:9
Frame rate mode : Constant
Frame rate : 23.976 (24000/1001) FPS
Color space : YUV
Chroma subsampling : 4:2:0
Bit depth : 8 bits
Scan type : Progressive
Bits/(Pixel*Frame) : 0.061
Stream size : 517 MiB (94%)
Writing library : x264 core 129 r2230 1cffe9f
Encoding settings : cabac=1 / ref=1 / deblock=1:1:1 / analyse=0x3:0x3 / me=dia / subme=1 / psy=1 / psy_rd=0.40:0.00 / mixed_ref=0 / me_range=16 / chroma_me=1 / trellis=0 / 8x8dct=1 / cqm=0 / deadzone=21,11 / fast_pskip=1 / chroma_qp_offset=0 / threads=12 / lookahead_threads=2 / sliced_threads=0 / nr=0 / decimate=1 / interlaced=0 / bluray_compat=0 / constrained_intra=0 / bframes=5 / b_pyramid=2 / b_adapt=1 / b_bias=0 / direct=1 / weightb=1 / open_gop=0 / weightp=1 / keyint=250 / keyint_min=23 / scenecut=40 / intra_refresh=0 / rc=crf / mbtree=0 / crf=23.0 / qcomp=0.60 / qpmin=0 / qpmax=69 / qpstep=4 / ip_ratio=1.40 / pb_ratio=1.30 / aq=1:0.60
Tagged date : UTC 2018-10-10 21:36:41
Codec configuration box : avcC

Audio
ID : 2
Format : AAC LC
Format/Info : Advanced Audio Codec Low Complexity
Codec ID : mp4a-40-2
Duration : 24 min 0 s
Bit rate mode : Variable
Bit rate : 192 kb/s
Maximum bit rate : 201 kb/s
Channel(s) : 2 channels
Channel layout : L R
Sampling rate : 48.0 kHz
Frame rate : 46.875 FPS (1024 SPF)
Compression mode : Lossy
Stream size : 33.0 MiB (6%)
Language : English
Encoded date : UTC 2018-10-10 21:36:41
Tagged date : UTC 2018-10-10 21:36:41


Описание:В альтернативном мире науки и магии где-то в Южной Японии все так же стоит чудесный город, где живет Тома Камидзё, который спас мир, но потерял память. Впрочем, парень мог забыть о своих подвигах или о школьном задании на лето, но никак не о шумном создании в белом, которое поселилось в его скромной квартирке. Разумеется, Индекс снова втягивает Тому в историю, где фигурируют запретные книги, английские рыцари, римские католики и японские заговорщики, а мы встречаемся со старыми знакомыми из предыдущих сезонов.
А пока Тома проклинает свое вечное невезение, в предместьях Академгорода христианские маги схватываются с местными экуменистами, Мисаки и Акселератор не могут разобраться в собственных чувствах, а тайно прибывшая из Англии архиепископ Лаура мечтает сходить в японскую баню.

Грядут новые битвы, зашевелились местные тайные союзы эсперов, да и ученые Академии, явно не отягощенные моралью, предвкушают новые эксперименты. И только свежий взгляд на мир сериала помогает понять, что приключения героев – лишь часть большой картины «нового творения», в которой кое-кто из создателей Академии решил поколНя сами основы мироздания!
info [Профиль]  [ЛС] 
Показать сообщения:    
Ответить на тему

Текущее время: 17-Июн 16:07

Часовой пояс: GMT + 4



Вы не можете начинать темы
Вы не можете отвечать на сообщения
Вы не можете редактировать свои сообщения
Вы не можете удалять свои сообщения
Вы не можете голосовать в опросах
Вы не можете прикреплять файлы к сообщениям
Вы не можете скачивать файлы