Ошибка

2001 год: Космическая одиссея / 2001: A Space Odyssey (Стэнли Кубрик) [1968, фантастика, экранизация, BDRip 1080p HEVC]

Ответить на тему
 
Автор Сообщение

Sweetie Dragon

Пол: Пол:Муж

Стаж: 6 лет 6 месяцев

Сообщений: 112

Россия
Рейтинг

post 07-Фев-2019 21:51 0[+]

[Цитировать] 

2001 год: Космическая одиссея / 2001: A Space Odyssey
the time is now. [2001 re-release]

Год выпуска: 1968
Страна: Великобритания, США
Жанр: фантастика, экранизация
Продолжительность: 02:14:37
Перевод: Профессиональный (полное дублирование)
Режиссер:
  • Стэнли Кубрик
В ролях:
  • Кир Дулли
  • Гари Локвуд
  • Уильям Сильвестр
  • Дэниэл Рихтер
  • Леонард Росситер
  • Роберт Битти
  • Шон Салливан
  • Дуглас Рэйн

Описание: "Космическая одиссея 2001" - попытка заглянуть в будущее, путеводитель для поисков предназначения человечества, вопрос к вечности. Это ослепительная драма о поединке человека и машины получила "Оскар" за лучшие визуальные спецэффекты. Это потрясающий сплав движения и музыки. Это - одна из лучших работ режиссера Стэнли Кубрика, которая будет вдохновлять, удивлять и покорять еще не одно поколение. Перед началом путешествия в будущее, Кубрик навещает наших доисторических предков, потом перепрыгивает через тысячелетия в колонизированный космос, и, под конец, забрасывает астронавта Боумэна в неизведанный район космоса, может быть даже - в вечность. "Открой двери модуля, ХЭЛ". Таинственное грандиозное путешествие начинается. По роману Артура Ч. Кларка ”Часовой”


Семпл: Скачать
Качество: BDRip 1080p HEVC
Формат: MKV
Видео: HEVC, 1920x864, 23.976, 7891 kb/s
Аудио 1: AC3, 448 kb/s, 48.0 KHz, 6 ch [Дубляж]
Аудио 2: AC3, 640 kb/s, 48.0 KHz, 6 ch [Авторский Гаврилов]
Субтитры: Нет

Код:

General
Unique ID                                : 224744400652672389038252912367855810422 (0xA914327579BC9E99BF02BEC507513776)
Complete name                            : /mnt/sdb1/plex/Films/2001: A Space Odyssey (1968)/2001 A Space Odyssey.1968.1080p.HEVC.mkv
Format                                   : Matroska
Format version                           : Version 4 / Version 2
File size                                : 4.82 GiB
Duration                                 : 2 h 28 min
Overall bit rate                         : 4 634 kb/s
Encoded date                             : UTC 2016-11-07 18:00:15
Writing application                      : mkvmerge v9.5.0 ('Quiet Fire') 64bit
Writing library                          : libebml v1.3.4 + libmatroska v1.4.5

Video
ID                                       : 1
Format                                   : HEVC
Format/Info                              : High Efficiency Video Coding
Format profile                           : Main@L4.1@High
Codec ID                                 : V_MPEGH/ISO/HEVC
Duration                                 : 2 h 28 min
Bit rate                                 : 3 544 kb/s
Width                                    : 1 920 pixels
Height                                   : 864 pixels
Display aspect ratio                     : 2.222
Frame rate mode                          : Constant
Frame rate                               : 23.976 (24000/1001) FPS
Color space                              : YUV
Chroma subsampling                       : 4:2:0
Bit depth                                : 8 bits
Bits/(Pixel*Frame)                       : 0.089
Stream size                              : 3.69 GiB (76%)
Writing library                          : x265 2.1:[Windows][GCC 5.4.0][64 bit] 8bit
Encoding settings                        : wpp / ctu=32 / min-cu-size=8 / max-tu-size=32 / tu-intra-depth=1 / tu-inter-depth=1 / me=2 / subme=7 / merange=25 / no-rect / no-amp / max-merge=2 / temporal-mvp / early-skip / no-rskip / rdpenalty=0 / no-tskip / no-tskip-fast / no-strong-intra-smoothing / no-lossless / no-cu-lossless / no-constrained-intra / fast-intra / open-gop / no-temporal-layers / interlace=0 / keyint=240 / min-keyint=24 / scenecut=40 / rc-lookahead=40 / lookahead-slices=4 / bframes=6 / bframe-bias=0 / b-adapt=2 / ref=2 / limit-refs=3 / no-limit-modes / weightp / no-weightb / aq-mode=3 / qg-size=32 / aq-strength=0.70 / cbqpoffs=0 / crqpoffs=0 / rd=3 / psy-rd=1.75 / rdoq-level=1 / psy-rdoq=2.50 / log2-max-poc-lsb=8 / no-rd-refine / signhide / no-deblock / no-sao / no-sao-non-deblock / b-pyramid / no-cutree / no-intra-refresh / rc=crf / crf=23.0 / qcomp=0.80 / qpmin=0 / qpmax=51 / qpstep=1 / vbv-maxrate=50000 / vbv-bufsize=50000 / crf-max=0.0 / ipratio=1.10 / pbratio=1.00
Default                                  : Yes
Forced                                   : No
Color range                              : Limited
Color primaries                          : BT.709
Transfer characteristics                 : BT.709
Matrix coefficients                      : BT.709

Audio #1
ID                                       : 2
Format                                   : AC-3
Format/Info                              : Audio Coding 3
Codec ID                                 : A_AC3
Duration                                 : 2 h 28 min
Bit rate mode                            : Constant
Bit rate                                 : 448 kb/s
Channel(s)                               : 6 channels
Channel positions                        : Front: L C R, Side: L R, LFE
Sampling rate                            : 48.0 kHz
Frame rate                               : 31.250 FPS (1536 SPF)
Bit depth                                : 16 bits
Compression mode                         : Lossy
Stream size                              : 477 MiB (10%)
Title                                    : Дублированный АС3 5.1@448
Language                                 : Russian
Service kind                             : Complete Main
Default                                  : Yes
Forced                                   : No

Audio #2
ID                                       : 3
Format                                   : AC-3
Format/Info                              : Audio Coding 3
Codec ID                                 : A_AC3
Duration                                 : 2 h 28 min
Bit rate mode                            : Constant
Bit rate                                 : 640 kb/s
Channel(s)                               : 6 channels
Channel positions                        : Front: L C R, Side: L R, LFE
Sampling rate                            : 48.0 kHz
Frame rate                               : 31.250 FPS (1536 SPF)
Bit depth                                : 16 bits
Compression mode                         : Lossy
Stream size                              : 681 MiB (14%)
Title                                    : Гаврилов АС3 5.1@640
Language                                 : Russian
Service kind                             : Complete Main
Default                                  : No
Forced                                   : No

info [Профиль]  [ЛС] 

kalbungaa_rus

Пол: Пол:Муж

Стаж: 4 года 9 месяцев

Сообщений: 308

Украина
Рейтинг

post 08-Фев-2019 01:08 (спустя 3 часа) [-]-3[+]

[Цитировать] 

Я вот не понимаю - зачем выкладывать эти шедевры в рипах?

_________________
Я мнению вашему вращение предавал и осью был мой детородный орган!
info [Профиль]  [ЛС] 

leSang

Пол: Пол:Муж

Стаж: 10 лет

Сообщений: 1585

Япония
Рейтинг

post 08-Фев-2019 02:35 (спустя 1 час 27 минут) [-]0[+]

[Цитировать] 

там новость была
https://geektyrant.com/news/stanley-kubricks-2001-a...-release-in-imax

_________________
info [Профиль]  [ЛС] 

Kiprian

Пол: Пол:Муж

Стаж: 6 лет 6 месяцев

Сообщений: 373

Россия
Рейтинг

post 21-Апр-2019 20:36 (спустя 2 месяца 13 дней) [-]0[+]

[Цитировать] 

ерунда полная! хотел крутой старой фантастики а получил нудятину. блин там всё настолько затянуто + это шедевральное звуковое сопровождение - слушать дыхание и одну и ту же мелодию быстро надоедает! в общем хезня полнейшая. пойду дальше смотреть звёздный путь 2ой сезон. тоже старый но в 100 раз интереснее.
info [Профиль]  [ЛС] 
Показать сообщения:    
Ответить на тему

Текущее время: 22-Апр 13:14

Часовой пояс: GMT + 4



Вы не можете начинать темы
Вы не можете отвечать на сообщения
Вы не можете редактировать свои сообщения
Вы не можете удалять свои сообщения
Вы не можете голосовать в опросах
Вы не можете прикреплять файлы к сообщениям
Вы не можете скачивать файлы