Ошибка

Черный Клевер / Black Clover (TV)[01-61 + OVA из 64 + OVA][2017][Приключения, фэнтези][HDTVRip720p][Любительская (Одноголосая)]

Ответить на тему
 
Автор Сообщение

Chel90RUS

Пол: Пол:Муж

Стаж: 7 лет 5 месяцев

Сообщений: 569

Россия
Рейтинг

post 06-Дек-2018 13:06 0[+]

[Цитировать] 

pic="https://static2.anidub.com/tracker/poster/5b3a4c8f11.jpg"
Черный Клевер
Black Clover / ブラッククローバー

Год выпуска: 2017
Жанр: Приключения, фэнтези
Страна: Япония
Тип: HDTV
Продолжительность: 64+ серий ~ 24 мин
Дата выпуска: c 03.10.2017
Режиссер: Ното Такаиши, Ёсихара Тацуя
Автор оригинала / Сценарист: Табата Юки
Озвучено: JAM
Студия: Studio Pierrot
Аудио: AAC 48000Hz stereo 192kbps [A: English [eng] (aac lc, 48000 Hz, stereo, 192 kb/s)]
Видео: MPEG4 Video (H264) 1280x720 23.976fps 1804kbps [V: Alias Data Handler [eng] (h264 main L3.2, yuv420p, 1280x720, 1804 kb/s)]


General
Complete name : \[AniDub]_Black_Clover_[01]_[720p_x264_Aac]_[JAM].mp4
Format : MPEG-4
Format profile : Base Media
Codec ID : isom (isom)
File size : 345 MiB
Duration : 24 min 5 s
Overall bit rate mode : Variable
Overall bit rate : 2 000 kb/s
Encoded date : UTC 2017-10-03 20:04:53
Tagged date : UTC 2017-10-03 20:04:53
Writing application : Yamb 2.1.0.0

Video
ID : 1
Format : AVC
Format/Info : Advanced Video Codec
Format profile : Main@L3.2
Format settings, CABAC : Yes
Format settings, RefFrames : 3 frames
Codec ID : avc1
Codec ID/Info : Advanced Video Coding
Duration : 24 min 5 s
Bit rate : 1 805 kb/s
Maximum bit rate : 8 873 kb/s
Width : 1 280 pixels
Height : 720 pixels
Display aspect ratio : 16:9
Frame rate mode : Constant
Frame rate : 23.976 (24000/1001) FPS
Standard : NTSC
Color space : YUV
Chroma subsampling : 4:2:0
Bit depth : 8 bits
Scan type : Progressive
Bits/(Pixel*Frame) : 0.082
Stream size : 311 MiB (90%)
Language : English
Encoded date : UTC 2017-10-04 20:00:06
Tagged date : UTC 2017-10-03 20:04:55
Color range : Limited
Color primaries : BT.709
Transfer characteristics : BT.709
Matrix coefficients : BT.709

Audio
ID : 2
Format : AAC
Format/Info : Advanced Audio Codec
Format profile : LC
Codec ID : 40
Duration : 24 min 5 s
Bit rate mode : Variable
Bit rate : 192 kb/s
Maximum bit rate : 197 kb/s
Channel(s) : 2 channels
Channel positions : Front: L R
Sampling rate : 48.0 kHz
Frame rate : 46.875 FPS (1024 SPF)
Compression mode : Lossy
Stream size : 33.1 MiB (10%)
Language : English
Encoded date : UTC 2017-10-03 20:04:55
Tagged date : UTC 2017-10-03 20:04:55

Описание:У главного героя, Асты, сироты, с детства есть мечта. Он стремится стать великим архимагом. С юности он тренировался, чтобы стать первым из всех магов и получить гримуар архимага! Но в итоге.... ему достается вовсе не тот гримуар, который он ожидал получить. Путь героя к становлению легендой начинается.
Добавлена 61 серия, 06/12/2018
info [Профиль]  [ЛС] 

Chel90RUS

Пол: Пол:Муж

Стаж: 7 лет 5 месяцев

Сообщений: 569

Россия
Рейтинг

post 07-Дек-2018 00:13 (спустя 11 часов) [-]0[+]

[Цитировать] 

Добавлена 61 серия, 06/12/2018

_________________
info [Профиль]  [ЛС] 
Показать сообщения:    
Ответить на тему

Текущее время: 10-Дек 02:55

Часовой пояс: GMT + 4



Вы не можете начинать темы
Вы не можете отвечать на сообщения
Вы не можете редактировать свои сообщения
Вы не можете удалять свои сообщения
Вы не можете голосовать в опросах
Вы не можете прикреплять файлы к сообщениям
Вы не можете скачивать файлы