Ошибка

Знаменитый детектив Конан: Подсолнухи инферно (Фильм 19) / Meitantei Conan: Gouka no Himawari [Movie] [1 из 1] [Без хардсаба] [JAP, SUB] [2015, детектив, романтика, сёнэн, BDRip] [720p]

Ответить на тему
 
Автор Сообщение

ShinkaDan

Стаж: 3 года 7 месяцев

Сообщений: 12

Россия
Рейтинг

post 08-Июл-2018 19:48 1[+]

[Цитировать] 

Знаменитый детектив Конан: Подсолнухи инферно (Фильм 19)
Meitantei Conan: Gouka no Himawari



Страна: Япония
Жанр: Приключения, детектив, романтика, сёнэн
Продолжительность: полнометражный фильм, 115 мин.
Премьера: 18.04.2015

Озвучивание: Отсутствует
Перевод: ShinkaDan
- Перевод с японского: AnjiJa
- Редакция, тайминг, оформление: Natan
- Помощь в переводе, редакторские правки: Tess и Tami

Режиссер: Ямамото Ясуйтиро
Автор оригинала: Аояма Госё
Студия: TMS Entertainment, V1 Studio
Описание: В Нью-Йорке на аукционе с молотка продается утраченная ранее и вновь найденная картина Винсента Ван Гога "Подсолнухи". Сузуки Дзирокичи c Соноко Сузуки, почти не тратя время на шопинг, за рекордную сумму выкупают мистический шедевр в коллекцию, а заодно в экстравагантной форме делают объявление о выставке всех полотен "Подсолнухи" написанных знаменитым художником в вазовой композиции в музее "Утёс над озером". Но неожиданно на аукционе появляется Кайто Кид, который раньше никак не был замечен в каком либо интересе к чему-либо, кроме драгоценностей!

Автор рипа: [SOFCJ-Raws]
Качество: BDRip (720p)
Тип релиза: Без хардсаба
Формат видео: mkv
Видео: x264 (10 бит), 1280x720 (16:9), 23,976 кадра/сек, ~ 4 396 Кбит/сек
Аудио:
AC3, 6 канала, 48000Hz, ~640 Кбит/сек; JAP (в составе контейнера)
Субтитры: русские (внешний софтсаб)
Дополнительная информация:
Следите за нашими переводами в нашем твиттере или в теме по знаменитому детективу на каге.
 
General
Unique ID : 240434911526799374718142865564471732626 (0xB4E2145F429EEBD7B4850BC7FC312992)
Complete name : J:\Раздачи нашего сайта\[ShinkaDan] Detective Conan Movie 19 Gouka no Himawari [720p]\[SOFCJ-Raws] Detective Conan Movie 19 - Sunflowers of Inferno (BDRip 1280x720 x264 10bit AC3).mkv
Format : Matroska
Format version : Version 4 / Version 2
File size : 3.97 GiB
Duration : 1 h 52 min
Overall bit rate : 5 038 kb/s
Movie name : [SOFCJ-Raws] Detective Conan Movie 19 - Sunflowers of Inferno (BDRip 1280x720 x264 10bit AC3)
Encoded date : UTC 2015-12-11 05:15:39
Writing application : mkvmerge v7.8.0 ('River Man') 32bit built on Apr 3 2015 12:11:22
Writing library : libebml v1.3.1 + libmatroska v1.4.2

Video
ID : 1
Format : AVC
Format/Info : Advanced Video Codec
Format profile : High 10@L4.1
Format settings, CABAC : Yes
Format settings, ReFrames : 4 frames
Codec ID : V_MPEG4/ISO/AVC
Duration : 1 h 52 min
Bit rate : 4 396 kb/s
Width : 1 280 pixels
Height : 720 pixels
Display aspect ratio : 16:9
Frame rate mode : Constant
Frame rate : 23.976 (24000/1001) FPS
Color space : YUV
Chroma subsampling : 4:2:0
Bit depth : 10 bits
Scan type : Progressive
Bits/(Pixel*Frame) : 0.199
Stream size : 3.46 GiB (87%)
Writing library : x264 core 148 r2638+53 bb29004 t_mod_Custom [10-bit@all X86_64]
Encoding settings : cabac=1 / ref=4 / deblock=1:-2:-2 / analyse=0x3:0x133 / me=umh / subme=9 / psy=1 / fade_compensate=0.00 / psy_rd=0.70:0.00 / mixed_ref=1 / me_range=32 / chroma_me=1 / trellis=2 / 8x8dct=1 / cqm=0 / deadzone=21,11 / fast_pskip=1 / chroma_qp_offset=-2 / threads=12 / lookahead_threads=2 / sliced_threads=0 / nr=0 / decimate=0 / interlaced=0 / bluray_compat=0 / constrained_intra=0 / fgo=0 / bframes=8 / b_pyramid=2 / b_adapt=2 / b_bias=0 / direct=3 / weightb=1 / open_gop=0 / weightp=2 / keyint=250 / keyint_min=23 / scenecut=40 / intra_refresh=0 / rc=crf / mbtree=0 / crf=17.0000 / qcomp=0.60 / qpmin=10:10:10 / qpmax=38:38:38 / qpstep=4 / ip_ratio=1.40 / pb_ratio=1.30 / aq=1:1.00 / aq-sensitivity=10.00 / aq-factor=1.00:1.00:1.00 / aq2=0 / aq3=0
Language : Japanese
Default : Yes
Forced : No
Color range : Limited
Color primaries : BT.709
Transfer characteristics : BT.709
Matrix coefficients : BT.709

Audio
ID : 2
Format : AC-3
Format/Info : Audio Coding 3
Mode extension : CM (complete main)
Format settings, Endianness : Big
Codec ID : A_AC3
Duration : 1 h 52 min
Bit rate mode : Constant
Bit rate : 640 kb/s
Channel(s) : 6 channels
Channel positions : Front: L C R, Side: L R, LFE
Sampling rate : 48.0 kHz
Frame rate : 31.250 FPS (1536 spf)
Bit depth : 16 bits
Compression mode : Lossy
Stream size : 516 MiB (13%)
Language : Japanese
Default : Yes
Forced : No
info [Профиль]  [ЛС] 
Показать сообщения:    
Ответить на тему

Текущее время: 20-Июл 10:55

Часовой пояс: GMT + 4



Вы не можете начинать темы
Вы не можете отвечать на сообщения
Вы не можете редактировать свои сообщения
Вы не можете удалять свои сообщения
Вы не можете голосовать в опросах
Вы не можете прикреплять файлы к сообщениям
Вы не можете скачивать файлы