Ошибка

До окончания фрилича осталось:


(Alternative rap, Hip-Hop, Punk-Rock, Rap-Rock, Reggae, Grunge) Noize MC - Последний Альбом (2010) - 2010, APE (image+.cue)+cover, lossless

Ответить на тему
 
Автор Сообщение

nobilis13

Пол: Пол:Муж

Стаж: 3 года 3 месяца

Сообщений: 14

Рейтинг

post 27-Апр-2015 19:51 0[+]

[Цитировать] 

Noize MC - Последний Альбом (2010)


pic="http://noizemc.ru/wp-content/uploads/Noize-Mc-_-_-_2.600x600-75.jpg"


Жанр: Alternative rap, Hip-Hop, Punk-Rock, Rap-Rock, Reggae, Grunge
Год издания данного носителя: 2010
Страна-производитель носителя: Russia
Лейбл: Монолит Рекордс
Аудио кодек: APE
Тип рипа: image+.cue
Битрейт аудио: lossless
Продолжительность: 01:18:02
Полиграфия: Присутствует
Треклист:
1. «Тыщатыщ» 3:31
2. «Устрой дестрой» (feat. Чача) 3:59
3. «Испортить вам пати!» 3:55
4. «Манки бизнес» 3:58
5. «Бабки в шапку!» 3:36
6. «Артист» (feat. Staisha) 3:06
7. «Певец и актриса» (feat. Staisha) 4:23
8. «Бэктон#1» 3:35
9. «Ты не считаешь» 4:35
10. «Красный октябрь» 3:51
11. «Пустые места» 4:17
12. «Ругань из-за стены» 3:44
13. «Антенны» 3:53
14. «Why the Dollar Falls» (feat. Раскарандаш) 3:34
15. «Денежный дождь» (feat. Comme-Il-Faut) 3:35
16. «Гимн понаехавших провинциалов» 3:31
17. «Мизантроп-рэп» 2:56
18. «Жечь электричество!» 4:28
19. «На Марсе классно» 4:14
20. «Вот и всё. Ну и что?» 2:57
21. «Мерседес S666» (скрытый трек) 2:10
Exact Audio Copy V0.99 prebeta 5 from 4. May 2009 

Отчёт EAC об извлечении, выполненном 29. мая 2010, 1:08

Noize MC / Последний Альбом

Дисковод: Optiarc DVD RW AD-7530B Adapter: 0 ID: 0

Режим чтения : Достоверность
Использование точного потока : Да
Отключение кэша аудио : Да
Использование указателей C2 : Нет

Коррекция смещения при чтении : 6
Способность читать области Lead-in и Lead-out : Нет
Заполнение пропущенных сэмплов тишиной : Да
Удаление блоков с тишиной в начале и конце : Нет
При вычислениях CRC использовались нулевые сэмплы : Да
Интерфейс : Встроенный Win32-интерфейс для Win NT/2000

Выходной формат : Внутренние WAV-операции
Формат сэмплов : 44.100 Гц; 16 бит; стерео

TOC извлечённого CD

Трек | Старт | Длительность | Начальный сектор | Конечный сектор
---------------------------------------------------------------------
1 | 0:00.00 | 3:31.18 | 0 | 15842
2 | 3:31.18 | 3:59.38 | 15843 | 33805
3 | 7:30.56 | 3:55.34 | 33806 | 51464
4 | 11:26.15 | 3:58.66 | 51465 | 69380
5 | 15:25.06 | 3:36.11 | 69381 | 85591
6 | 19:01.17 | 3:06.27 | 85592 | 99568
7 | 22:07.44 | 4:23.41 | 99569 | 119334
8 | 26:31.10 | 3:35.44 | 119335 | 135503
9 | 30:06.54 | 4:34.71 | 135504 | 156124
10 | 34:41.50 | 3:51.25 | 156125 | 173474
11 | 38:33.00 | 4:17.38 | 173475 | 192787
12 | 42:50.38 | 3:44.44 | 192788 | 209631
13 | 46:35.07 | 3:53.52 | 209632 | 227158
14 | 50:28.59 | 3:34.52 | 227159 | 243260
15 | 54:03.36 | 3:35.47 | 243261 | 259432
16 | 57:39.08 | 3:31.25 | 259433 | 275282
17 | 61:10.33 | 2:56.50 | 275283 | 288532
18 | 64:07.08 | 4:28.20 | 288533 | 308652
19 | 68:35.28 | 4:14.00 | 308653 | 327702
20 | 72:49.28 | 2:57.46 | 327703 | 341023
21 | 75:46.74 | 2:14.02 | 341024 | 351075

Характеристики диапазона извлечения и сообщения об ошибках

Выбранный диапазон

Имя файла D:MusicNoize MC - Последний Альбом (2010) LooslessNoize MC - Последний Альбом.wav

Пиковый уровень 100.0 %
Качество диапазона 100.0 %
CRC копии 447EF63E
Копирование... OK

Ошибок не произошло

Конец отчёта
REM GENRE Rap/Hip-Hop/Rock 
REM DATE 2010
REM DISCID 35124915
REM COMMENT "ExactAudioCopy v0.99pb5"
PERFORMER "Noize MC"
TITLE "Последний Альбом"
FILE "Noize MC - Последний Альбом.ape" WAVE
TRACK 01 AUDIO
TITLE "Тыщатыщ"
PERFORMER "Noize MC"
INDEX 01 00:00:00
TRACK 02 AUDIO
TITLE "Устрой Дестрой (Feat. Чача)"
PERFORMER "Noize MC"
INDEX 01 03:31:18
TRACK 03 AUDIO
TITLE "Испортить Вам Пати!"
PERFORMER "Noize MC"
INDEX 01 07:30:56
TRACK 04 AUDIO
TITLE "Манки Бизнес"
PERFORMER "Noize MC"
INDEX 01 11:26:15
TRACK 05 AUDIO
TITLE "Бабки В Шапку!"
PERFORMER "Noize MC"
INDEX 01 15:25:06
TRACK 06 AUDIO
TITLE "Артист (Feat. Staisha)"
PERFORMER "Noize MC"
INDEX 01 19:01:17
TRACK 07 AUDIO
TITLE "Певец И Актриса (Feat. Staisha)"
PERFORMER "Noize MC"
INDEX 01 22:07:44
TRACK 08 AUDIO
TITLE "Бэктон#1"
PERFORMER "Noize MC"
INDEX 01 26:31:10
TRACK 09 AUDIO
TITLE "Ты Не Считаешь"
PERFORMER "Noize MC"
INDEX 01 30:06:54
TRACK 10 AUDIO
TITLE "Красный Октябрь"
PERFORMER "Noize MC"
INDEX 01 34:41:50
TRACK 11 AUDIO
TITLE "Пустые Места"
PERFORMER "Noize MC"
INDEX 01 38:33:00
TRACK 12 AUDIO
TITLE "Ругань Из-За Стены"
PERFORMER "Noize MC"
INDEX 01 42:50:38
TRACK 13 AUDIO
TITLE "Антенны"
PERFORMER "Noize MC"
INDEX 01 46:35:07
TRACK 14 AUDIO
TITLE "Why The Dollar Falls (Feat. Раскарандаш)"
PERFORMER "Noize MC"
INDEX 01 50:28:59
TRACK 15 AUDIO
TITLE "Денежный Дождь (Feat. Comme-Il-Faut)"
PERFORMER "Noize MC"
INDEX 01 54:03:36
TRACK 16 AUDIO
TITLE "Гимн Понаехавших Провинциалов"
PERFORMER "Noize MC"
INDEX 01 57:39:08
TRACK 17 AUDIO
TITLE "Мизантроп-Рэп"
PERFORMER "Noize MC"
INDEX 01 61:10:33
TRACK 18 AUDIO
TITLE "Жечь Электричество!"
PERFORMER "Noize MC"
INDEX 01 64:07:08
TRACK 19 AUDIO
TITLE "На Марсе Классно"
PERFORMER "Noize MC"
INDEX 01 68:35:28
TRACK 20 AUDIO
TITLE "Вот И Всё. Ну И Что?"
PERFORMER "Noize MC"
INDEX 01 72:49:28
TRACK 21 AUDIO
TITLE "Мерседес S666 (Скрытый Трек)"
PERFORMER "Noize MC"
INDEX 01 75:46:74
info [Профиль]  [ЛС] 
Показать сообщения:    
Ответить на тему

Текущее время: 24-Фев 00:04

Часовой пояс: GMT + 4



Вы не можете начинать темы
Вы не можете отвечать на сообщения
Вы не можете редактировать свои сообщения
Вы не можете удалять свои сообщения
Вы не можете голосовать в опросах
Вы не можете прикреплять файлы к сообщениям
Вы не можете скачивать файлы