Ошибка

(Hip-Hop) the Chemodan - Дискография (3 CD) - 2009-2011, FLAC (tracks+.cue), lossless

Ответить на тему
 
Автор Сообщение

Raxent

Пол: Пол:Муж

Стаж: 8 лет 1 месяц

Сообщений: 219

Рейтинг

post 23-Янв-2012 10:50 0[+]

[Цитировать] 

the Chemodan - Дискография
pic="http://s61.radikal.ru/i171/1003/bc/0fba288bcda2.jpg"

Жанр: Hip-HopГод издания диска: 2009-2011Страна: Россия (г. Петрозаводск)Аудиокодек: FLAC (*.flac)Тип рипа: tracks+.cueБитрейт аудио: lossless
Продолжительность: 03:21:57Источник (релизер): Рипы С Оригинальных ДисковНаличие сканов в содержимом раздачи: да
Треклист:
01 Интрило
02 36 и 6 (Ft. MMO)
03 В Лету Канул (Ft. Sony Money)
04 Грёбаная Система (Freestyle Версия Скит)
05 Район Не В Праве
06 Трэк Номер 6 (Ft. XaNDeR aLi)
07 А Вы Могли Бы (В.Маяковский Скит)
08 Ни О Чём (Ft. Sony Money , AVAS & Ra Star)
09 Минздрав Предупреждал (Ft. Vendetta)
10 Тру-Базар (Skit)
11 Это Слишком Просто
12 Реквием По Мачте (Кач Версия Skit)
13 Жызнь (Ft. XaNDeR aLi)
14 Чемодан Будет Ржать (Skit)
15 Мы Засранцы (Ft. Brick Bazuka)
16 Сжечь Веру (Ft. Cocaine)
17 Убитый
18 Маленькие Люди (Ft. Vanich)
19 Одна Любовь (Ft. Hasher)
20 Мечтать Вредно (L.Fox Remix)
21 Аутрище
Музыка:
Грязный Луи: 1,2,9,12,15,18,19,20
Mike Kruger: 6,11,13,16,17
Sony Money: 3,8
L.Fox: 5, 20
Kore: 4
Совместный релиз лейблов "ЦАО продакшн" и "Gourmet Music" - второй номерной альбом группы из Петрозаводска "the Chemodan". Любой музыкальный носитель, на котором стоят логотипы ЦАО и Гурманов - гарант того, что продукт будет нестандартным и интересным. Возможно, он не придётся по вкусу всем, но уж точно не останется без внимания. Так и альбом Чемоданов - "Минздрав Предупреждал". Группа не зря гордо носит титул "самого подземного проекта Петрозаводска" - их очень самобытный подход к темам песен, а также нетривиальный взгляд на вполне обыденные вещи, равно как качественный продакшн, интересная техника и временами сумасшедшие рифмы это подтверждают практически в
кaждой песне.
Ворвавшись в хип-хоп в 2007 году, выпустив несколько интересных мини-релизов, как сольных, так и общих микстейпов (полная дискография представлена ниже), и вспыхнув яркой звездой на нескольких крупных баттлах, the Chemodan укрепили свои позиции в рэпе, записав и выложив для свободного скачивания на лейбле RAP-A-NET альбом "Не сегодня", одна фраза из которого: "Если рэп для меня хобби, то пошёл я нахуй" стала не только кредо группы, но и, наверное, одной из самых цитируемых строчек 2008-ого года. И совсем не случайно, что одна из новых песен группы попала на самый популярный хип-хоп сборник этого года "Hip-Hop для Гурманов Vol.3", по соседству с такими грандами рэпа, как TAHDEM Foundation, CENTR, Крип-а-Крип и 43 градуса.
Альбом "Минздрав предупреждал" - это не просто продолжение заложенных в первых релизах группы традиций, но и очередные порции жёсткого и бескомпромиссного рэпа. Рэпа, интересного далеко не только поклонникам настоящего хип-хопа, но и широкому кругу слушателей, которым близка лирика этих ребят. the Chemodan, получив мощную поддержку от своих поклонников, решил пойти им навстречу. Альбом можно уже сейчас бесплатно скачать в сети, в отличном качестве, со всем оформлением. Еще перед началом продаж альбома на компакт-дисках. Может, для кого-то это не самый удачный коммерческий ход? Может быть. Но the Chemodan никогда и не говорили о том, что делают коммерческую музыку. Они делают рэп.
(ц) Габонская Гадюка

Код:

Exact Audio Copy V0.99 prebeta 4 from 23. January 2008

Отчёт EAC об извлечении, выполненном 18. января 2012, 1:55

the Chemodan / Минздрав Предупреждал

Дисковод: ASUS    DRW-1608P   Adapter: 0  ID: 0

Режим чтения                 : Достоверность
Использование точного потока : Да
Отключение кэша аудио        : Да
Использование указателей C2  : Нет

Коррекция смещения при чтении                     : 48
Способность читать области Lead-in и Lead-out     : Нет
Заполнение пропущенных сэмплов тишиной            : Да
Удаление блоков с тишиной в начале и конце        : Нет
При вычислениях CRC использовались нулевые сэмплы : Да
Интерфейс                                         : Встроенный Win32-интерфейс для Win NT/2000
Обработка зазоров                                 : Добавлено к предыдущему треку

Выходной формат          : Пользовательский кодировщик
Выбранный битрейт        : 320 kBit/s
Качество                 : Высокий
Добавление ID3-тэга      : Нет
Утилита сжатия           : D:\Program Files\Exact Audio Copy\Flac\flac.exe
Дополнительные параметры : -8 -V -T "ARTIST=%a" -T "TITLE=%t" -T "ALBUM=%g" -T "DATE=%y" -T "TRACKNUMBER=%n" -T "GENRE=%m" -T "COMMENT=EAC FLAC -8" %s

TOC извлечённого CD

     Трек |   Старт  | Длительность | Начальный сектор | Конечный сектор
    ---------------------------------------------------------------------
       1  |  0:00.00 |    1:16.21   |           0      |       5720
       2  |  1:16.21 |    2:26.58   |        5721      |      16728
       3  |  3:43.04 |    3:05.73   |       16729      |      30676
       4  |  6:49.02 |    1:07.56   |       30677      |      35757
       5  |  7:56.58 |    3:15.42   |       35758      |      50424
       6  | 11:12.25 |    2:21.21   |       50425      |      61020
       7  | 13:33.46 |    0:40.05   |       61021      |      64025
       8  | 14:13.51 |    3:58.10   |       64026      |      81885
       9  | 18:11.61 |    3:01.19   |       81886      |      95479
      10  | 21:13.05 |    0:24.07   |       95480      |      97286
      11  | 21:37.12 |    3:26.41   |       97287      |     112777
      12  | 25:03.53 |    1:59.66   |      112778      |     121768
      13  | 27:03.44 |    3:02.66   |      121769      |     135484
      14  | 30:06.35 |    0:24.64   |      135485      |     137348
      15  | 30:31.24 |    2:51.65   |      137349      |     150238
      16  | 33:23.14 |    2:34.31   |      150239      |     161819
      17  | 35:57.45 |    3:32.02   |      161820      |     177721
      18  | 39:29.47 |    4:02.55   |      177722      |     195926
      19  | 43:32.27 |    2:49.39   |      195927      |     208640
      20  | 46:21.66 |    3:09.61   |      208641      |     222876
      21  | 49:31.52 |    2:35.40   |      222877      |     234541

Трек  1

     Имя файла E:\Даунлоад\Rulezzz1\01 Интрило.wav

     Длина предзазора  0:00:02.00

     Пиковый уровень 97.7 %
     Качество трека 100.0 %
     CRC теста 93E453C8
     CRC копии 93E453C8
     Точное извлечение (достоверность 1)  [602DF446]
     Копирование... OK

Трек  2

     Имя файла E:\Даунлоад\Rulezzz1\02 36 и 6 (Ft. ММО).wav

     Длина предзазора  0:00:02.00

     Пиковый уровень 98.8 %
     Качество трека 99.9 %
     CRC теста E0AB46FA
     CRC копии E0AB46FA
     Точное извлечение (достоверность 1)  [026276A4]
     Копирование... OK

Трек  3

     Имя файла E:\Даунлоад\Rulezzz1\03 В Лету Канул (Ft. Sony Money).wav

     Длина предзазора  0:00:02.00

     Пиковый уровень 88.9 %
     Качество трека 99.9 %
     CRC теста 8799D8D6
     CRC копии 8799D8D6
     Точное извлечение (достоверность 1)  [D7CF4D16]
     Копирование... OK

Трек  4

     Имя файла E:\Даунлоад\Rulezzz1\04 Грёбаная Система (Freestyle Версия Скит).wav

     Длина предзазора  0:00:02.00

     Пиковый уровень 89.2 %
     Качество трека 99.8 %
     CRC теста 973CF45A
     CRC копии 973CF45A
     Точное извлечение (достоверность 1)  [771E35F1]
     Копирование... OK

Трек  5

     Имя файла E:\Даунлоад\Rulezzz1\05 Район Не В Праве.wav

     Длина предзазора  0:00:02.00

     Пиковый уровень 100.0 %
     Качество трека 100.0 %
     CRC теста F064BDA6
     CRC копии F064BDA6
     Точное извлечение (достоверность 1)  [74E825A4]
     Копирование... OK

Трек  6

     Имя файла E:\Даунлоад\Rulezzz1\06 Трэк Номер 6 (Ft. XaNDeR aLi).wav

     Длина предзазора  0:00:02.00

     Пиковый уровень 100.0 %
     Качество трека 100.0 %
     CRC теста 6AC2492A
     CRC копии 6AC2492A
     Точное извлечение (достоверность 1)  [DAA193DA]
     Копирование... OK

Трек  7

     Имя файла E:\Даунлоад\Rulezzz1\07 А Вы Могли Бы (В. Маяковский Скит).wav

     Длина предзазора  0:00:02.00

     Пиковый уровень 100.0 %
     Качество трека 100.0 %
     CRC теста 88B8BA9F
     CRC копии 88B8BA9F
     Точное извлечение (достоверность 1)  [318DC276]
     Копирование... OK

Трек  8

     Имя файла E:\Даунлоад\Rulezzz1\08 Ни О Чём (Ft. Sony Money, AVAS & Ra Star).wav

     Длина предзазора  0:00:02.00

     Пиковый уровень 93.1 %
     Качество трека 100.0 %
     CRC теста ABC90B6F
     CRC копии ABC90B6F
     Точное извлечение (достоверность 1)  [CC31E38D]
     Копирование... OK

Трек  9

     Имя файла E:\Даунлоад\Rulezzz1\09 Минздрав Предупреждал (Ft. Vendetta).wav

     Длина предзазора  0:00:02.00

     Пиковый уровень 97.7 %
     Качество трека 100.0 %
     CRC теста B6862B44
     CRC копии B6862B44
     Точное извлечение (достоверность 1)  [3F9A0F0C]
     Копирование... OK

Трек 10

     Имя файла E:\Даунлоад\Rulezzz1\10 Тру-Базар (Skit).wav

     Длина предзазора  0:00:02.00

     Пиковый уровень 100.0 %
     Качество трека 100.0 %
     CRC теста B0DCA642
     CRC копии B0DCA642
     Точное извлечение (достоверность 1)  [D252971F]
     Копирование... OK

Трек 11

     Имя файла E:\Даунлоад\Rulezzz1\11 Это Слишком Просто.wav

     Длина предзазора  0:00:02.00

     Пиковый уровень 97.7 %
     Качество трека 99.9 %
     CRC теста 74D18A6D
     CRC копии 74D18A6D
     Точное извлечение (достоверность 1)  [A56E91F1]
     Копирование... OK

Трек 12

     Имя файла E:\Даунлоад\Rulezzz1\12 Реквием По Мачте (Кач Версия Skit).wav

     Длина предзазора  0:00:02.00

     Пиковый уровень 97.7 %
     Качество трека 99.9 %
     CRC теста 45EED300
     CRC копии 45EED300
     Точное извлечение (достоверность 1)  [3CD70699]
     Копирование... OK

Трек 13

     Имя файла E:\Даунлоад\Rulezzz1\13 Жызнь (Ft. XaNDeR aLi).wav

     Длина предзазора  0:00:02.00

     Пиковый уровень 76.7 %
     Качество трека 100.0 %
     CRC теста 65AC58D8
     CRC копии 65AC58D8
     Точное извлечение (достоверность 1)  [DFAAC94B]
     Копирование... OK

Трек 14

     Имя файла E:\Даунлоад\Rulezzz1\14 Чемодан Будет Ржать (Skit).wav

     Длина предзазора  0:00:01.98

     Пиковый уровень 99.9 %
     Качество трека 100.0 %
     CRC теста E92A4E2C
     CRC копии E92A4E2C
     Точное извлечение (достоверность 1)  [B8A2856B]
     Копирование... OK

Трек 15

     Имя файла E:\Даунлоад\Rulezzz1\15 Мы Засранцы (Ft. Brick Bazuka).wav

     Длина предзазора  0:00:02.00

     Пиковый уровень 100.0 %
     Качество трека 100.0 %
     CRC теста 464D6A52
     CRC копии 464D6A52
     Точное извлечение (достоверность 1)  [B9DED8DC]
     Копирование... OK

Трек 16

     Имя файла E:\Даунлоад\Rulezzz1\16 Сжечь Веру (Ft. Cocaine).wav

     Длина предзазора  0:00:02.00

     Пиковый уровень 100.0 %
     Качество трека 99.9 %
     CRC теста 7D6C7FD6
     CRC копии 7D6C7FD6
     Точное извлечение (достоверность 1)  [B962833D]
     Копирование... OK

Трек 17

     Имя файла E:\Даунлоад\Rulezzz1\17 Убитый.wav

     Длина предзазора  0:00:02.00

     Пиковый уровень 100.0 %
     Качество трека 100.0 %
     CRC теста 23B71589
     CRC копии 23B71589
     Точное извлечение (достоверность 1)  [AF0566F3]
     Копирование... OK

Трек 18

     Имя файла E:\Даунлоад\Rulezzz1\18 Маленькие Люди (Ft. Vanich).wav

     Длина предзазора  0:00:02.00

     Пиковый уровень 97.7 %
     Качество трека 99.9 %
     CRC теста D68DC7C0
     CRC копии D68DC7C0
     Точное извлечение (достоверность 1)  [885538FD]
     Копирование... OK

Трек 19

     Имя файла E:\Даунлоад\Rulezzz1\19 Одна Любовь (Ft. Hasher).wav

     Длина предзазора  0:00:02.00

     Пиковый уровень 97.7 %
     Качество трека 100.0 %
     CRC теста CE0B2630
     CRC копии CE0B2630
     Точное извлечение (достоверность 1)  [1A1664BF]
     Копирование... OK

Трек 20

     Имя файла E:\Даунлоад\Rulezzz1\20 Мечтать Вредно (L.Fox Remix).wav

     Длина предзазора  0:00:02.00

     Пиковый уровень 100.0 %
     Качество трека 100.0 %
     CRC теста 48D44AE8
     CRC копии 48D44AE8
     Точное извлечение (достоверность 1)  [0674B97A]
     Копирование... OK

Трек 21

     Имя файла E:\Даунлоад\Rulezzz1\21 Аутрище.wav

     Длина предзазора  0:00:02.00

     Пиковый уровень 97.7 %
     Качество трека 100.0 %
     CRC теста 5AD60B68
     CRC копии 5AD60B68
     Точное извлечение (достоверность 1)  [B5A0A819]
     Копирование... OK

Все треки извлечены точно

Ошибок не произошло

Конец отчёта

Код:

REM GENRE Hip-Hop
REM DATE 2009
REM DISCID 2A0C3715
REM COMMENT "ExactAudioCopy v0.99pb4"
PERFORMER "the Chemodan"
TITLE "Минздрав Предупреждал"
FILE "01 Интрило.wav" WAVE
  TRACK 01 AUDIO
    TITLE "Интрило"
    PERFORMER "the Chemodan"
    FLAGS DCP
    INDEX 01 00:00:00
  TRACK 02 AUDIO
    TITLE "36 и 6 (Ft. ММО)"
    PERFORMER "the Chemodan"
    FLAGS DCP
    INDEX 00 01:14:21
FILE "02 36 и 6 (Ft. ММО).wav" WAVE
    INDEX 01 00:00:00
  TRACK 03 AUDIO
    TITLE "В Лету Канул (Ft. Sony Money)"
    PERFORMER "the Chemodan"
    FLAGS DCP
    INDEX 00 02:24:58
FILE "03 В Лету Канул (Ft. Sony Money).wav" WAVE
    INDEX 01 00:00:00
  TRACK 04 AUDIO
    TITLE "Грёбаная Система (Freestyle Версия Скит)"
    PERFORMER "the Chemodan"
    FLAGS DCP
    INDEX 00 03:03:73
FILE "04 Грёбаная Система (Freestyle Версия Скит).wav" WAVE
    INDEX 01 00:00:00
  TRACK 05 AUDIO
    TITLE "Район Не В Праве"
    PERFORMER "the Chemodan"
    FLAGS DCP
    INDEX 00 01:05:56
FILE "05 Район Не В Праве.wav" WAVE
    INDEX 01 00:00:00
  TRACK 06 AUDIO
    TITLE "Трэк Номер 6 (Ft. XaNDeR aLi)"
    PERFORMER "the Chemodan"
    FLAGS DCP
    INDEX 00 03:13:42
FILE "06 Трэк Номер 6 (Ft. XaNDeR aLi).wav" WAVE
    INDEX 01 00:00:00
    INDEX 02 01:12:41
    INDEX 03 01:44:58
  TRACK 07 AUDIO
    TITLE "А Вы Могли Бы (В. Маяковский Скит)"
    PERFORMER "the Chemodan"
    FLAGS DCP
    INDEX 00 02:19:21
FILE "07 А Вы Могли Бы (В. Маяковский Скит).wav" WAVE
    INDEX 01 00:00:00
  TRACK 08 AUDIO
    TITLE "Ни О Чём (Ft. Sony Money, AVAS & Ra Star)"
    PERFORMER "the Chemodan"
    FLAGS DCP
    INDEX 00 00:38:05
FILE "08 Ни О Чём (Ft. Sony Money, AVAS & Ra Star).wav" WAVE
    INDEX 01 00:00:00
  TRACK 09 AUDIO
    TITLE "Минздрав Предупреждал (Ft. Vendetta)"
    PERFORMER "the Chemodan"
    FLAGS DCP
    INDEX 00 03:56:10
FILE "09 Минздрав Предупреждал (Ft. Vendetta).wav" WAVE
    INDEX 01 00:00:00
  TRACK 10 AUDIO
    TITLE "Тру-Базар (Skit)"
    PERFORMER "the Chemodan"
    FLAGS DCP
    INDEX 00 02:59:19
FILE "10 Тру-Базар (Skit).wav" WAVE
    INDEX 01 00:00:00
  TRACK 11 AUDIO
    TITLE "Это Слишком Просто"
    PERFORMER "the Chemodan"
    FLAGS DCP
    INDEX 00 00:22:07
FILE "11 Это Слишком Просто.wav" WAVE
    INDEX 01 00:00:00
  TRACK 12 AUDIO
    TITLE "Реквием По Мачте (Кач Версия Skit)"
    PERFORMER "the Chemodan"
    FLAGS DCP
    INDEX 00 03:24:41
FILE "12 Реквием По Мачте (Кач Версия Skit).wav" WAVE
    INDEX 01 00:00:00
  TRACK 13 AUDIO
    TITLE "Жызнь (Ft. XaNDeR aLi)"
    PERFORMER "the Chemodan"
    FLAGS DCP
    INDEX 00 01:57:66
FILE "13 Жызнь (Ft. XaNDeR aLi).wav" WAVE
    INDEX 01 00:00:00
  TRACK 14 AUDIO
    TITLE "Чемодан Будет Ржать (Skit)"
    PERFORMER "the Chemodan"
    FLAGS DCP
    INDEX 00 03:00:67
FILE "14 Чемодан Будет Ржать (Skit).wav" WAVE
    INDEX 01 00:00:00
  TRACK 15 AUDIO
    TITLE "Мы Засранцы (Ft. Brick Bazuka)"
    PERFORMER "the Chemodan"
    FLAGS DCP
    INDEX 00 00:22:64
FILE "15 Мы Засранцы (Ft. Brick Bazuka).wav" WAVE
    INDEX 01 00:00:00
  TRACK 16 AUDIO
    TITLE "Сжечь Веру (Ft. Cocaine)"
    PERFORMER "the Chemodan"
    FLAGS DCP
    INDEX 00 02:49:65
FILE "16 Сжечь Веру (Ft. Cocaine).wav" WAVE
    INDEX 01 00:00:00
  TRACK 17 AUDIO
    TITLE "Убитый"
    PERFORMER "the Chemodan"
    FLAGS DCP
    INDEX 00 02:32:31
FILE "17 Убитый.wav" WAVE
    INDEX 01 00:00:00
  TRACK 18 AUDIO
    TITLE "Маленькие Люди (Ft. Vanich)"
    PERFORMER "the Chemodan"
    FLAGS DCP
    INDEX 00 03:30:02
FILE "18 Маленькие Люди (Ft. Vanich).wav" WAVE
    INDEX 01 00:00:00
  TRACK 19 AUDIO
    TITLE "Одна Любовь (Ft. Hasher)"
    PERFORMER "the Chemodan"
    FLAGS DCP
    INDEX 00 04:00:55
FILE "19 Одна Любовь (Ft. Hasher).wav" WAVE
    INDEX 01 00:00:00
  TRACK 20 AUDIO
    TITLE "Мечтать Вредно (L.Fox Remix)"
    PERFORMER "the Chemodan"
    FLAGS DCP
    INDEX 00 02:47:39
FILE "20 Мечтать Вредно (L.Fox Remix).wav" WAVE
    INDEX 01 00:00:00
  TRACK 21 AUDIO
    TITLE "Аутрище"
    PERFORMER "the Chemodan"
    FLAGS DCP
    INDEX 00 03:07:61
FILE "21 Аутрище.wav" WAVE
    INDEX 01 00:00:00

Код:

AUDIOCHECKER v2.0 beta (build 457) - by Dester - opdester@freemail.hu
~~~~~~~~~~~~~~~~~~~~~~~~~~~~~~~~~~
-=== DO NOT EDIT THIS FILE! ===-

Path: ...\Rulezzz1

01 -=- 01 Интрило.flac -=- CDDA (99%)
02 -=- 02 36 и 6 (Ft. ММО).flac -=- CDDA (100%)
03 -=- 03 В Лету Канул (Ft. Sony Money).flac -=- CDDA (100%)
04 -=- 04 Грёбаная Система (Freestyle Версия Скит).flac -=- MPEG (91%)
05 -=- 05 Район Не В Праве.flac -=- MPEG (98%)
06 -=- 06 Трэк Номер 6 (Ft. XaNDeR aLi).flac -=- CDDA (100%)
07 -=- 07 А Вы Могли Бы (В. Маяковский Скит).flac -=- CDDA (99%)
08 -=- 08 Ни О Чём (Ft. Sony Money, AVAS & Ra Star).flac -=- CDDA (99%)
09 -=- 09 Минздрав Предупреждал (Ft. Vendetta).flac -=- CDDA (99%)
10 -=- 10 Тру-Базар (Skit).flac -=- CDDA (100%)
11 -=- 11 Это Слишком Просто.flac -=- CDDA (100%)
12 -=- 12 Реквием По Мачте (Кач Версия Skit).flac -=- CDDA (100%)
13 -=- 13 Жызнь (Ft. XaNDeR aLi).flac -=- CDDA (99%)
14 -=- 14 Чемодан Будет Ржать (Skit).flac -=- MPEG (97%)
15 -=- 15 Мы Засранцы (Ft. Brick Bazuka).flac -=- CDDA (100%)
16 -=- 16 Сжечь Веру (Ft. Cocaine).flac -=- CDDA (100%)
17 -=- 17 Убитый.flac -=- CDDA (100%)
18 -=- 18 Маленькие Люди (Ft. Vanich).flac -=- CDDA (100%)
19 -=- 19 Одна Любовь (Ft. Hasher).flac -=- CDDA (100%)
20 -=- 20 Мечтать Вредно (L.Fox Remix).flac -=- CDDA (100%)
21 -=- 21 Аутрище.flac -=- CDDA (100%)

Summary 86,14% CDDA

124704836
01 IN
02 Может Птицы
03 Мысли О Смысле (Скитуля)
04 Прошёл День
05 Зелибоба Is Dead
06 Рим Тотэ (Ft. Lil Ваня)
07 Дефекты Речи (Ft. Рэм Дигга)
08 Я Подарю Тебе (Скитуля)
09 Пока Кое-Кто Умер
10 Стационар ''Счастье''
11 Грёбаная Система №3 (Скитуля)
12 Запах Урбана (Ft. Brick Bazuka)
13 Прошу Не Уходи (Ft. Vanich)
14 Клоун
15 Мухтар
16 Тётя Рая (Ft. Страна OZ)
17 Файна-Фаина (Ft. Tandem Foundation)
18 Правда жизни
19 Такая Wu-ета (Ft. Восточный Округ)
20 Выкупаешь
21 Другие (Скитуля)
22 Сколько Стоит
23 Это Высоко
24 Костлявая (Ft. Sony Money)
25 OUT
"Привет мальчишки и девчонки, а также не родители, – сообщает коллектив the Chemodan. – Мы представляем вашему вниманию анонс нового альбома, нашумевшего в туалете и не только, коллектива из города Петрозаводска. Релиз группы the Chemodan с абсолютно ни на что не намекающим названием "Пока кое-кто умер", намечен на начало ноября. К сожалению, участники коллектива довольно сурово относятся к разного рода засвечиваниям материала альбома до его выхода. Но они готовы представить вам сэмплер из нескольких композиций. Естественно, тузы кладут на стол в конце игры, поэтому не стоит расстраиваться, если в данной нарезке вы не обнаружите что-то, чего очень ждёте. Это чтобы был интерес. В альбоме приняли участие ребята из разных регионов страны: Рэм Дигга, Tandem Foundation, Восточный Округ, Vanich, Brick Bazuka, Страна OZ и Sony Money".

Код:

Exact Audio Copy V0.99 prebeta 4 from 23. January 2008

Отчёт EAC об извлечении, выполненном 17. января 2012, 22:01

the Chemodan / Пока Кое-Кто Умер

Дисковод: ASUS    DRW-1608P   Adapter: 0  ID: 0

Режим чтения                 : Достоверность
Использование точного потока : Да
Отключение кэша аудио        : Да
Использование указателей C2  : Нет

Коррекция смещения при чтении                     : 48
Способность читать области Lead-in и Lead-out     : Нет
Заполнение пропущенных сэмплов тишиной            : Да
Удаление блоков с тишиной в начале и конце        : Нет
При вычислениях CRC использовались нулевые сэмплы : Да
Интерфейс                                         : Встроенный Win32-интерфейс для Win NT/2000
Обработка зазоров                                 : Добавлено к предыдущему треку

Выходной формат          : Пользовательский кодировщик
Выбранный битрейт        : 320 kBit/s
Качество                 : Высокий
Добавление ID3-тэга      : Нет
Утилита сжатия           : D:\Program Files\Exact Audio Copy\Flac\flac.exe
Дополнительные параметры : -8 -V -T "ARTIST=%a" -T "TITLE=%t" -T "ALBUM=%g" -T "DATE=%y" -T "TRACKNUMBER=%n" -T "GENRE=%m" -T "COMMENT=EAC FLAC -8" %s

TOC извлечённого CD

     Трек |   Старт  | Длительность | Начальный сектор | Конечный сектор
    ---------------------------------------------------------------------
       1  |  0:00.00 |    1:42.06   |           0      |       7655
       2  |  1:42.06 |    2:36.47   |        7656      |      19402
       3  |  4:18.53 |    2:27.37   |       19403      |      30464
       4  |  6:46.15 |    3:21.53   |       30465      |      45592
       5  | 10:07.68 |    2:14.25   |       45593      |      55667
       6  | 12:22.18 |    2:54.53   |       55668      |      68770
       7  | 15:16.71 |    3:31.57   |       68771      |      84652
       8  | 18:48.53 |    1:27.72   |       84653      |      91249
       9  | 20:16.50 |    2:53.53   |       91250      |     104277
      10  | 23:10.28 |    2:49.27   |      104278      |     116979
      11  | 25:59.55 |    2:01.70   |      116980      |     126124
      12  | 28:01.50 |    3:13.42   |      126125      |     140641
      13  | 31:15.17 |    3:24.40   |      140642      |     155981
      14  | 34:39.57 |    2:59.73   |      155982      |     169479
      15  | 37:39.55 |    3:28.60   |      169480      |     185139
      16  | 41:08.40 |    2:44.03   |      185140      |     197442
      17  | 43:52.43 |    3:22.54   |      197443      |     212646
      18  | 47:15.22 |    2:17.01   |      212647      |     222922
      19  | 49:32.23 |    4:44.50   |      222923      |     244272
      20  | 54:16.73 |    3:22.07   |      244273      |     259429
      21  | 57:39.05 |    1:34.05   |      259430      |     266484
      22  | 59:13.10 |    3:16.60   |      266485      |     281244
      23  | 62:29.70 |    3:03.73   |      281245      |     295042
      24  | 65:33.68 |    3:05.73   |      295043      |     308990
      25  | 68:39.66 |    4:50.00   |      308991      |     330740

Трек  1

     Имя файла E:\Даунлоад\Rulezzz1\01 In.wav

     Длина предзазора  0:00:02.00

     Пиковый уровень 97.7 %
     Качество трека 100.0 %
     CRC теста 885CB4E3
     CRC копии 885CB4E3
     Точное извлечение (достоверность 2)  [A0DD9B8C]
     Копирование... OK

Трек  2

     Имя файла E:\Даунлоад\Rulezzz1\02 Может Птицы.wav

     Пиковый уровень 90.3 %
     Качество трека 100.0 %
     CRC теста F92C7568
     CRC копии F92C7568
     Точное извлечение (достоверность 2)  [50DD3E08]
     Копирование... OK

Трек  3

     Имя файла E:\Даунлоад\Rulezzz1\03 Мысли О Смысле (Скитуля).wav

     Пиковый уровень 82.9 %
     Качество трека 100.0 %
     CRC теста 50F6EE75
     CRC копии 50F6EE75
     Точное извлечение (достоверность 2)  [52ECB8D0]
     Копирование... OK

Трек  4

     Имя файла E:\Даунлоад\Rulezzz1\04 Прошёл День.wav

     Пиковый уровень 98.8 %
     Качество трека 100.0 %
     CRC теста 545E1663
     CRC копии 545E1663
     Точное извлечение (достоверность 2)  [2D3FACAA]
     Копирование... OK

Трек  5

     Имя файла E:\Даунлоад\Rulezzz1\05 Зелибоба Is Dead.wav

     Пиковый уровень 97.7 %
     Качество трека 100.0 %
     CRC теста 97916E24
     CRC копии 97916E24
     Точное извлечение (достоверность 2)  [8BA4578E]
     Копирование... OK

Трек  6

     Имя файла E:\Даунлоад\Rulezzz1\06 Рим Тотэ (Ft. Lil Ваня).wav

     Пиковый уровень 97.7 %
     Качество трека 100.0 %
     CRC теста 4AA3CEC9
     CRC копии 4AA3CEC9
     Точное извлечение (достоверность 2)  [B5ED5794]
     Копирование... OK

Трек  7

     Имя файла E:\Даунлоад\Rulezzz1\07 Дефекты Речи (Ft. Рэм Дигга).wav

     Пиковый уровень 100.0 %
     Качество трека 100.0 %
     CRC теста C71E4BFF
     CRC копии C71E4BFF
     Точное извлечение (достоверность 2)  [8BC08144]
     Копирование... OK

Трек  8

     Имя файла E:\Даунлоад\Rulezzz1\08 Я Подарю Тебе (Скитуля).wav

     Пиковый уровень 100.0 %
     Качество трека 100.0 %
     CRC теста 342A3B8B
     CRC копии 342A3B8B
     Точное извлечение (достоверность 2)  [2F911649]
     Копирование... OK

Трек  9

     Имя файла E:\Даунлоад\Rulezzz1\09 Пока Кое-Кто Умер.wav

     Пиковый уровень 79.4 %
     Качество трека 100.0 %
     CRC теста CBD7F6A8
     CRC копии CBD7F6A8
     Точное извлечение (достоверность 2)  [0C956BAF]
     Копирование... OK

Трек 10

     Имя файла E:\Даунлоад\Rulezzz1\10 Стационар 'Счастье'.wav

     Пиковый уровень 98.1 %
     Качество трека 99.9 %
     CRC теста 82EDBCBC
     CRC копии 82EDBCBC
     Точное извлечение (достоверность 2)  [853FA71C]
     Копирование... OK

Трек 11

     Имя файла E:\Даунлоад\Rulezzz1\11 Грёбаная Система №3 (Скитуля).wav

     Пиковый уровень 96.5 %
     Качество трека 100.0 %
     CRC теста 173067DF
     CRC копии 173067DF
     Точное извлечение (достоверность 2)  [2D58AF78]
     Копирование... OK

Трек 12

     Имя файла E:\Даунлоад\Rulezzz1\12 Запах Урбана (Ft. Brick Bazuka).wav

     Пиковый уровень 100.0 %
     Качество трека 100.0 %
     CRC теста DBFB1533
     CRC копии DBFB1533
     Точное извлечение (достоверность 2)  [40AA3BFF]
     Копирование... OK

Трек 13

     Имя файла E:\Даунлоад\Rulezzz1\13 Прошу Не Уходи (Ft. Vanich).wav

     Пиковый уровень 100.0 %
     Качество трека 99.9 %
     CRC теста 86B0DA0E
     CRC копии 86B0DA0E
     Точное извлечение (достоверность 2)  [12A4AA56]
     Копирование... OK

Трек 14

     Имя файла E:\Даунлоад\Rulezzz1\14 Клоун.wav

     Пиковый уровень 98.8 %
     Качество трека 99.9 %
     CRC теста 529FAB95
     CRC копии 529FAB95
     Точное извлечение (достоверность 2)  [846B30B3]
     Копирование... OK

Трек 15

     Имя файла E:\Даунлоад\Rulezzz1\15 Мухтар.wav

     Пиковый уровень 100.0 %
     Качество трека 100.0 %
     CRC теста C5066139
     CRC копии C5066139
     Точное извлечение (достоверность 2)  [5A769A60]
     Копирование... OK

Трек 16

     Имя файла E:\Даунлоад\Rulezzz1\16 Тётя Рая (Ft. Страна OZ).wav

     Пиковый уровень 78.6 %
     Качество трека 99.9 %
     CRC теста 80FDE0AD
     CRC копии 80FDE0AD
     Точное извлечение (достоверность 2)  [5F588F1D]
     Копирование... OK

Трек 17

     Имя файла E:\Даунлоад\Rulezzz1\17 Фаина-Фаина (Ft. Tandem Foundation).wav

     Пиковый уровень 89.2 %
     Качество трека 100.0 %
     CRC теста 8A29F350
     CRC копии 8A29F350
     Точное извлечение (достоверность 2)  [BC9F7B8A]
     Копирование... OK

Трек 18

     Имя файла E:\Даунлоад\Rulezzz1\18 Правда Жизни.wav

     Пиковый уровень 73.7 %
     Качество трека 100.0 %
     CRC теста 1927DB3F
     CRC копии 1927DB3F
     Точное извлечение (достоверность 2)  [160FC582]
     Копирование... OK

Трек 19

     Имя файла E:\Даунлоад\Rulezzz1\19 Такая Wu-ета (Ft. Восточный Округ).wav

     Пиковый уровень 98.9 %
     Качество трека 100.0 %
     CRC теста 561E10A3
     CRC копии 561E10A3
     Точное извлечение (достоверность 2)  [AAFC7780]
     Копирование... OK

Трек 20

     Имя файла E:\Даунлоад\Rulezzz1\20 Выкупаешь.wav

     Пиковый уровень 78.9 %
     Качество трека 100.0 %
     CRC теста 360B0D43
     CRC копии 360B0D43
     Точное извлечение (достоверность 2)  [2A704419]
     Копирование... OK

Трек 21

     Имя файла E:\Даунлоад\Rulezzz1\21 Другие (Скитуля от Vanich).wav

     Пиковый уровень 87.9 %
     Качество трека 100.0 %
     CRC теста E7BE443D
     CRC копии E7BE443D
     Точное извлечение (достоверность 2)  [8A79C9AC]
     Копирование... OK

Трек 22

     Имя файла E:\Даунлоад\Rulezzz1\22 Сколько Стоит.wav

     Пиковый уровень 92.6 %
     Качество трека 100.0 %
     CRC теста 66FC6BF8
     CRC копии 66FC6BF8
     Точное извлечение (достоверность 2)  [333B7214]
     Копирование... OK

Трек 23

     Имя файла E:\Даунлоад\Rulezzz1\23 Это Высоко.wav

     Пиковый уровень 79.4 %
     Качество трека 99.9 %
     CRC теста BA7F84AA
     CRC копии BA7F84AA
     Точное извлечение (достоверность 2)  [C54E7C97]
     Копирование... OK

Трек 24

     Имя файла E:\Даунлоад\Rulezzz1\24 Костлявая (Ft. Sony Money).wav

     Пиковый уровень 97.7 %
     Качество трека 99.9 %
     CRC теста B18219AE
     CRC копии B18219AE
     Точное извлечение (достоверность 2)  [78DAAC33]
     Копирование... OK

Трек 25

     Имя файла E:\Даунлоад\Rulezzz1\25 Out.wav

     Пиковый уровень 91.4 %
     Качество трека 100.0 %
     CRC теста 0AC4D00C
     CRC копии 0AC4D00C
     Точное извлечение (достоверность 2)  [8DB497DD]
     Копирование... OK

Все треки извлечены точно

Ошибок не произошло

Конец отчёта

Код:

REM GENRE Hip-Hop
REM DATE 2010
REM DISCID 5C113919
REM COMMENT "ExactAudioCopy v0.99pb4"
PERFORMER "the Chemodan"
TITLE "Пока Кое-Кто Умер"
FILE "01 In.wav" WAVE
  TRACK 01 AUDIO
    TITLE "In"
    PERFORMER "the Chemodan"
    FLAGS DCP
    INDEX 01 00:00:00
FILE "02 Может Птицы.wav" WAVE
  TRACK 02 AUDIO
    TITLE "Может Птицы"
    PERFORMER "the Chemodan"
    FLAGS DCP
    INDEX 01 00:00:00
FILE "03 Мысли О Смысле (Скитуля).wav" WAVE
  TRACK 03 AUDIO
    TITLE "Мысли О Смысле (Скитуля)"
    PERFORMER "the Chemodan"
    FLAGS DCP
    INDEX 01 00:00:00
FILE "04 Прошёл День.wav" WAVE
  TRACK 04 AUDIO
    TITLE "Прошёл День"
    PERFORMER "the Chemodan"
    FLAGS DCP
    INDEX 01 00:00:00
FILE "05 Зелибоба Is Dead.wav" WAVE
  TRACK 05 AUDIO
    TITLE "Зелибоба Is Dead"
    PERFORMER "the Chemodan"
    FLAGS DCP
    INDEX 01 00:00:00
FILE "06 Рим Тотэ (Ft. Lil Ваня).wav" WAVE
  TRACK 06 AUDIO
    TITLE "Рим Тотэ (Ft. Lil Ваня)"
    PERFORMER "the Chemodan"
    FLAGS DCP
    INDEX 01 00:00:00
FILE "07 Дефекты Речи (Ft. Рэм Дигга).wav" WAVE
  TRACK 07 AUDIO
    TITLE "Дефекты Речи (Ft. Рэм Дигга)"
    PERFORMER "the Chemodan"
    FLAGS DCP
    INDEX 01 00:00:00
FILE "08 Я Подарю Тебе (Скитуля).wav" WAVE
  TRACK 08 AUDIO
    TITLE "Я Подарю Тебе (Скитуля)"
    PERFORMER "the Chemodan"
    FLAGS DCP
    INDEX 01 00:00:00
FILE "09 Пока Кое-Кто Умер.wav" WAVE
  TRACK 09 AUDIO
    TITLE "Пока Кое-Кто Умер"
    PERFORMER "the Chemodan"
    FLAGS DCP
    INDEX 01 00:00:00
FILE "10 Стационар 'Счастье'.wav" WAVE
  TRACK 10 AUDIO
    TITLE "Стационар 'Счастье'"
    PERFORMER "the Chemodan"
    FLAGS DCP
    INDEX 01 00:00:00
FILE "11 Грёбаная Система №3 (Скитуля).wav" WAVE
  TRACK 11 AUDIO
    TITLE "Грёбаная Система №3 (Скитуля)"
    PERFORMER "the Chemodan"
    FLAGS DCP
    INDEX 01 00:00:00
FILE "12 Запах Урбана (Ft. Brick Bazuka).wav" WAVE
  TRACK 12 AUDIO
    TITLE "Запах Урбана (Ft. Brick Bazuka)"
    PERFORMER "the Chemodan"
    FLAGS DCP
    INDEX 01 00:00:00
FILE "13 Прошу Не Уходи (Ft. Vanich).wav" WAVE
  TRACK 13 AUDIO
    TITLE "Прошу Не Уходи (Ft. Vanich)"
    PERFORMER "the Chemodan"
    FLAGS DCP
    INDEX 01 00:00:00
FILE "14 Клоун.wav" WAVE
  TRACK 14 AUDIO
    TITLE "Клоун"
    PERFORMER "the Chemodan"
    FLAGS DCP
    INDEX 01 00:00:00
FILE "15 Мухтар.wav" WAVE
  TRACK 15 AUDIO
    TITLE "Мухтар"
    PERFORMER "the Chemodan"
    FLAGS DCP
    INDEX 01 00:00:00
FILE "16 Тётя Рая (Ft. Страна OZ).wav" WAVE
  TRACK 16 AUDIO
    TITLE "Тётя Рая (Ft. Страна OZ)"
    PERFORMER "the Chemodan"
    FLAGS DCP
    INDEX 01 00:00:00
FILE "17 Фаина-Фаина (Ft. Tandem Foundation).wav" WAVE
  TRACK 17 AUDIO
    TITLE "Фаина-Фаина (Ft. Tandem Foundation)"
    PERFORMER "the Chemodan"
    FLAGS DCP
    INDEX 01 00:00:00
FILE "18 Правда Жизни.wav" WAVE
  TRACK 18 AUDIO
    TITLE "Правда Жизни"
    PERFORMER "the Chemodan"
    FLAGS DCP
    INDEX 01 00:00:00
FILE "19 Такая Wu-ета (Ft. Восточный Округ).wav" WAVE
  TRACK 19 AUDIO
    TITLE "Такая Wu-ета (Ft. Восточный Округ)"
    PERFORMER "the Chemodan"
    FLAGS DCP
    INDEX 01 00:00:00
FILE "20 Выкупаешь.wav" WAVE
  TRACK 20 AUDIO
    TITLE "Выкупаешь"
    PERFORMER "the Chemodan"
    FLAGS DCP
    INDEX 01 00:00:00
FILE "21 Другие (Скитуля от Vanich).wav" WAVE
  TRACK 21 AUDIO
    TITLE "Другие (Скитуля от Vanich)"
    PERFORMER "the Chemodan"
    FLAGS DCP
    INDEX 01 00:00:00
FILE "22 Сколько Стоит.wav" WAVE
  TRACK 22 AUDIO
    TITLE "Сколько Стоит"
    PERFORMER "the Chemodan"
    FLAGS DCP
    INDEX 01 00:00:00
FILE "23 Это Высоко.wav" WAVE
  TRACK 23 AUDIO
    TITLE "Это Высоко"
    PERFORMER "the Chemodan"
    FLAGS DCP
    INDEX 01 00:00:00
FILE "24 Костлявая (Ft. Sony Money).wav" WAVE
  TRACK 24 AUDIO
    TITLE "Костлявая (Ft. Sony Money)"
    PERFORMER "the Chemodan"
    FLAGS DCP
    INDEX 01 00:00:00
FILE "25 Out.wav" WAVE
  TRACK 25 AUDIO
    TITLE "Out"
    PERFORMER "the Chemodan"
    FLAGS DCP
    INDEX 01 00:00:00

Код:

AUDIOCHECKER v2.0 beta (build 457) - by Dester - opdester@freemail.hu
~~~~~~~~~~~~~~~~~~~~~~~~~~~~~~~~~~
-=== DO NOT EDIT THIS FILE! ===-

Path: ...\Rulezzz1

01 -=- 01 In.flac -=- MPEG (90%)
02 -=- 02 Может Птицы.flac -=- CDDA (100%)
03 -=- 03 Мысли О Смысле (Скитуля).flac -=- CDDA (100%)
04 -=- 04 Прошёл День.flac -=- CDDA (100%)
05 -=- 05 Зелибоба Is Dead.flac -=- CDDA (100%)
06 -=- 06 Рим Тотэ (Ft. Lil Ваня).flac -=- CDDA (100%)
07 -=- 07 Дефекты Речи (Ft. Рэм Дигга).flac -=- CDDA (100%)
08 -=- 08 Я Подарю Тебе (Скитуля).flac -=- CDDA (100%)
09 -=- 09 Пока Кое-Кто Умер.flac -=- CDDA (100%)
10 -=- 10 Стационар 'Счастье'.flac -=- CDDA (100%)
11 -=- 11 Грёбаная Система №3 (Скитуля).flac -=- MPEG (95%)
12 -=- 12 Запах Урбана (Ft. Brick Bazuka).flac -=- CDDA (99%)
13 -=- 13 Прошу Не Уходи (Ft. Vanich).flac -=- CDDA (100%)
14 -=- 14 Клоун.flac -=- CDDA (100%)
15 -=- 15 Мухтар.flac -=- CDDA (100%)
16 -=- 16 Тётя Рая (Ft. Страна OZ).flac -=- CDDA (100%)
17 -=- 17 Фаина-Фаина (Ft. Tandem Foundation).flac -=- CDDA (100%)
18 -=- 18 Правда Жизни.flac -=- CDDA (99%)
19 -=- 19 Такая Wu-ета (Ft. Восточный Округ).flac -=- CDDA (100%)
20 -=- 20 Выкупаешь.flac -=- CDDA (100%)
21 -=- 21 Другие (Скитуля от Vanich).flac -=- CDDA (100%)
22 -=- 22 Сколько Стоит.flac -=- CDDA (100%)
23 -=- 23 Это Высоко.flac -=- CDDA (100%)
24 -=- 24 Костлявая (Ft. Sony Money).flac -=- CDDA (100%)
25 -=- 25 Out.flac -=- CDDA (100%)

Summary 92,52% CDDA

223975972
01 Intro
02 Вороньё (Ft. Смоки Мо)
03 Московские Хроники (Ft. Страна OZ & DJ Wu-Wan)
04 Утро (Ft. Brick Bazuka)
05 Ufo Skit Часть Первая
06 М
07 Молодость (Ft. Грубый Ниоткуда)
08 Гной
09 Ufo Skit Часть Вторая
10 Зомби (Ft. Brick Bazuka)
11 Все В Рэп (Ft. Триагрутрика)
12 Мы Не Больны
13 Лейся Песня (Ft. Brick Bazuka, Xander Ali & DJ Wu-Wan)
14 Ufo Skit Часть Третья
15 TV Shit Часть 2 (Ft. Муровей)
16 Лирическая Тема
17 На Парапете
18 Это Луи
19 За Заколоченными Окнами
20 Пыль (Ft. Твёрдый Микки)
21 Онлайны
22 Ufo Skit Часть Четвертая
23 Обращение К Инопланетянам
24 Спасибо Технологиям (Ft. Dizz)
25 Medal Of Horror (Ft. Рем Дигга)
26 А Какой Итог (Ft. Brick Bazuka & Гера Джио)
27 Не Прыгай (Ft. Типси Тип & Brick Bazuka)
28 Nutro
"В новом альбоме вы услышите все: от песен про отечество до ненависти к инопланетянам. Естественно, в лучших традициях дворовой лирики. В день релиза альбом будет доступен для свободного скачивания, а позже любой желающий сможет заказать его на CD", — говорят нам авторы из Петрозаводска.

Код:

Exact Audio Copy V0.99 prebeta 4 from 23. January 2008

Отчёт EAC об извлечении, выполненном 17. января 2012, 23:21

the Chemodan / GNOY

Дисковод: ASUS    DRW-1608P   Adapter: 0  ID: 0

Режим чтения                 : Достоверность
Использование точного потока : Да
Отключение кэша аудио        : Да
Использование указателей C2  : Нет

Коррекция смещения при чтении                     : 48
Способность читать области Lead-in и Lead-out     : Нет
Заполнение пропущенных сэмплов тишиной            : Да
Удаление блоков с тишиной в начале и конце        : Нет
При вычислениях CRC использовались нулевые сэмплы : Да
Интерфейс                                         : Встроенный Win32-интерфейс для Win NT/2000
Обработка зазоров                                 : Добавлено к предыдущему треку

Выходной формат          : Пользовательский кодировщик
Выбранный битрейт        : 320 kBit/s
Качество                 : Высокий
Добавление ID3-тэга      : Нет
Утилита сжатия           : D:\Program Files\Exact Audio Copy\Flac\flac.exe
Дополнительные параметры : -8 -V -T "ARTIST=%a" -T "TITLE=%t" -T "ALBUM=%g" -T "DATE=%y" -T "TRACKNUMBER=%n" -T "GENRE=%m" -T "COMMENT=EAC FLAC -8" %s

TOC извлечённого CD

     Трек |   Старт  | Длительность | Начальный сектор | Конечный сектор
    ---------------------------------------------------------------------
       1  |  0:00.00 |    1:47.46   |           0      |       8070
       2  |  1:47.46 |    3:28.61   |        8071      |      23731
       3  |  5:16.32 |    3:53.73   |       23732      |      41279
       4  |  9:10.30 |    2:47.10   |       41280      |      53814
       5  | 11:57.40 |    0:48.60   |       53815      |      57474
       6  | 12:46.25 |    1:38.21   |       57475      |      64845
       7  | 14:24.46 |    3:46.23   |       64846      |      81818
       8  | 18:10.69 |    2:01.17   |       81819      |      90910
       9  | 20:12.11 |    0:59.23   |       90911      |      95358
      10  | 21:11.34 |    2:58.52   |       95359      |     108760
      11  | 24:10.11 |    4:43.66   |      108761      |     130051
      12  | 28:54.02 |    1:51.00   |      130052      |     138376
      13  | 30:45.02 |    4:27.09   |      138377      |     158410
      14  | 35:12.11 |    0:37.09   |      158411      |     161194
      15  | 35:49.20 |    3:54.63   |      161195      |     178807
      16  | 39:44.08 |    2:51.17   |      178808      |     191649
      17  | 42:35.25 |    2:44.03   |      191650      |     203952
      18  | 45:19.28 |    2:36.70   |      203953      |     215722
      19  | 47:56.23 |    3:07.26   |      215723      |     229773
      20  | 51:03.49 |    3:19.13   |      229774      |     244711
      21  | 54:22.62 |    1:53.32   |      244712      |     253218
      22  | 56:16.19 |    0:39.19   |      253219      |     256162
      23  | 56:55.38 |    3:22.27   |      256163      |     271339
      24  | 60:17.65 |    2:59.11   |      271340      |     284775
      25  | 63:17.01 |    3:44.62   |      284776      |     301637
      26  | 67:01.63 |    3:47.68   |      301638      |     318730
      27  | 70:49.56 |    3:56.08   |      318731      |     336438
      28  | 74:45.64 |    1:34.47   |      336439      |     343535

Трек  1

     Имя файла E:\Даунлоад\Rulezzz1\01 Intro.wav

     Длина предзазора  0:00:02.00

     Пиковый уровень 100.0 %
     Качество трека 100.0 %
     CRC теста 57CBCB91
     CRC копии 57CBCB91
     Трек не обнаружен в базе AccurateRip
     Копирование... OK

Трек  2

     Имя файла E:\Даунлоад\Rulezzz1\02 Вороньё (Ft. Смоки Мо).wav

     Пиковый уровень 100.0 %
     Качество трека 100.0 %
     CRC теста 15890499
     CRC копии 15890499
     Трек не обнаружен в базе AccurateRip
     Копирование... OK

Трек  3

     Имя файла E:\Даунлоад\Rulezzz1\03 Московские Хроники (Ft. Страна OZ & DJ Wu-Wan).wav

     Пиковый уровень 100.0 %
     Качество трека 100.0 %
     CRC теста D80F9371
     CRC копии D80F9371
     Трек не обнаружен в базе AccurateRip
     Копирование... OK

Трек  4

     Имя файла E:\Даунлоад\Rulezzz1\04 Утро (Ft. Brick Bazuka).wav

     Пиковый уровень 100.0 %
     Качество трека 100.0 %
     CRC теста FBCBB4B6
     CRC копии FBCBB4B6
     Трек не обнаружен в базе AccurateRip
     Копирование... OK

Трек  5

     Имя файла E:\Даунлоад\Rulezzz1\05 Ufo Skit Часть Первая.wav

     Пиковый уровень 100.0 %
     Качество трека 99.7 %
     CRC теста 70EA7C84
     CRC копии 70EA7C84
     Трек не обнаружен в базе AccurateRip
     Копирование... OK

Трек  6

     Имя файла E:\Даунлоад\Rulezzz1\06 М.wav

     Пиковый уровень 100.0 %
     Качество трека 99.8 %
     CRC теста 05CF19A0
     CRC копии 05CF19A0
     Трек не обнаружен в базе AccurateRip
     Копирование... OK

Трек  7

     Имя файла E:\Даунлоад\Rulezzz1\07 Молодость (Ft. Грубый Ниоткуда).wav

     Пиковый уровень 86.8 %
     Качество трека 100.0 %
     CRC теста EDFE6AAA
     CRC копии EDFE6AAA
     Трек не обнаружен в базе AccurateRip
     Копирование... OK

Трек  8

     Имя файла E:\Даунлоад\Rulezzz1\08 Гной.wav

     Пиковый уровень 100.0 %
     Качество трека 100.0 %
     CRC теста B49AA2FF
     CRC копии B49AA2FF
     Трек не обнаружен в базе AccurateRip
     Копирование... OK

Трек  9

     Имя файла E:\Даунлоад\Rulezzz1\09 Ufo Skit Часть Вторая.wav

     Пиковый уровень 100.0 %
     Качество трека 100.0 %
     CRC теста FC656391
     CRC копии FC656391
     Трек не обнаружен в базе AccurateRip
     Копирование... OK

Трек 10

     Имя файла E:\Даунлоад\Rulezzz1\10 Зомби (Ft. Brick Bazuka).wav

     Пиковый уровень 93.4 %
     Качество трека 100.0 %
     CRC теста 5E19D535
     CRC копии 5E19D535
     Трек не обнаружен в базе AccurateRip
     Копирование... OK

Трек 11

     Имя файла E:\Даунлоад\Rulezzz1\11 Все В Рэп (Ft. Триагрутрика).wav

     Пиковый уровень 100.0 %
     Качество трека 100.0 %
     CRC теста BA243E74
     CRC копии BA243E74
     Трек не обнаружен в базе AccurateRip
     Копирование... OK

Трек 12

     Имя файла E:\Даунлоад\Rulezzz1\12 Мы Не Больны.wav

     Пиковый уровень 99.9 %
     Качество трека 100.0 %
     CRC теста 28785C51
     CRC копии 28785C51
     Трек не обнаружен в базе AccurateRip
     Копирование... OK

Трек 13

     Имя файла E:\Даунлоад\Rulezzz1\13 Лейся Песня (Ft. Brick Bazuka, Xander aLi & DJ Wu-Wan).wav

     Пиковый уровень 100.0 %
     Качество трека 100.0 %
     CRC теста 99D3C4CA
     CRC копии 99D3C4CA
     Трек не обнаружен в базе AccurateRip
     Копирование... OK

Трек 14

     Имя файла E:\Даунлоад\Rulezzz1\14 Ufo Skit Часть Третья.wav

     Пиковый уровень 100.0 %
     Качество трека 100.0 %
     CRC теста 486A7FD5
     CRC копии 486A7FD5
     Трек не обнаружен в базе AccurateRip
     Копирование... OK

Трек 15

     Имя файла E:\Даунлоад\Rulezzz1\15 TV Shit 2 (Ft. Murovei).wav

     Пиковый уровень 100.0 %
     Качество трека 100.0 %
     CRC теста 720BA2FC
     CRC копии 720BA2FC
     Трек не обнаружен в базе AccurateRip
     Копирование... OK

Трек 16

     Имя файла E:\Даунлоад\Rulezzz1\16 Лирическая Тема.wav

     Пиковый уровень 100.0 %
     Качество трека 100.0 %
     CRC теста C277CFD5
     CRC копии C277CFD5
     Трек не обнаружен в базе AccurateRip
     Копирование... OK

Трек 17

     Имя файла E:\Даунлоад\Rulezzz1\17 На Парапете.wav

     Пиковый уровень 100.0 %
     Качество трека 99.9 %
     CRC теста B7C363D1
     CRC копии B7C363D1
     Трек не обнаружен в базе AccurateRip
     Копирование... OK

Трек 18

     Имя файла E:\Даунлоад\Rulezzz1\18 Это Луи.wav

     Пиковый уровень 100.0 %
     Качество трека 100.0 %
     CRC теста D641BCF3
     CRC копии D641BCF3
     Трек не обнаружен в базе AccurateRip
     Копирование... OK

Трек 19

     Имя файла E:\Даунлоад\Rulezzz1\19 За Заколоченными Окнами.wav

     Пиковый уровень 100.0 %
     Качество трека 100.0 %
     CRC теста B7B69167
     CRC копии B7B69167
     Трек не обнаружен в базе AccurateRip
     Копирование... OK

Трек 20

     Имя файла E:\Даунлоад\Rulezzz1\20 Пыль (Ft. Твёрдый Микки).wav

     Пиковый уровень 100.0 %
     Качество трека 100.0 %
     CRC теста A150FD82
     CRC копии A150FD82
     Трек не обнаружен в базе AccurateRip
     Копирование... OK

Трек 21

     Имя файла E:\Даунлоад\Rulezzz1\21 Онлайны.wav

     Пиковый уровень 100.0 %
     Качество трека 100.0 %
     CRC теста 326548FC
     CRC копии 326548FC
     Трек не обнаружен в базе AccurateRip
     Копирование... OK

Трек 22

     Имя файла E:\Даунлоад\Rulezzz1\22 Ufo Skit Часть Четвёртая.wav

     Пиковый уровень 100.0 %
     Качество трека 100.0 %
     CRC теста 3AE96EE7
     CRC копии 3AE96EE7
     Трек не обнаружен в базе AccurateRip
     Копирование... OK

Трек 23

     Имя файла E:\Даунлоад\Rulezzz1\23 Обращение К Инопланетянам.wav

     Пиковый уровень 100.0 %
     Качество трека 100.0 %
     CRC теста 8D7B8D0A
     CRC копии 8D7B8D0A
     Трек не обнаружен в базе AccurateRip
     Копирование... OK

Трек 24

     Имя файла E:\Даунлоад\Rulezzz1\24 Спасибо Технологиям (Ft. Dizz).wav

     Пиковый уровень 84.6 %
     Качество трека 100.0 %
     CRC теста 53C5002B
     CRC копии 53C5002B
     Трек не обнаружен в базе AccurateRip
     Копирование... OK

Трек 25

     Имя файла E:\Даунлоад\Rulezzz1\25 Medal Of Horror (Ft. Рем Дигга).wav

     Пиковый уровень 100.0 %
     Качество трека 100.0 %
     CRC теста 4AE84432
     CRC копии 4AE84432
     Трек не обнаружен в базе AccurateRip
     Копирование... OK

Трек 26

     Имя файла E:\Даунлоад\Rulezzz1\26 А Какой Итог (Ft. Brick Bazuka & Гера Джио).wav

     Пиковый уровень 100.0 %
     Качество трека 100.0 %
     CRC теста 873E27BE
     CRC копии 873E27BE
     Трек не обнаружен в базе AccurateRip
     Копирование... OK

Трек 27

     Имя файла E:\Даунлоад\Rulezzz1\27 Не Прыгай (Ft. Типси Тип & Brick Bazuka).wav

     Пиковый уровень 100.0 %
     Качество трека 99.9 %
     CRC теста CC9A3364
     CRC копии CC9A3364
     Трек не обнаружен в базе AccurateRip
     Копирование... OK

Трек 28

     Имя файла E:\Даунлоад\Rulezzz1\28 Nutro.wav

     Пиковый уровень 80.2 %
     Качество трека 99.8 %
     CRC теста BB989501
     CRC копии BB989501
     Трек не обнаружен в базе AccurateRip
     Копирование... OK

Ни одного трека нет в базе AccurateRip

Ошибок не произошло

Конец отчёта

Код:

REM GENRE Hip-Hop
REM DATE 2011
REM DISCID A911E41C
REM COMMENT "ExactAudioCopy v0.99pb4"
PERFORMER "the Chemodan"
TITLE "GNOY"
FILE "01 Intro.wav" WAVE
  TRACK 01 AUDIO
    TITLE "Intro"
    PERFORMER "the Chemodan"
    FLAGS DCP
    INDEX 01 00:00:00
FILE "02 Вороньё (Ft. Смоки Мо).wav" WAVE
  TRACK 02 AUDIO
    TITLE "Вороньё (Ft. Смоки Мо)"
    PERFORMER "the Chemodan"
    FLAGS DCP
    INDEX 01 00:00:00
FILE "03 Московские Хроники (Ft. Страна OZ & DJ Wu-Wan).wav" WAVE
  TRACK 03 AUDIO
    TITLE "Московские Хроники (Ft. Страна OZ & DJ Wu-Wan)"
    PERFORMER "the Chemodan"
    FLAGS DCP
    INDEX 01 00:00:00
FILE "04 Утро (Ft. Brick Bazuka).wav" WAVE
  TRACK 04 AUDIO
    TITLE "Утро (Ft. Brick Bazuka)"
    PERFORMER "the Chemodan"
    FLAGS DCP
    INDEX 01 00:00:00
FILE "05 Ufo Skit Часть Первая.wav" WAVE
  TRACK 05 AUDIO
    TITLE "Ufo Skit Часть Первая"
    PERFORMER "the Chemodan"
    FLAGS DCP
    INDEX 01 00:00:00
FILE "06 М.wav" WAVE
  TRACK 06 AUDIO
    TITLE "М"
    PERFORMER "the Chemodan"
    FLAGS DCP
    INDEX 01 00:00:00
FILE "07 Молодость (Ft. Грубый Ниоткуда).wav" WAVE
  TRACK 07 AUDIO
    TITLE "Молодость (Ft. Грубый Ниоткуда)"
    PERFORMER "the Chemodan"
    FLAGS DCP
    INDEX 01 00:00:00
FILE "08 Гной.wav" WAVE
  TRACK 08 AUDIO
    TITLE "Гной"
    PERFORMER "the Chemodan"
    FLAGS DCP
    INDEX 01 00:00:00
FILE "09 Ufo Skit Часть Вторая.wav" WAVE
  TRACK 09 AUDIO
    TITLE "Ufo Skit Часть Вторая"
    PERFORMER "the Chemodan"
    FLAGS DCP
    INDEX 01 00:00:00
FILE "10 Зомби (Ft. Brick Bazuka).wav" WAVE
  TRACK 10 AUDIO
    TITLE "Зомби (Ft. Brick Bazuka)"
    PERFORMER "the Chemodan"
    FLAGS DCP
    INDEX 01 00:00:00
FILE "11 Все В Рэп (Ft. Триагрутрика).wav" WAVE
  TRACK 11 AUDIO
    TITLE "Все В Рэп (Ft. Триагрутрика)"
    PERFORMER "the Chemodan"
    FLAGS DCP
    INDEX 01 00:00:00
FILE "12 Мы Не Больны.wav" WAVE
  TRACK 12 AUDIO
    TITLE "Мы Не Больны"
    PERFORMER "the Chemodan"
    FLAGS DCP
    INDEX 01 00:00:00
FILE "13 Лейся Песня (Ft. Brick Bazuka, Xander aLi & DJ Wu-Wan).wav" WAVE
  TRACK 13 AUDIO
    TITLE "Лейся Песня (Ft. Brick Bazuka, Xander aLi & DJ Wu-Wan)"
    PERFORMER "the Chemodan"
    FLAGS DCP
    INDEX 01 00:00:00
FILE "14 Ufo Skit Часть Третья.wav" WAVE
  TRACK 14 AUDIO
    TITLE "Ufo Skit Часть Третья"
    PERFORMER "the Chemodan"
    FLAGS DCP
    INDEX 01 00:00:00
FILE "15 TV Shit 2 (Ft. Murovei).wav" WAVE
  TRACK 15 AUDIO
    TITLE "TV Shit 2 (Ft. Murovei)"
    PERFORMER "the Chemodan"
    FLAGS DCP
    INDEX 01 00:00:00
FILE "16 Лирическая Тема.wav" WAVE
  TRACK 16 AUDIO
    TITLE "Лирическая Тема"
    PERFORMER "the Chemodan"
    FLAGS DCP
    INDEX 01 00:00:00
FILE "17 На Парапете.wav" WAVE
  TRACK 17 AUDIO
    TITLE "На Парапете"
    PERFORMER "the Chemodan"
    FLAGS DCP
    INDEX 01 00:00:00
FILE "18 Это Луи.wav" WAVE
  TRACK 18 AUDIO
    TITLE "Это Луи"
    PERFORMER "the Chemodan"
    FLAGS DCP
    INDEX 01 00:00:00
FILE "19 За Заколоченными Окнами.wav" WAVE
  TRACK 19 AUDIO
    TITLE "За Заколоченными Окнами"
    PERFORMER "the Chemodan"
    FLAGS DCP
    INDEX 01 00:00:00
FILE "20 Пыль (Ft. Твёрдый Микки).wav" WAVE
  TRACK 20 AUDIO
    TITLE "Пыль (Ft. Твёрдый Микки)"
    PERFORMER "the Chemodan"
    FLAGS DCP
    INDEX 01 00:00:00
FILE "21 Онлайны.wav" WAVE
  TRACK 21 AUDIO
    TITLE "Онлайны"
    PERFORMER "the Chemodan"
    FLAGS DCP
    INDEX 01 00:00:00
FILE "22 Ufo Skit Часть Четвёртая.wav" WAVE
  TRACK 22 AUDIO
    TITLE "Ufo Skit Часть Четвёртая"
    PERFORMER "the Chemodan"
    FLAGS DCP
    INDEX 01 00:00:00
FILE "23 Обращение К Инопланетянам.wav" WAVE
  TRACK 23 AUDIO
    TITLE "Обращение К Инопланетянам"
    PERFORMER "the Chemodan"
    FLAGS DCP
    INDEX 01 00:00:00
FILE "24 Спасибо Технологиям (Ft. Dizz).wav" WAVE
  TRACK 24 AUDIO
    TITLE "Спасибо Технологиям (Ft. Dizz)"
    PERFORMER "the Chemodan"
    FLAGS DCP
    INDEX 01 00:00:00
FILE "25 Medal Of Horror (Ft. Рем Дигга).wav" WAVE
  TRACK 25 AUDIO
    TITLE "Medal Of Horror (Ft. Рем Дигга)"
    PERFORMER "the Chemodan"
    FLAGS DCP
    INDEX 01 00:00:00
FILE "26 А Какой Итог (Ft. Brick Bazuka & Гера Джио).wav" WAVE
  TRACK 26 AUDIO
    TITLE "А Какой Итог (Ft. Brick Bazuka & Гера Джио)"
    PERFORMER "the Chemodan"
    FLAGS DCP
    INDEX 01 00:00:00
FILE "27 Не Прыгай (Ft. Типси Тип & Brick Bazuka).wav" WAVE
  TRACK 27 AUDIO
    TITLE "Не Прыгай (Ft. Типси Тип & Brick Bazuka)"
    PERFORMER "the Chemodan"
    FLAGS DCP
    INDEX 01 00:00:00
FILE "28 Nutro.wav" WAVE
  TRACK 28 AUDIO
    TITLE "Nutro"
    PERFORMER "the Chemodan"
    FLAGS DCP
    INDEX 01 00:00:00

Код:

AUDIOCHECKER v2.0 beta (build 457) - by Dester - opdester@freemail.hu
~~~~~~~~~~~~~~~~~~~~~~~~~~~~~~~~~~
-=== DO NOT EDIT THIS FILE! ===-

Path: ...\Rulezzz1

01 -=- 01 Intro.flac -=- CDDA (100%)
02 -=- 02 Вороньё (Ft. Смоки Мо).flac -=- CDDA (100%)
03 -=- 03 Московские Хроники (Ft. Страна OZ & DJ Wu-Wan).flac -=- CDDA (99%)
04 -=- 04 Утро (Ft. Brick Bazuka).flac -=- CDDA (100%)
05 -=- 05 Ufo Skit Часть Первая.flac -=- CDDA (100%)
06 -=- 06 М.flac -=- CDDA (100%)
07 -=- 07 Молодость (Ft. Грубый Ниоткуда).flac -=- CDDA (99%)
08 -=- 08 Гной.flac -=- CDDA (100%)
09 -=- 09 Ufo Skit Часть Вторая.flac -=- MPEG (100%)
10 -=- 10 Зомби (Ft. Brick Bazuka).flac -=- CDDA (100%)
11 -=- 11 Все В Рэп (Ft. Триагрутрика).flac -=- CDDA (100%)
12 -=- 12 Мы Не Больны.flac -=- CDDA (100%)
13 -=- 13 Лейся Песня (Ft. Brick Bazuka, Xander aLi & DJ Wu-Wan).flac -=- CDDA (100%)
14 -=- 14 Ufo Skit Часть Третья.flac -=- MPEG (100%)
15 -=- 15 TV Shit 2 (Ft. Murovei).flac -=- CDDA (100%)
16 -=- 16 Лирическая Тема.flac -=- CDDA (100%)
17 -=- 17 На Парапете.flac -=- CDDA (100%)
18 -=- 18 Это Луи.flac -=- CDDA (100%)
19 -=- 19 За Заколоченными Окнами.flac -=- CDDA (99%)
20 -=- 20 Пыль (Ft. Твёрдый Микки).flac -=- CDDA (100%)
21 -=- 21 Онлайны.flac -=- CDDA (100%)
22 -=- 22 Ufo Skit Часть Четвёртая.flac -=- MPEG (100%)
23 -=- 23 Обращение К Инопланетянам.flac -=- CDDA (100%)
24 -=- 24 Спасибо Технологиям (Ft. Dizz).flac -=- CDDA (100%)
25 -=- 25 Medal Of Horror (Ft. Рем Дигга).flac -=- CDDA (100%)
26 -=- 26 А Какой Итог (Ft. Brick Bazuka & Гера Джио).flac -=- CDDA (100%)
27 -=- 27 Не Прыгай (Ft. Типси Тип & Brick Bazuka).flac -=- CDDA (100%)
28 -=- 28 Nutro.flac -=- CDDA (100%)

Summary 89,18% CDDA

122314116


Оформление by Rulezzz1
info [Профиль]  [ЛС] 

post 23-Янв-2012 11:32 (спустя 41 минута) [-]0[+]

Топик был перенесен из форума Оформление раздач (Музыка и Музыкальное видео) в форум Отечественный Rap, Hip-Hop, R'n'B (lossless)

saGambit
 

Fixer

Стаж: 7 лет 11 месяцев

Сообщений: 124

Россия
Рейтинг

post 23-Янв-2012 23:45 (спустя 12 часов) [-]0[+]

[Цитировать] 

так тут не вsе альбомы! как минимум еще полноценный "овечка дл9 sекsа"
info [Профиль]  [ЛС] 

AnuBIzz

Пол: Пол:Муж

Стаж: 8 лет 5 месяцев

Сообщений: 22

Куба
Рейтинг

post 24-Янв-2012 00:53 (спустя 1 час 7 минут) [-]0[+]

[Цитировать] 

Fixer писал(а):

так тут не вsе альбомы! как минимум еще полноценный "овечка дл9 sекsа"
ну да, еще пару альбомов не хватает ну се равно спасибо за лося, будет полная Дискография скачаю

_________________
- SupeRSkunk zh
- just9me

info [Профиль]  [ЛС] 

Raa

Пол: Пол:Муж

Стаж: 7 лет 11 месяцев

Сообщений: 1099

Рейтинг

post 24-Янв-2012 09:19 (спустя 8 часов) [-]0[+]

[Цитировать] 

Вы про микстейпы пишете, они на дисках не выходили. Лося можете не ждать - не будет.
info [Профиль]  [ЛС] 

bit-bul

Пол: Пол:Муж

Стаж: 8 лет 7 месяцев

Сообщений: 213

Ямайка
Рейтинг

post 05-Фев-2012 19:28 (спустя 12 дней) [-]0[+]

[Цитировать] 

Автор,на раздачу встань.

p.s скорость просто смешная!
info [Профиль]  [ЛС] 
Показать сообщения:    
Ответить на тему

Текущее время: 20-Фев 13:28

Часовой пояс: GMT + 4



Вы не можете начинать темы
Вы не можете отвечать на сообщения
Вы не можете редактировать свои сообщения
Вы не можете удалять свои сообщения
Вы не можете голосовать в опросах
Вы не можете прикреплять файлы к сообщениям
Вы не можете скачивать файлы