Ошибка

До окончания фрилича осталось:


(Rap, Hip-Hop) Смоки МО (Некий Молла) - Время Тигра - 2011, FLAC (tracks+.cue) lossless

Ответить на тему
 
Автор Сообщение

Raa

Пол: Пол:Муж

Стаж: 7 лет 11 месяцев

Сообщений: 1099

Рейтинг

post 13-Июл-2011 03:00 0[+]

[Цитировать] 

Смоки Мо - Время Тигра

pic="http://i25.fastpic.ru/big/2011/0713/44/c2f7da97bfed9f0fffc4d5eb2d765a44.jpg"

Жанр: Rap, Hip-Hop
Год издания диска: 2011
Страна-производитель диска: Россия
Страна: Россия
Издатель (лейбл): MadStyleMusic, ООО "Союз Мьюзик"
Номер по каталогу: SZCD 7286-11
Тип релиза: tracks+.cue
Аудио кодек: FLAC
Битрейт аудио: lossless
Продолжительность: 01:17:41


Трэклист:
01. Начало Игры. Часть 3 (Это Для Моих Людей) (03:40)
02. Вторник (03:54)
03. Время и Пыль (03:25)
04. Город, Где Летает Дым (03:23)
05. Кто Вы Такой? (Скит) (00:28)
06. Я Вижу Твоё Сердце Под Прицелом (Мистер Винтаж) (02:56)
07. Любовь, Любовь (Вторая Версия) (04:22)
08. В Поисках Счастья (03:41)
09. Проклятье Дворецкого. Часть 2 (03:12)
10. Останься (04:41)
11. Маленькая Земля (Скит) (00:34)
12. Покорный Тон (03:11)
13. Мой Путь (03:22)
14. Глубокое Погружение (03:50)
15. Вина Во Мне (Скит) (01:32)
16. Подруга Рок-Звезды (02:14)
17. Красная Стрела (Feat. Guf) (05:28)
18. Раз и Навсегда (Feat. Jamille) (03:47)
19. Я и Мой Кореш Хип-Хоп (03:06)
20. Шорох В Кустах (05:03)
21. Время Тигра (04:12)
22. Судьба (03:12)
23. Финальная Встреча (04:17)
Exact Audio Copy V0.99 prebeta 4 from 23. January 2008 
Отчёт EAC об извлечении, выполненном 13. мая 2011, 13:13
Смоки МО / Время Тигра
Дисковод: HL-DT-STDVD-RW_GSA-H41N Adapter: 0 ID: 1
Режим чтения : Достоверность
Использование точного потока : Да
Отключение кэша аудио : Да
Использование указателей C2 : Нет
Коррекция смещения при чтении : 667
Способность читать области Lead-in и Lead-out : Нет
Заполнение пропущенных сэмплов тишиной : Да
Удаление блоков с тишиной в начале и конце : Нет
При вычислениях CRC использовались нулевые сэмплы : Да
Интерфейс : Установленный внешний ASPI-интерфейс
Обработка зазоров : Добавлено к предыдущему треку
Выходной формат : Пользовательский кодировщик
Выбранный битрейт : 1024 kBit/s
Качество : Высокий
Добавление ID3-тэга : Нет
Утилита сжатия : C:\Program Files\foobar2000\configs\codecs\flac.exe
Дополнительные параметры : -8 -V -T "ARTIST=%a" -T "TITLE=%t" -T "ALBUM=%g" -T "DATE=%y" -T "TRACKNUMBER=%n" -T "GENRE=%m" -T "COMMENT=EAC FLAC -8" %s
TOC извлечённого CD
Трек | Старт | Длительность | Начальный сектор | Конечный сектор
---------------------------------------------------------------------
1 | 0:00.00 | 3:40.21 | 0 | 16520
2 | 3:40.21 | 3:54.21 | 16521 | 34091
3 | 7:34.42 | 3:25.23 | 34092 | 49489
4 | 10:59.65 | 3:23.47 | 49490 | 64761
5 | 14:23.37 | 0:28.49 | 64762 | 66910
6 | 14:52.11 | 2:56.63 | 66911 | 80173
7 | 17:48.74 | 4:22.37 | 80174 | 99860
8 | 22:11.36 | 3:41.06 | 99861 | 116441
9 | 25:52.42 | 3:12.00 | 116442 | 130841
10 | 29:04.42 | 4:41.69 | 130842 | 151985
11 | 33:46.36 | 0:34.19 | 151986 | 154554
12 | 34:20.55 | 3:11.42 | 154555 | 168921
13 | 37:32.22 | 3:22.41 | 168922 | 184112
14 | 40:54.63 | 3:50.40 | 184113 | 201402
15 | 44:45.28 | 1:32.33 | 201403 | 208335
16 | 46:17.61 | 2:14.42 | 208336 | 218427
17 | 48:32.28 | 5:28.66 | 218428 | 243093
18 | 54:01.19 | 3:47.27 | 243094 | 260145
19 | 57:48.46 | 3:06.37 | 260146 | 274132
20 | 60:55.08 | 5:03.20 | 274133 | 296877
21 | 65:58.28 | 4:12.31 | 296878 | 315808
22 | 70:10.59 | 3:12.52 | 315809 | 330260
23 | 73:23.36 | 4:17.18 | 330261 | 349553
Трек 1
Имя файла G:\Музыка\Lossless\Смоки МО\Смоки МО - Время Тигра (2011)\01_Начало Игры. Часть 3 (Это Для Моих Людей).wav
Длина предзазора 0:00:02.00
Пиковый уровень 99.9 %
Качество трека 100.0 %
CRC теста 3FC9F4B1
CRC копии 3FC9F4B1
Трек не обнаружен в базе AccurateRip
Копирование... OK
Трек 2
Имя файла G:\Музыка\Lossless\Смоки МО\Смоки МО - Время Тигра (2011)\02_Вторник.wav
Пиковый уровень 99.9 %
Качество трека 100.0 %
CRC теста CBC23750
CRC копии CBC23750
Трек не обнаружен в базе AccurateRip
Копирование... OK
Трек 3
Имя файла G:\Музыка\Lossless\Смоки МО\Смоки МО - Время Тигра (2011)\03_Время и Пыль.wav
Пиковый уровень 99.9 %
Качество трека 100.0 %
CRC теста 79001D77
CRC копии 79001D77
Трек не обнаружен в базе AccurateRip
Копирование... OK
Трек 4
Имя файла G:\Музыка\Lossless\Смоки МО\Смоки МО - Время Тигра (2011)\04_Город, Где Летает Дым.wav
Пиковый уровень 99.9 %
Качество трека 100.0 %
CRC теста CF44C0C1
CRC копии CF44C0C1
Трек не обнаружен в базе AccurateRip
Копирование... OK
Трек 5
Имя файла G:\Музыка\Lossless\Смоки МО\Смоки МО - Время Тигра (2011)\05_Кто Вы Такой (Скит).wav
Пиковый уровень 67.0 %
Качество трека 100.0 %
CRC теста 069F45D1
CRC копии 069F45D1
Трек не обнаружен в базе AccurateRip
Копирование... OK
Трек 6
Имя файла G:\Музыка\Lossless\Смоки МО\Смоки МО - Время Тигра (2011)\06_Я Вижу Твоё Сердце Под Прицелом (Мистер Винтаж).wav
Пиковый уровень 99.9 %
Качество трека 100.0 %
CRC теста 56B91469
CRC копии 56B91469
Трек не обнаружен в базе AccurateRip
Копирование... OK
Трек 7
Имя файла G:\Музыка\Lossless\Смоки МО\Смоки МО - Время Тигра (2011)\07_Любовь, Любовь (Вторая Версия).wav
Пиковый уровень 99.9 %
Качество трека 100.0 %
CRC теста F06C62A4
CRC копии F06C62A4
Трек не обнаружен в базе AccurateRip
Копирование... OK
Трек 8
Имя файла G:\Музыка\Lossless\Смоки МО\Смоки МО - Время Тигра (2011)\08_В Поисках Счастья.wav
Пиковый уровень 99.9 %
Качество трека 100.0 %
CRC теста 0A2C3BF9
CRC копии 0A2C3BF9
Трек не обнаружен в базе AccurateRip
Копирование... OK
Трек 9
Имя файла G:\Музыка\Lossless\Смоки МО\Смоки МО - Время Тигра (2011)\09_Проклятье Дворецкого. Часть 2.wav
Пиковый уровень 99.9 %
Качество трека 100.0 %
CRC теста D313EB6B
CRC копии D313EB6B
Трек не обнаружен в базе AccurateRip
Копирование... OK
Трек 10
Имя файла G:\Музыка\Lossless\Смоки МО\Смоки МО - Время Тигра (2011)\10_Останься.wav
Пиковый уровень 99.9 %
Качество трека 99.9 %
CRC теста C9C7E998
CRC копии C9C7E998
Трек не обнаружен в базе AccurateRip
Копирование... OK
Трек 11
Имя файла G:\Музыка\Lossless\Смоки МО\Смоки МО - Время Тигра (2011)\11_Маленькая Земля (Скит).wav
Пиковый уровень 72.1 %
Качество трека 100.0 %
CRC теста 4C4C040E
CRC копии 4C4C040E
Трек не обнаружен в базе AccurateRip
Копирование... OK
Трек 12
Имя файла G:\Музыка\Lossless\Смоки МО\Смоки МО - Время Тигра (2011)\12_Покорный Тон.wav
Пиковый уровень 99.9 %
Качество трека 100.0 %
CRC теста 64543D38
CRC копии 64543D38
Трек не обнаружен в базе AccurateRip
Копирование... OK
Трек 13
Имя файла G:\Музыка\Lossless\Смоки МО\Смоки МО - Время Тигра (2011)\13_Мой Путь.wav
Пиковый уровень 99.9 %
Качество трека 99.9 %
CRC теста 8432053A
CRC копии 8432053A
Трек не обнаружен в базе AccurateRip
Копирование... OK
Трек 14
Имя файла G:\Музыка\Lossless\Смоки МО\Смоки МО - Время Тигра (2011)\14_Глубокое Погружение.wav
Пиковый уровень 99.9 %
Качество трека 100.0 %
CRC теста 19E91906
CRC копии 19E91906
Трек не обнаружен в базе AccurateRip
Копирование... OK
Трек 15
Имя файла G:\Музыка\Lossless\Смоки МО\Смоки МО - Время Тигра (2011)\15_Вина Во Мне (Скит).wav
Пиковый уровень 100.0 %
Качество трека 100.0 %
CRC теста AC1BF10A
CRC копии AC1BF10A
Трек не обнаружен в базе AccurateRip
Копирование... OK
Трек 16
Имя файла G:\Музыка\Lossless\Смоки МО\Смоки МО - Время Тигра (2011)\16_Подруга Рок-Звезды.wav
Пиковый уровень 99.9 %
Качество трека 100.0 %
CRC теста A1E8A63F
CRC копии A1E8A63F
Трек не обнаружен в базе AccurateRip
Копирование... OK
Трек 17
Имя файла G:\Музыка\Lossless\Смоки МО\Смоки МО - Время Тигра (2011)\17_Красная Стрела (Feat. Guf).wav
Пиковый уровень 99.9 %
Качество трека 100.0 %
CRC теста 5DE35422
CRC копии 5DE35422
Трек не обнаружен в базе AccurateRip
Копирование... OK
Трек 18
Имя файла G:\Музыка\Lossless\Смоки МО\Смоки МО - Время Тигра (2011)\18_Раз и Навсегда (Feat. Jamille).wav
Пиковый уровень 99.9 %
Качество трека 100.0 %
CRC теста 55648378
CRC копии 55648378
Трек не обнаружен в базе AccurateRip
Копирование... OK
Трек 19
Имя файла G:\Музыка\Lossless\Смоки МО\Смоки МО - Время Тигра (2011)\19_Я и Мой Кореш Хип-Хоп.wav
Пиковый уровень 99.9 %
Качество трека 99.9 %
CRC теста F524F396
CRC копии F524F396
Трек не обнаружен в базе AccurateRip
Копирование... OK
Трек 20
Имя файла G:\Музыка\Lossless\Смоки МО\Смоки МО - Время Тигра (2011)\20_Шорох В Кустах.wav
Пиковый уровень 99.9 %
Качество трека 100.0 %
CRC теста 8FAD0670
CRC копии 8FAD0670
Трек не обнаружен в базе AccurateRip
Копирование... OK
Трек 21
Имя файла G:\Музыка\Lossless\Смоки МО\Смоки МО - Время Тигра (2011)\21_Время Тигра.wav
Пиковый уровень 99.9 %
Качество трека 100.0 %
CRC теста 3EA94F32
CRC копии 3EA94F32
Трек не обнаружен в базе AccurateRip
Копирование... OK
Трек 22
Имя файла G:\Музыка\Lossless\Смоки МО\Смоки МО - Время Тигра (2011)\22_Судьба.wav
Пиковый уровень 99.9 %
Качество трека 100.0 %
CRC теста EE19D9E3
CRC копии EE19D9E3
Трек не обнаружен в базе AccurateRip
Копирование... OK
Трек 23
Имя файла G:\Музыка\Lossless\Смоки МО\Смоки МО - Время Тигра (2011)\23_Финальная Встреча.wav
Пиковый уровень 99.9 %
Качество трека 100.0 %
CRC теста 85AEFF5A
CRC копии 85AEFF5A
Трек не обнаружен в базе AccurateRip
Копирование... OK
Ни одного трека нет в базе AccurateRip
Ошибок не произошло
Конец отчёта
REM GENRE Rap 
REM DATE 2011
REM DISCID 4B123417
REM COMMENT "ExactAudioCopy v0.99pb4"
PERFORMER "Смоки МО"
TITLE "Время Тигра"
FILE "01_Начало Игры. Часть 3 (Это Для Моих Людей).wav" WAVE
TRACK 01 AUDIO
TITLE "Начало Игры. Часть 3 (Это Для Моих Людей)"
PERFORMER "Смоки МО"
INDEX 01 00:00:00
FILE "02_Вторник.wav" WAVE
TRACK 02 AUDIO
TITLE "Вторник"
PERFORMER "Смоки МО"
INDEX 01 00:00:00
FILE "03_Время и Пыль.wav" WAVE
TRACK 03 AUDIO
TITLE "Время и Пыль"
PERFORMER "Смоки МО"
INDEX 01 00:00:00
FILE "04_Город, Где Летает Дым.wav" WAVE
TRACK 04 AUDIO
TITLE "Город, Где Летает Дым"
PERFORMER "Смоки МО"
INDEX 01 00:00:00
FILE "05_Кто Вы Такой (Скит).wav" WAVE
TRACK 05 AUDIO
TITLE "Кто Вы Такой? (Скит)"
PERFORMER "Смоки МО"
INDEX 01 00:00:00
FILE "06_Я Вижу Твоё Сердце Под Прицелом (Мистер Винтаж).wav" WAVE
TRACK 06 AUDIO
TITLE "Я Вижу Твоё Сердце Под Прицелом (Мистер Винтаж)"
PERFORMER "Смоки МО"
INDEX 01 00:00:00
FILE "07_Любовь, Любовь (Вторая Версия).wav" WAVE
TRACK 07 AUDIO
TITLE "Любовь, Любовь (Вторая Версия)"
PERFORMER "Смоки МО"
INDEX 01 00:00:00
FILE "08_В Поисках Счастья.wav" WAVE
TRACK 08 AUDIO
TITLE "В Поисках Счастья"
PERFORMER "Смоки МО"
INDEX 01 00:00:00
FILE "09_Проклятье Дворецкого. Часть 2.wav" WAVE
TRACK 09 AUDIO
TITLE "Проклятье Дворецкого. Часть 2"
PERFORMER "Смоки МО"
INDEX 01 00:00:00
FILE "10_Останься.wav" WAVE
TRACK 10 AUDIO
TITLE "Останься"
PERFORMER "Смоки МО"
INDEX 01 00:00:00
FILE "11_Маленькая Земля (Скит).wav" WAVE
TRACK 11 AUDIO
TITLE "Маленькая Земля (Скит)"
PERFORMER "Смоки МО"
INDEX 01 00:00:00
FILE "12_Покорный Тон.wav" WAVE
TRACK 12 AUDIO
TITLE "Покорный Тон"
PERFORMER "Смоки МО"
INDEX 01 00:00:00
FILE "13_Мой Путь.wav" WAVE
TRACK 13 AUDIO
TITLE "Мой Путь"
PERFORMER "Смоки МО"
INDEX 01 00:00:00
FILE "14_Глубокое Погружение.wav" WAVE
TRACK 14 AUDIO
TITLE "Глубокое Погружение"
PERFORMER "Смоки МО"
INDEX 01 00:00:00
FILE "15_Вина Во Мне (Скит).wav" WAVE
TRACK 15 AUDIO
TITLE "Вина Во Мне (Скит)"
PERFORMER "Смоки МО"
INDEX 01 00:00:00
FILE "16_Подруга Рок-Звезды.wav" WAVE
TRACK 16 AUDIO
TITLE "Подруга Рок-Звезды"
PERFORMER "Смоки МО"
INDEX 01 00:00:00
FILE "17_Красная Стрела (Feat. Guf).wav" WAVE
TRACK 17 AUDIO
TITLE "Красная Стрела (Feat. Guf)"
PERFORMER "Смоки МО"
INDEX 01 00:00:00
FILE "18_Раз и Навсегда (Feat. Jamille).wav" WAVE
TRACK 18 AUDIO
TITLE "Раз и Навсегда (Feat. Jamille)"
PERFORMER "Смоки МО"
INDEX 01 00:00:00
FILE "19_Я и Мой Кореш Хип-Хоп.wav" WAVE
TRACK 19 AUDIO
TITLE "Я и Мой Кореш Хип-Хоп"
PERFORMER "Смоки МО"
INDEX 01 00:00:00
FILE "20_Шорох В Кустах.wav" WAVE
TRACK 20 AUDIO
TITLE "Шорох В Кустах"
PERFORMER "Смоки МО"
INDEX 01 00:00:00
FILE "21_Время Тигра.wav" WAVE
TRACK 21 AUDIO
TITLE "Время Тигра"
PERFORMER "Смоки МО"
INDEX 01 00:00:00
FILE "22_Судьба.wav" WAVE
TRACK 22 AUDIO
TITLE "Судьба"
PERFORMER "Смоки МО"
INDEX 01 00:00:00
FILE "23_Финальная Встреча.wav" WAVE
TRACK 23 AUDIO
TITLE "Финальная Встреча"
PERFORMER "Смоки МО"
INDEX 01 00:00:00
info [Профиль]  [ЛС] 

mail18496605

Стаж: 8 лет 10 месяцев

Сообщений: 221

Россия
Рейтинг

post 13-Окт-2011 16:17 (спустя 3 месяца) [-]0[+]

[Цитировать] 

Качество мегасупер!
info [Профиль]  [ЛС] 
Показать сообщения:    
Ответить на тему

Текущее время: 23-Фев 23:57

Часовой пояс: GMT + 4



Вы не можете начинать темы
Вы не можете отвечать на сообщения
Вы не можете редактировать свои сообщения
Вы не можете удалять свои сообщения
Вы не можете голосовать в опросах
Вы не можете прикреплять файлы к сообщениям
Вы не можете скачивать файлы