Ошибка

(Underground Rap) Ю.Г. (Южные Головорезы / ЮГ) - Ещё Дешевле, Ещё Сердитее - 2001, APE (image+.cue), lossless

Ответить на тему
 
Автор Сообщение

PlusOne

Пол: Пол:Муж

Стаж: 8 лет 10 месяцев

Сообщений: 175

Ямайка
Рейтинг

post 18-Авг-2011 19:15 0[+]

[Цитировать] 

pic="http://i26.fastpic.ru/big/2011/0818/74/f1ba836ecf9c7f574208c402a21c2e74.jpg"
Ю.Г. (Южные Головорезы / ЮГ) - Ещё Дешевле, Ещё Сердитее

Жанр: Underground Rap
Год издания данного носителя: 2001
Страна-производитель носителя: Россия
Лейбл: RAP Recordz
Каталоговый номер: RRCD2001-10
Тип релиза: image+.cue
Аудио кодек: APE
Битрейт аудио: lossless
Продолжительность: 65:20

Треклист:
1. Пролог
2. Когда мы были молодые
3. Так,как есть
4. Между двух океанов (feat. Nonamerz)
5. Поколение
6. Жизнь проходит зря!? (feat. Мандр)
7. Посвящается всем (feat. Sir-j)
8. Новый раунд / Свежая кровь
9. Нули и единицы (feat. D-Бош)
10. Ода уходящего года (feat. Рабы лампы и Sir-j)
11. Последнее слово (feat. Йори)
12. Братва в шоколаде (интерлюдия)
13. Ростов-Москва (RMX) (feat. Каста)
14. Всё ещё ждем (интерлюдия)
15. Ещё один день. Часть2 (feat. Nonamerz, и Мандр)
16. Т.Х.А.П.
17. Всё ещё дешевле, всё ещё сердитее

Код:

Exact Audio Copy V0.99 prebeta 1 from 25. May 2007

EAC extraction logfile from 2. March 2008, 10:29

Ю.Г. / Еще дешевле, еще сердитее

Used drive  : _NEC    DVD+-RW ND-6650A   Adapter: 0  ID: 1

Read mode               : Secure
Utilize accurate stream : Yes
Defeat audio cache      : Yes
Make use of C2 pointers : No

Read offset correction                      : 48
Overread into Lead-In and Lead-Out          : No
Fill up missing offset samples with silence : Yes
Delete leading and trailing silent blocks   : No
Used interface                              : Installed external ASPI interface

Used output format : Internal WAV Routines
Sample format      : 44.100 Hz; 16 Bit; Stereo

TOC of the extracted CD

     Track |   Start  |  Length  | Start sector | End sector
    ---------------------------------------------------------
        1  |  0:00.00 |  2:39.40 |         0    |    11964   
        2  |  2:39.40 |  3:43.41 |     11965    |    28730   
        3  |  6:23.06 |  3:32.03 |     28731    |    44633   
        4  |  9:55.09 |  4:14.00 |     44634    |    63683   
        5  | 14:09.09 |  5:01.35 |     63684    |    86293   
        6  | 19:10.44 |  3:19.34 |     86294    |   101252   
        7  | 22:30.03 |  4:32.13 |    101253    |   121665   
        8  | 27:02.16 |  4:12.64 |    121666    |   140629   
        9  | 31:15.05 |  4:54.29 |    140630    |   162708   
       10  | 36:09.34 |  4:35.49 |    162709    |   183382   
       11  | 40:45.08 |  4:44.71 |    183383    |   204753   
       12  | 45:30.04 |  1:53.13 |    204754    |   213241   
       13  | 47:23.17 |  5:08.28 |    213242    |   236369   
       14  | 52:31.45 |  0:22.47 |    236370    |   238066   
       15  | 52:54.17 |  4:00.58 |    238067    |   256124   
       16  | 56:55.00 |  4:33.24 |    256125    |   276623   
       17  | 61:28.24 |  3:52.39 |    276624    |   294062   
       18  | 67:52.63 |  5:03.19 |    305463    |   328206   

Range status and errors

Selected range

     Filename C:\domoy\Ю.Г. - Еще дешевле, еще сердитее.wav

     Peak level 98.9 %
     Range quality 100.0 %
     Copy CRC 82642E43
     Copy OK

No errors occurred

End of status report

Код:

REM GENRE Rap
REM DATE 2001
REM DISCID 00111812
REM COMMENT "ExactAudioCopy v0.99pb1"
PERFORMER "Ю.Г."
TITLE "Еще дешевле, еще сердитее"
FILE "Ю.Г. - Еще дешевле, еще сердитее.wav" WAVE
  TRACK 01 AUDIO
    TITLE "Пролог"
    PERFORMER "Ю.Г."
    INDEX 01 00:00:00
  TRACK 02 AUDIO
    TITLE "Когда мы были молодыми"
    PERFORMER "Ю.Г."
    INDEX 01 02:39:40
  TRACK 03 AUDIO
    TITLE "Так как есть"
    PERFORMER "Ю.Г."
    INDEX 01 06:23:06
  TRACK 04 AUDIO
    TITLE "Между двух океанов"
    PERFORMER "Ю.Г."
    INDEX 01 09:55:09
  TRACK 05 AUDIO
    TITLE "Поколение"
    PERFORMER "Ю.Г."
    INDEX 01 14:09:09
  TRACK 06 AUDIO
    TITLE "Жизнь проходит зря"
    PERFORMER "Ю.Г."
    INDEX 01 19:10:44
  TRACK 07 AUDIO
    TITLE "Посвящается всем"
    PERFORMER "Ю.Г."
    INDEX 01 22:30:03
  TRACK 08 AUDIO
    TITLE "Новый раунд\Свежая кровь"
    PERFORMER "Ю.Г."
    INDEX 01 27:02:16
  TRACK 09 AUDIO
    TITLE "Нули и единицы"
    PERFORMER "Ю.Г."
    INDEX 01 31:15:05
  TRACK 10 AUDIO
    TITLE "Ода уходящего года"
    PERFORMER "Ю.Г."
    INDEX 01 36:09:34
  TRACK 11 AUDIO
    TITLE "Последнее слово"
    PERFORMER "Ю.Г."
    INDEX 01 40:45:08
  TRACK 12 AUDIO
    TITLE "Братва в шоколаде скит"
    PERFORMER "Ю.Г."
    INDEX 01 45:30:04
  TRACK 13 AUDIO
    TITLE "Ростов-Москва"
    PERFORMER "Ю.Г."
    INDEX 01 47:23:17
  TRACK 14 AUDIO
    TITLE "Все еще ждем скит"
    PERFORMER "Ю.Г."
    INDEX 01 52:31:45
  TRACK 15 AUDIO
    TITLE "Еще один день ч.2 (видеоверсия)"
    PERFORMER "Ю.Г."
    INDEX 01 52:54:17
  TRACK 16 AUDIO
    TITLE "Т.X.A.П."
    PERFORMER "Ю.Г."
    INDEX 01 56:55:00
  TRACK 17 AUDIO
    TITLE "Все еще дешевле, все еще сердитее"
    PERFORMER "Ю.Г."
    INDEX 01 61:28:24
info [Профиль]  [ЛС] 

Raa

Пол: Пол:Муж

Стаж: 8 лет 5 месяцев

Сообщений: 1099

Рейтинг

post 18-Авг-2011 20:44 (спустя 1 час 28 минут) [-]0[+]

[Цитировать] 

PainkilleR
Что это за переиздание?
info [Профиль]  [ЛС] 

PlusOne

Пол: Пол:Муж

Стаж: 8 лет 10 месяцев

Сообщений: 175

Ямайка
Рейтинг

post 18-Авг-2011 20:56 (спустя 12 минут) [-]0[+]

[Цитировать] 

Омикомс
Ну вроде как 2е переиздание "Дёшево И Сердито (2000)"

_________________
Мои Раздачи | "Плавание – это не спорт. Плавание – это способ не утонуть." - G. Carlin
info [Профиль]  [ЛС] 

Raa

Пол: Пол:Муж

Стаж: 8 лет 5 месяцев

Сообщений: 1099

Рейтинг

post 18-Авг-2011 21:02 (спустя 5 минут) [-]0[+]

[Цитировать] 

PainkilleR
Так это не переиздание, год альбома 2001
info [Профиль]  [ЛС] 

PlusOne

Пол: Пол:Муж

Стаж: 8 лет 10 месяцев

Сообщений: 175

Ямайка
Рейтинг

post 18-Авг-2011 21:12 (спустя 9 минут) [-]0[+]

[Цитировать] 

Омикомс
Ок, исправил. Просто в интрухе "Дёшево И Сердито (2005)" говорится что это третье переиздание.

_________________
Мои Раздачи | "Плавание – это не спорт. Плавание – это способ не утонуть." - G. Carlin
info [Профиль]  [ЛС] 
Показать сообщения:    
Ответить на тему

Текущее время: 20-Авг 18:57

Часовой пояс: GMT + 4



Вы не можете начинать темы
Вы не можете отвечать на сообщения
Вы не можете редактировать свои сообщения
Вы не можете удалять свои сообщения
Вы не можете голосовать в опросах
Вы не можете прикреплять файлы к сообщениям
Вы не можете скачивать файлы